<?xml version="1.0" standalone="no"?>
<!DOCTYPE svg PUBLIC "-//W3C//DTD SVG 1.1//EN" "http://www.w3.org/Graphics/SVG/1.1/DTD/svg11.dtd" >
<svg xmlns="http://www.w3.org/2000/svg" xmlns:xlink="http://www.w3.org/1999/xlink" version="1.1">
<metadata></metadata>
<defs>
<font id="linux_biolinum_oregular" horiz-adv-x="1142" >
<font-face units-per-em="2048" ascent="1638" descent="-410" />
<missing-glyph horiz-adv-x="614" />
<glyph unicode="&#x2e;&#x2e;&#x2e;" horiz-adv-x="1839" d="M133 108v10q18 49 47.5 80t84.5 53h10q54 -20 85 -51t48 -82v-10q-19 -59 -49.5 -89t-83.5 -43h-10q-58 13 -87 41.5t-45 90.5zM784 108v10q17 49 47.5 80t85.5 53h9q54 -20 85.5 -51t48.5 -82v-10q-19 -59 -50 -89t-84 -43h-9q-58 13 -87.5 41.5t-45.5 90.5zM1433 108 v10q17 49 47.5 80t85.5 53h10q53 -20 84 -51t48 -82v-10q-13 -40 -30.5 -66t-42 -41.5t-59.5 -24.5h-10q-58 13 -87.5 41.5t-45.5 90.5z" />
<glyph unicode="&#x21;&#x21;" horiz-adv-x="1009" d="M140 108v10q18 49 48 80t84 53h11q54 -20 84.5 -51t47.5 -82v-10q-19 -59 -49 -89t-83 -43h-11q-58 13 -86.5 41.5t-45.5 90.5zM145 1438q0 47 13 83.5t33.5 56.5t42 30t43.5 10q55 0 96.5 -47.5t41.5 -132.5q0 -70 -10 -139.5t-27 -161.5t-26 -173 q-15 -117 -23.5 -220.5t-12 -160.5t-4.5 -67q-4 -49 -35 -49q-13 0 -20.5 5.5t-9.5 11t-3 15.5q-2 13 -4.5 49t-5.5 82.5t-7.5 100.5t-9.5 116.5t-11 116.5q-8 86 -34.5 232t-26.5 242zM593 113v9q17 50 47 81t85 53h9q54 -20 85.5 -51t48.5 -83v-9q-19 -59 -50 -89t-84 -43 h-9q-58 12 -87 41t-45 91zM598 1442q0 48 12.5 84.5t33 56.5t42.5 29.5t44 9.5q54 0 96 -47t42 -133q0 -90 -27.5 -243t-36.5 -231q-14 -116 -23 -220t-12 -161t-5 -66q-4 -49 -34 -49q-13 0 -20.5 5.5t-9.5 11t-4 15.5q-1 16 -6.5 94.5t-14 182t-16.5 187.5q-9 87 -35 233 t-26 241z" />
<glyph unicode="&#x3f;&#x3f;" horiz-adv-x="1918" d="M106 1457l7 11q27 22 62.5 45t86.5 49t114 42t126 16q186 0 295.5 -101.5t109.5 -270.5q0 -36 -6 -68.5t-19 -62t-26.5 -54t-36 -50t-39 -43t-44.5 -40t-44 -34.5t-45 -33q-52 -39 -83 -67t-46 -57q-44 -84 -44 -179v-108q0 -25 -31 -25q-33 0 -33 25v113q0 41 2 69 t10.5 73.5t25 82.5t49 83.5t78.5 87.5q52 49 82.5 88t47.5 86t17 103q0 121 -69 202.5t-174 81.5q-169 0 -303 -232l-31 2zM305 108v10q17 49 47.5 80t85.5 53h10q36 -14 60.5 -31.5t42 -42.5t29.5 -59v-10q-19 -59 -49.5 -89t-82.5 -43h-10q-58 13 -87.5 41.5t-45.5 90.5z M1030 1457l7 11q27 22 62.5 45t86.5 49t114 42t126 16q186 0 295.5 -101.5t109.5 -270.5q0 -40 -9 -78.5t-21.5 -68t-36 -60.5t-42 -52t-50 -47.5t-50 -40.5t-51.5 -38q-52 -39 -83 -67t-46 -57q-44 -84 -44 -179v-108q0 -25 -31 -25q-33 0 -33 25v113q0 41 2 69t10.5 73.5 t25 82.5t49 83.5t78.5 87.5q52 49 82.5 88t47.5 86t17 103q0 121 -69 202.5t-174 81.5q-168 0 -301 -232l-33 2zM1229 108v10q17 49 47.5 80t85.5 53h10q53 -20 84 -51t48 -82v-10q-19 -59 -49.5 -89t-82.5 -43h-10q-58 13 -87.5 41.5t-45.5 90.5z" />
<glyph unicode="&#x3f;&#x21;" horiz-adv-x="1459" d="M106 1457l7 11q27 22 62.5 45t86.5 49t114 42t126 16q186 0 295.5 -101.5t109.5 -270.5q0 -36 -6 -68.5t-19 -62t-26.5 -54t-36 -50t-39 -43t-44.5 -40t-44 -34.5t-45 -33q-52 -39 -83 -67t-46 -57q-44 -84 -44 -179v-108q0 -25 -31 -25q-33 0 -33 25v113q0 41 2 69 t10.5 73.5t25 82.5t49 83.5t78.5 87.5q52 49 82.5 88t47.5 86t17 103q0 121 -69 202.5t-174 81.5q-169 0 -303 -232l-31 2zM305 108v10q17 49 47.5 80t85.5 53h10q36 -14 60.5 -31.5t42 -42.5t29.5 -59v-10q-19 -59 -49.5 -89t-82.5 -43h-10q-58 13 -87.5 41.5t-45.5 90.5z M1042 113v9q17 50 47.5 80.5t85.5 53.5h9q54 -20 85.5 -51t48.5 -83v-9q-19 -59 -50 -89t-84 -43h-9q-39 8 -64 23t-42 41t-27 68zM1046 1442q0 48 13 84.5t34 56.5t43 29.5t44 9.5q54 0 96 -47t42 -133q0 -89 -28 -241.5t-37 -232.5q-14 -116 -22.5 -220t-11.5 -161t-5 -66 q-4 -49 -34 -49q-19 0 -26 8.5t-9 23.5q0 1 -12.5 175t-23.5 289q-9 86 -25.5 173.5t-27 157t-10.5 143.5z" />
<glyph unicode="&#x21;&#x3f;" horiz-adv-x="1442" d="M140 108v10q18 49 48 80t84 53h11q54 -20 84.5 -51t47.5 -82v-10q-19 -59 -49 -89t-83 -43h-11q-58 13 -86.5 41.5t-45.5 90.5zM145 1438q0 47 13 83.5t33.5 56.5t42 30t43.5 10q55 0 96.5 -47.5t41.5 -132.5q0 -70 -10 -139.5t-27 -161.5t-26 -173 q-15 -117 -23.5 -220.5t-12 -160.5t-4.5 -67q-4 -49 -35 -49q-13 0 -20.5 5.5t-9.5 11t-3 15.5q-2 13 -4.5 49t-5.5 82.5t-7.5 100.5t-9.5 116.5t-11 116.5q-8 86 -34.5 232t-26.5 242zM553 1452l7 11q28 23 63 45.5t86 48.5t114.5 42t125.5 16q187 0 296 -101.5t109 -270.5 q0 -40 -9 -78t-22 -68t-36.5 -61t-42 -52t-50 -47.5t-50 -40.5t-51.5 -38q-50 -38 -81 -66.5t-46 -57.5q-44 -83 -44 -178v-108q0 -26 -33 -26q-31 0 -31 26v112q0 41 1.5 69t10.5 74t25.5 83t49 83t77.5 87q79 73 113.5 134t34.5 144q0 120 -69.5 201.5t-174.5 81.5 q-169 0 -302 -232l-31 3zM752 103v10q12 33 28.5 56.5t41.5 42.5t62 34h10q54 -20 85 -51t48 -82v-10q-19 -59 -49.5 -89.5t-83.5 -43.5h-10q-57 13 -86 42t-46 91z" />
<glyph unicode="ft" horiz-adv-x="1562" d="M47 959q33 51 54 101q32 -5 143 -5v98q0 57 6 102.5t14.5 77t28.5 68.5t36 60t49 68q67 90 165 138.5t214 48.5q34 0 64.5 -6.5t46.5 -16.5l2 -7q-30 -51 -68 -202l-28 -2q-48 86 -143 86q-67 0 -114.5 -35.5t-68.5 -91.5t-21 -126q0 -20 6.5 -111.5t6.5 -124.5v-24h521 q0 114 -3 168.5t-15 127.5l6 9q45 3 76 11t71.5 27t50.5 23q23 0 23 -25q-8 -112 -10 -160t-2 -181h115q102 0 172 5l12 -18q-19 -48 -29 -101q-43 5 -178 5h-92v-351q0 -83 -4 -191.5t-4 -135.5q0 -82 17 -121t64 -39q117 0 193 43l30 -60q-123 -115 -309 -115 q-85 0 -138 53.5t-53 139.5q0 28 3.5 171.5t3.5 227.5v378h-521v-454q0 -327 24 -492l-4 -7q-34 7 -118 7q-38 0 -68.5 -2t-41.5 -3l-11 -2l-3 7q26 163 26 492v454h-3q-123 0 -182 -5z" />
<glyph unicode="tt" horiz-adv-x="1478" d="M47 959q33 51 54 101q40 -5 133 -5q0 77 5 175t5 139l4 7q37 5 63.5 14t58.5 24.5t50 23.5q12 0 17.5 -5.5t5.5 -18.5q-9 -115 -11 -171.5t-2 -187.5h522q0 77 4.5 175t4.5 139l5 7q36 5 63 14t58.5 24.5t50.5 23.5q12 0 17 -5.5t5 -18.5q-8 -115 -10.5 -171.5 t-2.5 -187.5h117q102 0 171 5l12 -18q-19 -48 -29 -101q-43 5 -177 5h-94v-310q0 -83 -3.5 -191t-3.5 -135q0 -101 19 -148t63 -54q95 -15 193 19l30 -61q-77 -49 -142 -69.5t-143 -20.5q-58 0 -106 24.5t-79.5 79.5t-31.5 131q0 28 4.5 171.5t4.5 227.5v336h-522v-351 q0 -83 -4 -188t-4 -132q0 -40 3.5 -67t12.5 -47t25.5 -29.5t40.5 -9.5q50 0 86 9t83 36l30 -69q-69 -65 -137.5 -93.5t-147.5 -28.5q-85 0 -138.5 53.5t-53.5 139.5q0 28 4 171.5t4 227.5v378q-119 0 -175 -5z" />
<glyph unicode="Qu" horiz-adv-x="3063" d="M127 762q0 178 60 336.5t163.5 272.5t247.5 180.5t307 66.5q165 0 309.5 -58.5t250.5 -163t167 -256.5t61 -331q0 -246 -100 -436t-279 -294q67 -43 149.5 -86t187.5 -86.5t217 -80.5t243 -67t260 -47v-14q-159 -84 -230 -141q-323 90 -558 191.5t-472 250.5 q-93 -23 -204 -23q-126 0 -243 35t-214 103t-169.5 162t-113 219t-40.5 267zM380 804q0 -138 31.5 -255.5t86.5 -202t128 -144.5t157 -89t173 -29q106 0 194 44.5t153 128.5t101 213.5t36 291.5q0 189 -39.5 332t-114.5 233.5t-178.5 135.5t-235.5 45q-73 0 -141.5 -23 t-133 -76.5t-112 -133t-76.5 -200.5t-29 -271zM1966 1055l4 7q45 -7 117 -7q70 0 115 7l5 -7q-14 -91 -18 -189t-4 -254v-244q0 -66 9.5 -113.5t23.5 -74.5t37 -42.5t44.5 -20t50.5 -4.5q85 0 180 77.5t156 180.5v241q0 155 -4.5 249.5t-17.5 193.5l5 7q45 -7 115 -7 q71 0 116 7l5 -7q-23 -156 -23 -443v-140q0 -241 42 -472l-4 -7q-49 7 -110 7q-32 0 -97 -7q-9 0 -9 7l-12 218l-11 8q-32 -49 -71.5 -92t-87 -79.5t-102.5 -57.5t-110 -21q-71 0 -127 19.5t-92 51.5t-59.5 77t-33.5 92.5t-10 100.5v295q0 150 -4.5 246.5t-17.5 196.5z" />
<glyph unicode="&#xfb00;" horiz-adv-x="1454" d="M47 959q33 51 54 101q32 -5 143 -5v73q0 57 6 102.5t14.5 77t28.5 68.5t36 60t49 68q67 90 165 138.5t214 48.5q76 0 111 -22l2 -8q-31 -52 -68 -201l-28 -3q-48 86 -143 86q-67 0 -114.5 -35.5t-68.5 -91.5t-21 -126q0 -20 6.5 -99t6.5 -112v-24h486v122q0 57 6.5 102.5 t15 77t29.5 69t36 59.5t49 68q67 90 164.5 138.5t213.5 48.5q76 0 110 -22l3 -8q-30 -51 -69 -202l-27 -2q-49 86 -142 86q-67 0 -114.5 -35.5t-68.5 -91.5t-21 -126q0 -20 6 -123.5t6 -136.5v-24h106q90 0 171 5l14 -18q-22 -54 -30 -101q-44 5 -177 5h-84v-454 q0 -327 24 -492l-5 -7q-33 7 -117 7q-39 0 -69 -2t-40 -3l-11 -2l-3 7q24 155 24 492v454h-486v-454q0 -327 24 -492l-4 -7q-34 7 -118 7q-38 0 -68.5 -2t-41.5 -3l-11 -2l-3 7q26 163 26 492v454h-3q-123 0 -182 -5z" />
<glyph horiz-adv-x="0" />
<glyph horiz-adv-x="682" />
<glyph unicode=" "  horiz-adv-x="614" />
<glyph unicode="&#x09;" horiz-adv-x="614" />
<glyph unicode="&#xa0;" horiz-adv-x="614" />
<glyph unicode="!" horiz-adv-x="559" d="M140 108v10q18 49 48 80t84 53h11q54 -20 84.5 -51t47.5 -82v-10q-19 -59 -49 -89t-83 -43h-11q-58 13 -86.5 41.5t-45.5 90.5zM145 1438q0 47 13 83.5t33.5 56.5t42 30t43.5 10q55 0 96.5 -47.5t41.5 -132.5q0 -70 -10 -139.5t-27 -161.5t-26 -173 q-15 -117 -23.5 -220.5t-12 -160.5t-4.5 -67q-4 -49 -35 -49q-13 0 -20.5 5.5t-9.5 11t-3 15.5q-2 13 -4.5 49t-5.5 82.5t-7.5 100.5t-9.5 116.5t-11 116.5q-8 86 -34.5 232t-26.5 242z" />
<glyph unicode="&#x22;" horiz-adv-x="825" d="M155 1460q0 21 9.5 42.5t25.5 39.5t39.5 29.5t50.5 11.5q44 0 65 -24t21 -58q0 -17 -20 -128t-40 -214l-20 -102l-68 -11q-63 393 -63 414zM464 1463q0 43 37 82.5t89 39.5q30 0 50 -12.5t28 -30t8 -38.5q0 -18 -20.5 -129t-40.5 -213l-20 -102l-67 -11q-64 392 -64 414z " />
<glyph unicode="#" horiz-adv-x="1154" d="M66 479l18 128h238l46 287h-237l21 131h237l71 445h88l-74 -445h293l68 445h87l-71 -445h237l-19 -131h-236l-49 -287h238l-19 -128h-234l-73 -444h-86l68 444h-287l-74 -444h-85l70 444h-236zM410 607h291l44 287h-288z" />
<glyph unicode="$" d="M101 89q2 8 10 39.5t11.5 46.5t9 41.5t9.5 49.5t7 46l21 2q45 -94 127 -156t185 -78l33 604q-63 26 -112 52t-100 64.5t-85 81t-55.5 100.5t-21.5 124q0 69 25 130.5t66.5 107.5t95.5 81t113.5 53.5t118.5 20.5l11 195q33 12 91 12l-12 -210q61 -4 114 -16.5t84.5 -26 t54.5 -27t32 -22.5l9 -8l6 -8q-35 -111 -44 -216l-25 -2q-83 183 -237 224l-29 -532q47 -17 84 -32.5t83 -38.5t80.5 -47.5t69 -58.5t56.5 -71.5t36 -86t14 -102.5q0 -90 -38.5 -177t-109.5 -147q-62 -53 -147.5 -84.5t-176.5 -39.5l-11 -206q-20 -12 -91 -12l12 217 q-70 3 -133.5 14.5t-104.5 26.5t-72.5 30t-45.5 25l-13 10zM307 1165q0 -167 219 -267l28 507h-3q-111 0 -177.5 -67.5t-66.5 -172.5zM571 78q55 4 103 22.5t86 51t60 82t22 110.5q0 47 -8.5 85t-25.5 67.5t-37.5 52t-50 41.5t-55.5 32t-63 27z" />
<glyph unicode="%" horiz-adv-x="1670" d="M155 1081q0 75 27.5 150.5t73 134.5t110 96t133.5 37q53 0 104 -20t73 -46q50 -23 94.5 -37.5t84 -19.5t56 -6t45.5 -1q47 0 98 6.5t108 21.5t107.5 43.5t79.5 67.5l84 -40l-1077 -1500l-88 39l942 1313q-126 -49 -281 -49q-31 0 -70 7t-77 19.5t-62 27.5q7 -25 7 -64 q0 -51 -13.5 -112t-41.5 -123.5t-66.5 -113.5t-95 -83t-119.5 -32q-58 0 -104.5 25.5t-74.5 67t-42.5 91t-14.5 100.5zM290 1044q0 -49 11.5 -84.5t30.5 -53.5t37.5 -26t38.5 -8q52 0 98 39t76 97.5t47.5 125t17.5 125.5q0 46 -11.5 79.5t-31 49.5t-38 23t-38.5 7 q-46 0 -90.5 -37t-76 -92.5t-51.5 -121.5t-20 -123zM997 258q0 73 27.5 147.5t73 133t111 95.5t135.5 37q34 0 64.5 -6.5t61 -23t52 -42.5t35.5 -69t14 -98q0 -54 -13.5 -116t-42 -124t-67 -112t-94 -81t-118.5 -31q-46 0 -86 16.5t-67.5 45t-47 66t-29 78.5t-9.5 84z M1135 218q0 -39 7.5 -70.5t19.5 -50.5t28 -31t31.5 -17t31.5 -5q52 0 98 39.5t76 98.5t47.5 125t17.5 123q0 48 -13 82.5t-33 50t-37.5 21.5t-34.5 6q-60 0 -117 -61t-89.5 -147.5t-32.5 -163.5z" />
<glyph unicode="&#x26;" horiz-adv-x="1744" d="M108 408q0 132 110.5 254.5t353.5 259.5q-132 204 -132 361q0 44 16.5 90.5t49 90t77.5 78t108.5 55.5t134.5 21q128 0 220 -82.5t92 -198.5q0 -99 -103 -216.5t-261 -208.5l10 -20q32 -56 118 -180.5t172 -239.5q125 184 182.5 322.5t73.5 267.5q24 -7 96 -7q81 0 105 7 q-37 -64 -197.5 -351.5t-191.5 -334.5l84 -113q53 -76 105 -115.5t85 -39.5q62 0 105.5 31t80.5 102l40 -20q-40 -122 -106 -183.5t-136 -61.5q-28 0 -47.5 1.5t-50.5 10.5t-57 25.5t-59.5 48.5t-67.5 78l-72 92q-45 -62 -88 -106t-96.5 -79.5t-118 -53t-141.5 -17.5 q-81 0 -152 14.5t-134.5 47.5t-109 82t-72 122.5t-26.5 165.5zM326 383q0 -70 16 -124.5t42.5 -89t65 -56.5t79.5 -31t90 -9q29 0 54 4t46 8.5t42 16.5t36.5 21t35.5 28.5t32.5 32.5t34 40.5t33.5 44t38 51.5q3 4 5 6q-98 130 -212 295.5t-138 208.5q-74 -41 -128 -84 t-87 -83.5t-52 -88t-26 -91.5t-7 -100zM626 1288q0 -49 23.5 -124.5t70.5 -153.5q77 51 135 110.5t88 115.5t30 101q0 55 -18.5 96.5t-55 65t-85.5 23.5q-26 0 -57 -14.5t-61 -41.5t-50 -74t-20 -104z" />
<glyph unicode="'" horiz-adv-x="466" d="M131 1460q0 21 9.5 42.5t25.5 39.5t39.5 29.5t50.5 11.5q30 0 50 -12.5t28 -30t8 -39.5q0 -17 -20.5 -128t-40.5 -214l-21 -102l-66 -11q-63 393 -63 414z" />
<glyph unicode="(" horiz-adv-x="736" d="M108 619q0 167 40 331.5t111 306.5t164.5 263.5t205.5 217.5l56 -45q-25 -28 -46 -53.5t-62 -84.5t-72.5 -118.5t-69.5 -151t-63.5 -186.5t-42.5 -221t-17 -259t17 -259t42 -221t63 -187t69.5 -151t73 -119.5t61.5 -85.5t47 -56l-56 -42q-105 91 -189.5 196.5 t-137.5 199.5t-92.5 197.5t-58 179t-29.5 156.5t-12.5 118t-1.5 74z" />
<glyph unicode=")" horiz-adv-x="736" d="M52 -455q25 29 46 54t62 84.5t72.5 118.5t69.5 150.5t63 186.5t42.5 221t17.5 259t-17 259t-42 221t-63 187.5t-69.5 151t-73 119t-62 85.5t-46.5 56l56 42q105 -91 189.5 -196.5t137.5 -199.5t92 -197t58 -179t29.5 -156.5t12.5 -117.5t2 -75q0 -167 -40 -331t-111 -306 t-164.5 -264t-205.5 -217z" />
<glyph unicode="*" horiz-adv-x="1063" d="M185 1494q0 30 20 52t60 22q29 0 58 -13.5t51 -32t57.5 -42t70.5 -38.5q-5 49 -31 122.5t-26 104.5q0 40 20.5 67.5t52.5 27.5q23 0 41 -9t29.5 -28.5t11.5 -47.5q0 -35 -22.5 -119.5t-24.5 -119.5q31 13 59.5 32t48.5 35t40 30.5t41 22.5t44 8q44 0 64 -24.5t20 -49.5 q0 -91 -169 -91q-77 0 -136 -10q26 -28 66.5 -57t68 -47t48.5 -46.5t21 -62.5q0 -32 -21.5 -51.5t-49.5 -19.5q-33 0 -59 27.5t-40.5 63t-36 86t-39.5 78.5q-15 -27 -31.5 -67.5t-28.5 -70.5t-27.5 -58.5t-36.5 -43.5t-47 -15q-21 0 -37.5 9t-25.5 25t-9 34q0 37 21.5 66.5 t50.5 47t69.5 46t65.5 56.5q-43 10 -104 10q-48 0 -82 4t-61.5 14t-41 28t-13.5 45z" />
<glyph unicode="+" horiz-adv-x="1294" d="M162 511v120h422v429h126v-429h423v-120h-423v-427h-126v427h-422z" />
<glyph unicode="," horiz-adv-x="540" d="M118 108v10q17 49 47.5 80t85.5 53h9q75 -27 116.5 -87t41.5 -171q0 -32 -5 -61.5t-11.5 -52.5t-19.5 -46t-24 -39t-31.5 -34.5t-34 -30t-39 -28t-40 -25l-43.5 -25.5q-1 -1 -2 -1.5l-3 -1.5t-3 -2q-11 9 -16.5 15t-10 15.5t-4.5 21.5q97 65 144 119t47 112 q0 22 -6.5 35.5t-18 19t-22 7.5t-24.5 2q-63 14 -90.5 35.5t-42.5 79.5z" />
<glyph unicode="-" horiz-adv-x="817" d="M82 622q0 30 19.5 60.5t41.5 30.5h563q16 0 24.5 -13t8.5 -32q0 -23 -21.5 -55.5t-44.5 -32.5h-555q-16 0 -26 12.5t-10 29.5z" />
<glyph unicode="." horiz-adv-x="540" d="M133 108v10q18 49 47.5 80t84.5 53h10q54 -20 85 -51t48 -82v-10q-19 -59 -49.5 -89t-83.5 -43h-10q-58 13 -87 41.5t-45 90.5z" />
<glyph unicode="/" horiz-adv-x="793" d="M37 -145l582 1733h101l-582 -1733h-101z" />
<glyph unicode="0" d="M96 710q0 142 26 267.5t71 219.5t105 163t130.5 104t143.5 35q143 0 234 -85q25 -23 48.5 -51t50.5 -69.5t49 -94.5t40.5 -117t29 -147t10.5 -175q0 -120 -16 -224.5t-44 -183t-66.5 -142.5t-81 -107t-89.5 -72t-91 -42t-86 -13q-89 0 -164.5 38t-130.5 105.5t-93 160 t-57 201.5t-19 229zM307 706q0 -53 2 -103.5t9 -116t18 -121t30.5 -111.5t45.5 -95t65 -63.5t86 -24.5q16 0 34.5 4t45.5 18t51 37.5t48 67.5t39 102q25 90 33.5 195t8.5 284q0 232 -40.5 383t-102.5 202q-44 39 -108 39q-265 0 -265 -697z" />
<glyph unicode="1" d="M265 1292q103 32 285.5 108t253.5 99q5 0 7 -0.5t5 -1.5t4 -3.5t1 -6.5q-19 -139 -19 -399v-624q0 -274 21 -464l-5 -7q-68 7 -117 7q-13 0 -29 -0.5t-30.5 -2t-27 -2.5t-20.5 -1l-7 -1l-3 7q21 170 21 464v610q0 30 -0.5 45.5t-1.5 41.5t-4 40.5t-7.5 30t-12.5 22.5 t-19 7q-21 0 -66 -7t-107 -17.5t-107 -14.5z" />
<glyph unicode="2" d="M130 84q0 17 3 31q14 14 71.5 67t95 89t101 99.5t111 116.5t103 121.5t97.5 130.5q45 69 69 159t24 171q0 63 -22.5 118t-59 92.5t-83 59t-94.5 21.5q-118 0 -190 -58q-18 -15 -31 -29.5t-24 -33.5t-17.5 -31.5t-17.5 -39t-18 -40.5l-32 2l-54 170q24 31 59.5 62t88 64 t125 53t151.5 20q202 0 316 -108.5t114 -287.5q0 -97 -50 -206.5t-127 -213.5q-58 -78 -110.5 -142t-108 -122.5t-86.5 -89t-94 -90.5q-43 -43 -43 -67q0 -7 4 -12q67 4 200 4q35 0 67 0.5t57 1t52.5 1.5t44 1.5t42.5 2t36.5 2t38 2.5t35 3t38.5 3.5t39 3.5 q-13 -51 -13 -117q0 -21 8 -80q-292 12 -427 12q-80 0 -151.5 -2t-161.5 -5t-152 -5q-24 39 -24 96z" />
<glyph unicode="3" d="M136 101l54 185l36 2q2 -5 6 -14q13 -29 19.5 -42.5t19 -36.5t20.5 -33.5t21.5 -27t26.5 -23.5t31.5 -17t39 -13.5t46.5 -6.5t58 -3q21 0 45.5 3.5t56.5 14t61.5 27t59 44t51 63t34.5 87t13 112.5q0 74 -24.5 135.5t-71.5 101.5q-33 27 -75 45t-82.5 25.5t-82.5 7.5 q-73 0 -103 -5v108q52 -7 91 -7q130 0 203 69q94 90 94 240q0 58 -18.5 108t-48 83t-65.5 51.5t-72 18.5q-108 0 -173.5 -51t-111.5 -158l-37 2l-52 158l8 8q25 23 60.5 44.5t84.5 43.5t112.5 35.5t130.5 13.5q90 0 164.5 -25t125 -68.5t78 -101.5t27.5 -124 q0 -59 -18 -114.5t-47 -98t-67 -77t-78 -56t-79 -30.5v-13q145 -13 241.5 -109t96.5 -239q0 -78 -25 -147t-67.5 -118.5t-97 -89t-115.5 -63.5t-120 -36.5t-112 -12.5q-228 0 -366 118z" />
<glyph unicode="4" d="M52 413q0 36 32 96q95 163 306.5 486.5t324.5 479.5q0 1 2.5 3.5l4.5 4.5l3 1q44 -9 84 -9q20 0 53.5 4.5t42.5 4.5q5 0 5 -9q-16 -147 -16 -364v-624h158q18 0 27 -11t9 -28q0 -23 -23 -53.5t-47 -30.5h-124q0 -132 16 -364q0 -7 -5 -7q-9 0 -45 3.5t-58 3.5 q-18 0 -47 -2t-49 -3l-21 -2l-2 7q9 76 12 111t5.5 98t2.5 155h-506q-145 0 -145 49zM204 487h499v772z" />
<glyph unicode="5" d="M115 120l54 197l35 2q8 -15 22.5 -42t22 -40.5t20.5 -35.5t22 -32.5t23 -27t26.5 -24.5t30.5 -18t37 -14.5t42.5 -8t51.5 -3.5q126 0 202.5 99.5t76.5 267.5q0 98 -21.5 174.5t-59.5 124t-89 72t-112 24.5q-53 0 -110 -12t-94.5 -25t-100.5 -38l-18 6l80 723 q168 -14 279 -14q203 0 403 24l18 -7l-39 -167q-121 -15 -258 -15q-148 0 -312 22l-52 -434q42 14 118 25t150 11q58 0 110.5 -12.5t95.5 -35.5t80 -55t64 -71.5t46 -84t28.5 -94t9.5 -100.5q0 -143 -63.5 -258.5t-178 -181t-258.5 -65.5q-66 0 -127 13t-107.5 35.5 t-78.5 43.5t-59 45z" />
<glyph unicode="6" d="M113 598q0 121 27.5 234.5t87 220.5t148.5 195q83 84 174 137.5t193.5 81t232.5 34.5l7 -68q-135 -14 -239 -55.5t-193 -127.5q-91 -88 -152.5 -216.5t-81.5 -281.5q43 54 131 91t164 37q79 0 145.5 -18.5t111.5 -48t80.5 -69t56 -80t34 -84t18 -76.5t4.5 -61 q0 -40 -6.5 -81.5t-22.5 -87.5t-39.5 -88t-61 -80.5t-84 -66t-110.5 -44.5t-138 -17q-44 0 -87 7t-92.5 26t-92.5 48.5t-83 78t-69 111.5t-46 152.5t-17 196.5zM310 590q0 -91 10.5 -166.5t28.5 -128.5t44 -94.5t53.5 -66.5t60 -40.5t61 -21.5t58.5 -6q47 0 85 18.5t69 59 t48.5 112t17.5 169.5q0 29 -2.5 57.5t-10.5 65t-21 68t-35 63t-51 53.5t-71.5 35.5t-94.5 13.5q-28 0 -49.5 -2t-57 -10.5t-71.5 -31t-70 -57.5q-2 -24 -2 -90z" />
<glyph unicode="7" d="M155 1268q12 93 12 120q0 17 -2 33t-5.5 37.5t-4.5 33.5q123 -17 687 -17q84 0 159 24l41 -24q-98 -239 -176.5 -441.5t-155 -418.5t-106.5 -304t-112 -333l-180 -10l-7 15q76 171 181 422t162.5 392.5t199.5 492.5q-106 6 -339.5 1t-353.5 -23z" />
<glyph unicode="8" d="M96 359q0 72 43 150t119 145q78 69 172 140l-50 27q-104 61 -160 149.5t-56 192.5q0 94 54.5 170.5t153 121t221.5 44.5q179 0 282 -86t103 -221q0 -45 -20.5 -91t-48.5 -81t-72.5 -73.5t-75.5 -60.5t-73 -51l150 -98q105 -69 159.5 -152t54.5 -187q0 -57 -20 -115.5 t-62 -113t-100 -97t-139.5 -68.5t-174.5 -26q-99 0 -182.5 24.5t-145.5 71.5t-97 120t-35 165zM288 359q0 -64 17.5 -116t45.5 -85.5t64.5 -56.5t73 -32.5t71.5 -9.5q38 0 74 6.5t76 26t69.5 50.5t49 83.5t19.5 121.5q0 182 -217 319l-113 71q-60 -40 -104.5 -86.5t-68 -86 t-37 -82t-17 -69.5t-3.5 -54zM349 1207q0 -33 5.5 -60.5t22 -63t53 -72.5t91.5 -73l77 -44q30 22 60.5 50t63.5 67.5t54 87.5t21 95q0 45 -12.5 84t-37.5 71t-68.5 50.5t-101.5 18.5q-107 0 -167.5 -60t-60.5 -151z" />
<glyph unicode="9" d="M68 1032q0 40 7 81.5t22.5 87.5t39.5 88t61 80t83.5 66t110.5 44.5t138 16.5q44 0 87 -7t92.5 -25.5t92.5 -48t83.5 -78t69 -111.5t46 -152.5t17.5 -196.5q0 -184 -66 -352t-197 -299q-123 -125 -265 -184t-335 -70l-7 70q135 13 239 54.5t193 126.5q90 89 151.5 217.5 t82.5 281.5q-43 -53 -131.5 -90t-164.5 -37q-78 0 -144.5 18.5t-112 47.5t-81 69t-56 80.5t-33.5 84t-18 76.5t-5 61zM286 1049q0 -29 2.5 -58t10.5 -65t20.5 -67.5t34.5 -62.5t51 -53t71.5 -35.5t93.5 -13.5q28 0 49.5 2t57 10.5t72 31t69.5 56.5q3 24 3 90q0 91 -11 167 t-29 129t-44 94.5t-53.5 66t-59.5 40.5t-61 22t-59 6q-46 0 -84 -19t-69 -59.5t-48 -112t-17 -169.5z" />
<glyph unicode=":" horiz-adv-x="540" d="M150 228v11q17 49 47.5 79.5t85.5 52.5h10q54 -20 84.5 -50.5t47.5 -81.5v-11q-19 -59 -49.5 -89t-82.5 -43h-10q-58 13 -87.5 41.5t-45.5 90.5zM150 875v9q17 50 47.5 80.5t85.5 53.5h10q53 -20 84 -51t48 -83v-9q-19 -60 -49.5 -90.5t-82.5 -42.5h-10q-39 8 -64 23.5 t-41.5 41.5t-27.5 68z" />
<glyph unicode=";" horiz-adv-x="540" d="M118 108v10q17 49 47.5 80t85.5 53h9q75 -27 116.5 -87t41.5 -171q0 -32 -5 -61.5t-11.5 -52.5t-19.5 -46t-24 -39t-31.5 -34.5t-34 -30t-39 -28t-40 -25l-43.5 -25.5q-1 -1 -2 -1.5l-3 -1.5t-3 -2q-11 9 -16.5 15t-10 15.5t-4.5 21.5q97 65 144 119t47 112 q0 22 -6.5 35.5t-18 19t-22 7.5t-24.5 2q-63 14 -90.5 35.5t-42.5 79.5zM125 875v9q17 50 47.5 80.5t85.5 53.5h10q53 -20 84.5 -51t48.5 -83v-9q-19 -59 -50 -90t-83 -43h-10q-58 12 -87.5 41.5t-45.5 91.5z" />
<glyph unicode="&#x3c;" horiz-adv-x="1196" d="M120 528v119l959 345v-122l-779 -283l779 -285v-122z" />
<glyph unicode="=" horiz-adv-x="1294" d="M162 354v120h971v-120h-971zM162 661v120h971v-120h-971z" />
<glyph unicode="&#x3e;" horiz-adv-x="1196" d="M120 174v124l780 282l-780 285v123l959 -350v-117z" />
<glyph unicode="?" horiz-adv-x="994" d="M106 1457l7 11q27 22 62.5 45t86.5 49t114 42t126 16q186 0 295.5 -101.5t109.5 -270.5q0 -36 -6 -68.5t-19 -62t-26.5 -54t-36 -50t-39 -43t-44.5 -40t-44 -34.5t-45 -33q-52 -39 -83 -67t-46 -57q-44 -84 -44 -179v-108q0 -25 -31 -25q-33 0 -33 25v113q0 41 2 69 t10.5 73.5t25 82.5t49 83.5t78.5 87.5q52 49 82.5 88t47.5 86t17 103q0 121 -69 202.5t-174 81.5q-169 0 -303 -232l-31 2zM305 108v10q17 49 47.5 80t85.5 53h10q36 -14 60.5 -31.5t42 -42.5t29.5 -59v-10q-19 -59 -49.5 -89t-82.5 -43h-10q-58 13 -87.5 41.5t-45.5 90.5z " />
<glyph unicode="@" horiz-adv-x="2198" d="M145 548.5q0 129.5 36.5 253.5t102 228.5t158.5 192t203.5 149t241 95.5t266.5 34q195 0 364.5 -62t288.5 -169t187.5 -256.5t68.5 -319.5q0 -62 -11 -123t-36.5 -124t-63 -118t-95 -104t-128.5 -84t-167 -55t-207 -20q-25 0 -43.5 10t-27.5 26t-13 32t-4 33q0 40 36 155 l-5 2q-51 -87 -113 -146t-114.5 -83t-98.5 -24q-51 0 -94 11.5t-73.5 31t-54 46t-38 54.5t-24 58.5t-13 55.5t-3.5 48q0 85 24.5 168t66 152t98 127.5t119.5 99t131.5 63t132.5 22.5q63 0 117.5 -29.5t72.5 -76.5l12 59l131 31l36 -12l-147 -633q-32 -149 -32 -165 q0 -15 10 -22.5t17 -7.5q79 0 139.5 15.5t112 52t85 95.5t52 149.5t18.5 211.5q0 105 -24.5 200.5t-68 170t-101.5 137.5t-125 107.5t-139 75.5t-143 46t-138 15q-81 0 -161 -15.5t-158 -48.5t-147 -81t-128 -117t-101.5 -152.5t-66.5 -191.5t-24 -229q0 -83 12 -166.5 t40.5 -173t71 -169.5t108.5 -152.5t148.5 -125t195.5 -83t245 -30.5q153 0 271.5 40t221.5 122l32 -45q-62 -48 -114 -79.5t-121.5 -61t-153 -44t-183.5 -14.5q-144 0 -275.5 33.5t-237.5 93.5t-192 145.5t-144.5 189t-90 225t-31.5 251zM851 398q0 -226 191 -226 q64 0 145 92t138 228q28 67 50.5 147t22.5 137q0 69 -46 112t-114 43q-42 0 -107 -24t-113 -74q-167 -167 -167 -435z" />
<glyph unicode="A" horiz-adv-x="1545" d="M40 -7q406 888 724 1625h69q82 -198 236.5 -580t268.5 -659t168 -386q-42 7 -146 7q-82 0 -124 -7q-54 201 -191 569q-100 6 -288 6q-215 0 -317 -6q-149 -366 -204 -569q-30 7 -111 7q-55 0 -85 -7zM488 678q162 -7 257 -7q120 0 256 6q-117 303 -249 606h-4z" />
<glyph unicode="B" horiz-adv-x="1513" d="M232 0q24 166 24 492v601q0 317 -24 492l4 7q41 -7 125 -7q66 0 169.5 3.5t142.5 3.5q95 0 174 -12.5t134 -33.5t97.5 -51.5t68.5 -63.5t42 -72t22 -74t6 -73q0 -99 -66 -189.5t-163 -138.5q82 -23 148.5 -60t118 -89.5t79.5 -124t28 -158.5q0 -47 -8 -91.5t-27.5 -91.5 t-50 -86.5t-79 -75t-110 -60.5t-147.5 -39.5t-188 -14.5q-117 0 -220 3.5t-171 3.5q-38 0 -70 -2t-44 -3l-13 -2zM467 216q0 -62 55.5 -90t183.5 -28q103 0 178.5 16.5t120 42.5t70.5 67.5t34.5 83.5t8.5 98q0 84 -26 155.5t-76.5 127t-132.5 86.5t-187 31h-229v-590z M467 912h192q80 0 140.5 13t107.5 43t71.5 84t24.5 130q0 72 -19.5 127.5t-50.5 88.5t-73.5 53.5t-83.5 28t-86 7.5q-50 0 -85.5 -2.5t-60.5 -9t-40 -14.5t-23.5 -21.5t-11 -28.5t-2.5 -37v-462z" />
<glyph unicode="C" horiz-adv-x="1663" d="M127 774q0 118 31 230t86 204t131 169t165 129.5t190 82t204 29.5q61 0 123.5 -7t114 -18t99 -24t83 -26.5t62.5 -24t40 -17.5l14 -7l5 -7q-15 -56 -22.5 -91t-12.5 -77t-10 -105l-30 -2q-73 147 -201 218t-299 71q-45 0 -92.5 -11t-98.5 -36.5t-98 -62.5t-89.5 -93 t-73.5 -124t-49.5 -159t-18.5 -194q0 -114 26 -222t75 -197.5t115 -157.5t150 -105.5t176 -37.5q116 0 206 24t173.5 79.5t170.5 151.5l17 -7q13 -32 16 -104q-223 -269 -605 -269q-154 0 -282.5 42.5t-218 116t-151.5 175t-91.5 218.5t-29.5 246z" />
<glyph unicode="D" horiz-adv-x="1744" d="M232 0q24 166 24 492v601q0 317 -24 492l4 7q41 -7 125 -7q79 0 203 3.5t203 3.5q99 0 195 -22t180 -63.5t157.5 -99t131.5 -130t100 -154.5t64.5 -175.5t22.5 -190.5q0 -98 -16.5 -185t-45.5 -155t-70.5 -126t-90 -100.5t-105.5 -76.5t-115.5 -56t-122 -36.5 t-122.5 -20.5t-119 -6q-136 0 -254.5 2.5t-195.5 2.5q-38 0 -70 -2t-44 -3l-13 -2zM467 202q0 -26 5 -41t19 -28t45 -18.5t77.5 -8.5t120.5 -3q79 0 145 7t132 24.5t117.5 46.5t97 75t75 107t46.5 146t17 189q0 73 -8 142.5t-25 140t-45.5 133t-67.5 119.5t-93 102.5 t-119.5 79t-150.5 51.5t-182 18q-33 0 -57 -1t-49 -4.5t-42 -10.5t-31 -18t-20.5 -27t-6.5 -37v-1184z" />
<glyph unicode="E" horiz-adv-x="1321" d="M232 0q24 166 24 492v601q0 317 -24 492l4 7q41 -7 125 -7h647q88 0 148 7l4 -7q-4 -69 -4 -93q0 -26 4 -64l-4 -10q-341 29 -669 29q-7 -26 -12 -109.5t-6.5 -146t-1.5 -98.5v-191q53 0 102 1t84 1.5t77.5 2.5t63.5 3t62 4t52 3.5t55 4.5t52 4l7 -7q-7 -32 -7 -79 q0 -46 7 -78l-7 -7q-79 8 -190 13.5t-202 8t-156 2.5v-287q0 -72 4.5 -194t15.5 -160q146 0 319.5 7t273.5 15l100 7l4 -10q-4 -38 -4 -81q0 -6 4 -76l-4 -7q-60 7 -148 7h-671q-38 0 -70 -2t-44 -3l-13 -2z" />
<glyph unicode="F" horiz-adv-x="1238" d="M232 0q24 166 24 492v601q0 317 -24 492l4 7q41 -7 125 -7h640q95 0 155 7l4 -7q-4 -69 -4 -84q0 -35 4 -73l-4 -10q-341 29 -669 29q-7 -26 -12 -109.5t-6.5 -146t-1.5 -98.5v-191q53 0 102 1t84 1.5t77.5 2.5t63.5 3t62 4t52 3.5t55 4.5t52 4l7 -7q-7 -32 -7 -79 q0 -46 7 -78l-7 -7q-79 8 -190 13.5t-202 8t-156 2.5v-287q0 -308 25 -492l-5 -7q-42 7 -126 7q-38 0 -70 -2t-44 -3l-13 -2z" />
<glyph unicode="G" horiz-adv-x="1761" d="M127 779q0 132 34.5 249.5t94.5 208.5t141.5 164t177.5 120t200 72t210 25q84 0 172.5 -13t155 -31t121 -36.5t83.5 -30.5l29 -13l4 -7q-8 -30 -14 -54t-12 -51t-10 -53.5t-7 -58.5t-6 -69l-29 -2q-84 143 -221 226t-299 83q-124 0 -229.5 -50t-181 -140.5t-118.5 -223 t-43 -290.5q0 -62 8 -124t24.5 -125t42.5 -121t61 -111t82.5 -96.5t103.5 -75.5t127 -49.5t151 -17.5q121 0 212.5 19t149.5 73v112q0 291 -24 467l4 7q41 -7 125 -7q24 0 46.5 0.5t36.5 1.5t25 2.5t16 1.5l5 1l2 -7q-14 -98 -19.5 -188.5t-5.5 -229.5v-15q0 -87 25 -118v-7 q-130 -109 -288 -165t-366 -56q-121 0 -230.5 30t-196 83.5t-157 128.5t-117 164t-71.5 190t-25 207z" />
<glyph unicode="H" horiz-adv-x="1783" d="M232 0q24 166 24 492v601q0 317 -24 492l4 7q45 -7 125 -7q84 0 129 7l2 -7q-25 -171 -25 -492v-195h851v195q0 308 -26 492l5 7q45 -7 126 -7q82 0 127 7l3 -7q-24 -163 -24 -492v-601q0 -317 24 -492l-5 -7q-45 7 -125 7q-83 0 -128 -7l-3 7q26 175 26 492v296h-851 v-296q0 -308 25 -492l-5 -7q-45 7 -126 7q-82 0 -127 -7z" />
<glyph unicode="I" horiz-adv-x="722" d="M232 0q24 166 24 492v601q0 317 -24 492l4 7q45 -7 125 -7q81 0 126 7l5 -7q-25 -171 -25 -492v-601q0 -308 25 -492l-5 -7q-45 7 -126 7q-80 0 -125 -7z" />
<glyph unicode="J" horiz-adv-x="786" d="M-101 -394q30 51 69 202l27 2q48 -85 143 -85q40 0 72.5 17.5t53.5 45t36.5 70.5t24 84t13 97t5.5 98t1 97v859q0 308 -25 492l5 7q45 -7 126 -7q82 0 127 7l3 -7q-24 -163 -24 -492v-805q0 -146 -12.5 -227t-43 -144.5t-99.5 -152.5q-144 -186 -389 -186q-76 0 -110 21z " />
<glyph unicode="K" horiz-adv-x="1545" d="M232 0q24 166 24 492v601q0 317 -24 492l4 7q45 -7 125 -7q81 0 126 7l5 -7q-25 -171 -25 -492v-247q32 3 54 22q295 259 701 724q32 -7 120 -7q86 0 126 7q-194 -169 -414 -379t-334 -343v-5l772 -872q-47 7 -153 7q-110 0 -152 -7q-198 244 -401.5 486.5t-271.5 311.5 q-18 14 -47 17v-316q0 -308 25 -492l-5 -7q-45 7 -126 7q-80 0 -125 -7z" />
<glyph unicode="L" horiz-adv-x="1264" d="M234 0q24 166 24 492v601q0 317 -24 492l5 7q45 -7 125 -7q83 0 128 7l2 -7q-25 -171 -25 -492v-601q0 -70 5 -187t16 -155q146 0 319 13.5t273 26.5l100 14l5 -10q-5 -38 -5 -86q0 -38 5 -108l-5 -7q-59 7 -148 7h-670q-38 0 -69.5 -2t-44.5 -3l-14 -2z" />
<glyph unicode="M" horiz-adv-x="2176" d="M157 -7q195 931 317 1634h82q287 -669 550 -1218l21 -1l596 1219h61q96 -839 231 -1634q-37 7 -137 7q-84 0 -121 -7q-40 445 -136 1169l-9 1q-277 -550 -545 -1163h-47q-268 648 -516 1170h-11q-105 -650 -181 -1177q-28 7 -73 7q-54 0 -82 -7z" />
<glyph unicode="N" horiz-adv-x="1764" d="M241 0q29 284 35 764q2 125 2 242q0 328 -13 579l5 7q19 -7 103 -7l35 5l842 -1091q83 -107 100 -123q31 -29 40 6q5 18 6 56v655q0 317 -24 492l4 7q45 -7 87 -7q40 0 85 7l5 -7q-14 -192 -23 -402t-12 -347.5t-7.5 -396t-6.5 -387.5q-1 -11 -2 -19.5t-2.5 -16.5t-4 -14 t-6.5 -11t-8.5 -8t-10.5 -5t-13 -2q-62 0 -106 59l-857 1083q-18 24 -30 39t-23 25.5t-17 15t-11.5 1.5t-8 -10t-4 -24.5t-2 -35.5t-0.5 -50v-587q0 -317 24 -492l-4 -7q-45 7 -87 7q-40 0 -85 -7z" />
<glyph unicode="O" horiz-adv-x="1820" d="M127 762q0 178 60 336.5t163.5 272.5t247.5 180.5t307 66.5q165 0 309.5 -58.5t250.5 -163t167 -256.5t61 -331q0 -183 -57 -337.5t-159.5 -263.5t-249 -170.5t-320.5 -61.5q-126 0 -243 35t-214 103t-169.5 162t-113 219t-40.5 267zM380 804q0 -138 31.5 -255.5 t86.5 -202t128 -144.5t157 -89t173 -29q106 0 194 44.5t153 128.5t101 213.5t36 291.5q0 189 -39.5 332t-114.5 233.5t-178.5 135.5t-235.5 45q-73 0 -141.5 -23t-133 -76.5t-112 -133t-76.5 -200.5t-29 -271z" />
<glyph unicode="P" horiz-adv-x="1372" d="M232 0q24 166 24 492v601q0 317 -24 492l4 7q45 -7 125 -7q38 0 176 8.5t169 8.5q94 0 174 -14.5t137.5 -39t103 -59t74 -72.5t47.5 -81.5t26.5 -84t7.5 -81.5q0 -66 -19.5 -131.5t-65 -131.5t-112.5 -116t-172 -81.5t-234 -31.5q-125 0 -206 25v-211q0 -308 25 -492 l-5 -7q-45 7 -126 7q-80 0 -125 -7zM467 809q22 -12 82 -18.5t112 -6.5q53 0 96.5 5.5t82.5 18.5t69.5 33.5t54.5 50t40 68t24.5 88.5t8.5 110q0 61 -11 111t-29 84.5t-45 60.5t-56 41.5t-65.5 25t-70 12.5t-72.5 3q-87 0 -136 -12.5t-67 -35t-18 -60.5v-579z" />
<glyph unicode="Q" horiz-adv-x="1820" d="M127 762q0 178 60 336.5t163.5 272.5t247.5 180.5t307 66.5q165 0 309.5 -58.5t250.5 -163t167 -256.5t61 -331q0 -148 -37.5 -278.5t-108 -233.5t-169.5 -176q14 -8 144 -85.5t238.5 -131t230.5 -94.5v-14q-163 -86 -232 -140q-89 50 -158.5 98t-108.5 79.5t-117 81.5 t-186 107q-129 -46 -282 -46q-126 0 -243 35t-214 103t-169.5 162t-113 219t-40.5 267zM380 804q0 -138 31.5 -255.5t86.5 -202t128 -144.5t157 -89t173 -29q106 0 194 44.5t153 128.5t101 213.5t36 291.5q0 189 -39.5 332t-114.5 233.5t-178.5 135.5t-235.5 45 q-73 0 -141.5 -23t-133 -76.5t-112 -133t-76.5 -200.5t-29 -271z" />
<glyph unicode="R" horiz-adv-x="1473" d="M232 0q24 166 24 492v601q0 317 -24 492l4 7q45 -7 125 -7q31 0 101.5 4.5t138 8.5t93.5 4q71 0 122.5 -3t118 -14t121.5 -36t97 -65q130 -122 130 -307q0 -142 -68.5 -242t-177.5 -154q-54 -28 -149 -47q61 -80 171 -241t206 -297t149 -196l-5 -7q-49 7 -148 7 q-101 0 -147 -7q-20 59 -91 191t-143 248q-13 21 -44 72.5t-47.5 77t-43 63t-50.5 65.5q-99 -7 -228 -7v-211q0 -308 25 -492l-5 -7q-45 7 -126 7q-80 0 -125 -7zM467 802h143q46 0 87 3.5t81.5 12t74.5 23t64.5 35t53.5 49.5t40.5 65t26 83t8.5 102t-11.5 101t-31 78.5 t-48 58t-58.5 41t-66 25.5t-68.5 13.5t-66.5 3.5h-60t-48.5 -1.5t-38.5 -3t-29 -5.5t-21.5 -7.5t-14.5 -11t-9.5 -13.5t-5 -17.5t-2.5 -21.5v-27v-586z" />
<glyph unicode="S" horiz-adv-x="1243" d="M122 94q4 12 15.5 55.5t17.5 67t14 61.5t11 69l24 2q57 -109 172.5 -187t218.5 -78q55 0 106 19t91.5 54.5t65 91t24.5 122.5q0 51 -10 94t-29.5 76.5t-43.5 60.5t-58.5 50t-68 40t-77.5 35q-49 21 -88 39.5t-84.5 45t-80 53.5t-68 62.5t-55 74t-34.5 87.5t-13 103 q0 86 38 164.5t98 133t135 86.5q99 42 211 42q81 0 150.5 -11.5t111.5 -28t73 -33t43 -28.5l12 -11l5 -7q-47 -160 -57 -246l-24 -3q-49 115 -141 186.5t-193 71.5q-94 0 -150 -28q-48 -26 -80.5 -90t-32.5 -131q0 -43 10.5 -80t26.5 -65t42 -53.5t49.5 -42t58 -34t57 -26.5 t56.5 -22q47 -18 87.5 -36t86.5 -44t83 -54.5t72 -66.5t59 -80.5t38 -96t14 -113.5q0 -139 -71 -247t-192.5 -165t-272.5 -57q-81 0 -156.5 11.5t-126 27.5t-89.5 32.5t-58 27.5l-18 11z" />
<glyph unicode="T" horiz-adv-x="1326" d="M37 1423q4 28 4 68.5t-4 93.5l5 7q59 -7 148 -7h948q88 0 147 7l5 -7q-4 -52 -4 -92.5t4 -69.5l-5 -9q-19 3 -56 9t-165.5 15t-275.5 9q-7 -26 -12 -110t-6 -144.5t-1 -99.5v-601q0 -308 25 -492l-6 -7q-45 7 -124.5 7t-124.5 -7l-6 7q25 175 25 492v601q0 39 -1 99.5 t-6 144.5t-12 110q-146 0 -270.5 -8.5t-175.5 -16.5l-51 -8z" />
<glyph unicode="U" horiz-adv-x="1700" d="M232 1585l4 7q45 -7 125 -7q81 0 126 7l5 -7q-25 -171 -25 -492v-432q0 -44 1 -73.5t9 -92t22 -107t45 -100.5t73 -91t110 -59.5t153 -24.5q86 0 155.5 17.5t116.5 46t81.5 73.5t54 91t31 107.5t15 113.5t3.5 118v413q0 317 -24 492l5 7q45 -7 85 -7q41 0 86 7l5 -7 q-24 -163 -24 -492v-368q0 -97 -9 -179.5t-30 -160.5t-54.5 -139.5t-84 -112.5t-116.5 -85.5t-154 -53t-194 -18.5q-51 0 -101.5 7t-108.5 25.5t-108.5 47t-98 76t-81.5 108.5t-54 148.5t-20 191.5v513q0 317 -24 492z" />
<glyph unicode="V" horiz-adv-x="1550" d="M40 1592q61 -7 147 -7q73 0 135 7q147 -522 469 -1267h6q5 13 59 137t67 154.5t62 144.5t67 160t58.5 144t60.5 153t48 131t46.5 134t31.5 109q42 -7 112 -7q52 0 97 7q-475 -1040 -725 -1616h-68q-80 191 -236.5 576t-269.5 658t-167 382z" />
<glyph unicode="W" horiz-adv-x="2336" d="M40 1592q42 -7 147 -7q81 0 123 7q14 -53 41 -137t83 -246t150.5 -401.5t209.5 -505.5h5q220 509 312 735q-180 479 -211 555q42 -7 146 -7q94 0 136 7q68 -304 396 -1268h5q10 24 67 155t75.5 174t70 164t74.5 179t63.5 160t63.5 165.5t47.5 138.5t39.5 132 q30 -7 123 -7q56 0 86 7q-475 -1040 -725 -1616h-69q-144 404 -323 888l-395 -888h-68q-80 191 -236.5 576t-269.5 658t-167 382z" />
<glyph unicode="X" horiz-adv-x="1426" d="M56 -7l544 795l-532 804q42 -7 138 -7t141 7q20 -42 50.5 -94.5t75 -123t79 -124t96 -147.5t94.5 -143q116 169 169 248t107.5 170t121.5 214q28 -7 103.5 -7t102.5 7q-7 -10 -202 -278.5t-329 -465.5q22 -34 99.5 -152.5t102 -156.5t86 -131.5t97 -145.5t87 -126.5 t99.5 -142.5q-44 7 -143 7q-97 0 -141 -7q-46 87 -105 185.5t-92.5 150.5t-121 182.5t-109.5 164.5q-243 -372 -411 -683q-28 7 -103.5 7t-103.5 -7z" />
<glyph unicode="Y" horiz-adv-x="1429" d="M40 1592q63 -7 140 -7q76 0 139 7q60 -116 124 -229.5t168.5 -290.5t138.5 -237q272 426 430 757q45 -7 103 -7q54 0 103 7q-70 -107 -161 -244.5t-141 -213t-105.5 -162t-93 -150.5t-67.5 -121q6 -571 17 -708q-45 7 -122.5 7t-122.5 -7q17 190 17 683 q-75 128 -286 469.5t-281 446.5z" />
<glyph unicode="Z" horiz-adv-x="1527" d="M106 2q16 21 37.5 53.5t25.5 38.5l907 1329q9 15 6 22t-13 7q-270 0 -872 -52l-5 9q5 38 5 80q0 27 -5 96l5 7q59 -7 150 -7h746q59 0 169.5 5t140.5 10q15 0 15 -15q0 -19 -16 -47t-58 -86l-872 -1276q-12 -16 -12 -43q143 0 376 13t395 26l162 13l5 -9q-5 -38 -5 -80 q0 -26 5 -96l-5 -7q-59 7 -174 7h-893q-32 0 -85.5 -2t-90.5 -3l-37 -2z" />
<glyph unicode="[" horiz-adv-x="886" d="M270 -472v2200h529v-74q-53 -4 -92 -8t-74.5 -10t-60 -12t-46 -16.5t-34.5 -20t-24 -26.5t-16 -33t-8.5 -41t-4.5 -49t-1 -59v-1501q0 -45 1.5 -73t7.5 -57t15.5 -45.5t29 -33.5t44 -26t64 -18.5t86 -14.5t113.5 -11v-71h-529z" />
<glyph unicode="\" horiz-adv-x="717" d="M28 1716h120l565 -1834h-120z" />
<glyph unicode="]" horiz-adv-x="886" d="M89 -398q66 4 112.5 9t86 14t64 18t44 26t29.5 33.5t16 45.5t7.5 57t1.5 73v1501q0 45 -1.5 72.5t-7.5 56.5t-15.5 45.5t-29 33.5t-44 26t-64.5 18t-86 14.5t-113 10.5v72h528v-2200h-528v74z" />
<glyph unicode="^" horiz-adv-x="1272" d="M275 851l312 746h103l311 -746h-112l-253 606l-250 -606h-111z" />
<glyph unicode="_" horiz-adv-x="1194" d="M12 -270h1172v-108h-1172v108z" />
<glyph unicode="`" horiz-adv-x="962" d="M236 1639l5 28q75 56 160 56q18 0 37 -5l172 -309q14 -29 14 -60q0 -9 -11.5 -18t-25.5 -9q-11 0 -26 10.5t-45 39.5z" />
<glyph unicode="a" horiz-adv-x="1182" d="M110 241q0 83 50 154t141.5 122.5t216.5 80.5l230 51q16 6 16 29q0 57 -8.5 103t-22 76t-34.5 51.5t-40.5 33t-45.5 18t-44 7.5t-41 1q-42 0 -81.5 -16t-73 -47t-60.5 -65.5t-55 -79.5l-32 2l-41 164l7 10q32 27 58 45.5t73 44t105.5 39.5t124.5 14q62 0 115 -9.5 t108.5 -36t94 -69.5t63.5 -115.5t25 -168.5q0 -8 -3.5 -169t-3.5 -201q0 -155 40 -192q20 -18 72 -18q30 0 66 13l20 -61q-72 -76 -196 -76q-70 0 -121 36t-71 106h-10q-99 -84 -166.5 -113t-167.5 -29q-143 0 -225.5 66.5t-82.5 198.5zM310 251q0 -60 51 -105t131 -45 q98 0 226 96q34 26 34 63l10 293l-209 -56q-70 -19 -118.5 -44.5t-75.5 -57t-38 -66.5t-11 -78z" />
<glyph unicode="b" horiz-adv-x="1238" d="M172 1658l4 9q69 5 115 16.5t100 32.5q22 0 22 -25q-15 -182 -15 -462v-273q113 123 308 123q89 0 171 -38t144.5 -103.5t99.5 -161.5t37 -206q0 -121 -31 -221.5t-83 -168.5t-121 -115t-143 -68t-151 -21q-75 0 -153 35t-136 85q-41 -75 -82 -120q-49 0 -68 19 q7 39 9.5 74t2.5 111v1004q0 311 -30 474zM398 199q41 -50 102 -88t114 -38q171 0 247.5 120.5t76.5 357.5q0 111 -22.5 195.5t-62 134.5t-89.5 74.5t-108 24.5q-71 0 -125.5 -32.5t-132.5 -112.5v-636z" />
<glyph unicode="c" horiz-adv-x="1053" d="M94 535q0 98 29.5 185t80.5 151.5t118 112t142.5 71.5t152.5 24q90 0 179 -19t147 -50l6 -7l-57 -201l-32 -3q-49 86 -112.5 133.5t-133.5 47.5q-61 0 -116 -30t-97 -84t-66.5 -136.5t-24.5 -181.5q0 -210 89.5 -330t229.5 -120q74 0 135 22t128 82h10l47 -52 q-72 -92 -160.5 -133t-201.5 -41q-225 0 -359 151.5t-134 407.5z" />
<glyph unicode="d" horiz-adv-x="1302" d="M125 523q0 165 72 292t198 195.5t285 68.5q41 0 104 -15.5t103 -38.5v159q0 357 -22 474l5 9q68 5 113.5 16.5t100.5 32.5q22 0 22 -25q-22 -287 -22 -462v-757q0 -241 42 -472l-5 -7q-49 7 -109 7q-21 0 -86 -7q-21 0 -21 7l-13 143h-5q-130 -167 -317 -167 q-130 0 -232.5 73.5t-157.5 198t-55 275.5zM340 544q0 -90 12.5 -164t35 -124.5t53.5 -85.5t67 -51t76 -16q77 0 157 45t146 129v561q-31 49 -61.5 79t-73 46.5t-98.5 16.5q-28 0 -55 -4.5t-59 -17.5t-60 -33.5t-54 -54.5t-45 -78.5t-30 -108t-11 -139.5z" />
<glyph unicode="e" horiz-adv-x="1112" d="M84 514q0 105 28 196.5t76 158.5t112 114.5t137 71.5t150 24q93 0 168 -29t122 -75t78.5 -108t44.5 -124.5t13 -128.5q0 -42 -45 -42h-668q0 -217 59 -312q24 -38 57.5 -66.5t70 -44t71.5 -22.5t68 -7q212 0 338 136l49 -62q-73 -98 -186.5 -158t-242.5 -60 q-123 0 -224.5 42.5t-165.5 119.5q-110 131 -110 376zM307 671h453q34 0 34 35q0 66 -18.5 120t-48.5 87t-66.5 50t-73.5 17q-22 0 -45.5 -5t-52.5 -17.5t-56 -36t-52 -56.5t-44.5 -83t-29.5 -111z" />
<glyph unicode="f" horiz-adv-x="771" d="M47 959q33 51 54 101q32 -5 143 -5v95q0 71 14 134.5t43.5 123t76.5 118.5q69 88 178 139t225 51q33 0 64 -7.5t47 -17.5l2 -7q-37 -77 -68 -202l-27 -2q-14 25 -35 44t-49 30.5t-59 11.5q-104 0 -166.5 -63.5t-62.5 -165.5q0 -17 6.5 -114t6.5 -147v-21h106q90 0 172 5 l12 -18q-20 -48 -29 -101q-43 5 -178 5h-83v-456q0 -325 24 -490l-4 -7q-45 7 -118 7q-74 0 -119 -7l-5 7q26 163 26 490v456h-3q-123 0 -182 -5z" />
<glyph unicode="g" horiz-adv-x="1225" d="M79 -305q0 34 16.5 80.5t40.5 81.5q109 85 208 125q-94 16 -143 74.5t-49 137.5q0 21 6.5 41t19 38.5t27 35.5t33.5 33.5t35.5 29.5t36.5 26q-174 101 -174 308q0 70 24.5 131.5t66 105t95.5 75t113 46.5t118 15q78 0 150 -22q104 6 225 25t163 22l7 -8q-7 -33 -7 -64 t7 -64l-7 -7q-173 19 -256 25q124 -82 124 -285q0 -73 -28.5 -139t-79.5 -116.5t-129 -80.5t-171 -30q-53 0 -105 10t-78 23q-38 -33 -52 -64.5t-14 -71.5q0 -26 6 -45.5t16.5 -32t23 -20.5t30.5 -12t33 -5.5t34 -1.5q1 0 71 5q103 13 197 13q45 0 80 -2t88.5 -9t99.5 -25 t79 -45q103 -89 103 -244q0 -175 -164 -282.5t-448 -107.5q-100 0 -184 16.5t-149 49.5t-102 87t-37 124zM248 -256q0 -60 27.5 -104t74.5 -68.5t102 -36t118 -11.5q109 0 201 25t152 78t60 125q0 52 -23.5 100t-72.5 77q-46 27 -101 34t-160 7q-12 0 -94.5 -3.5 t-123.5 -3.5q-67 -37 -113.5 -98t-46.5 -121zM326 718q0 -67 12 -117t38 -89t71.5 -59.5t110.5 -20.5q54 0 94.5 20.5t65.5 57t37 84t12 104.5q0 287 -223 287q-71 0 -120 -33t-73.5 -93t-24.5 -141z" />
<glyph unicode="h" horiz-adv-x="1348" d="M199 0q14 96 18 192.5t4 250.5v739q0 359 -22 476l5 9q68 5 113.5 16.5t100.5 32.5q22 0 22 -25q-22 -287 -22 -460v-366l4 -7q56 65 118.5 111.5t120 68.5t102.5 31.5t85 9.5q162 0 233.5 -96t71.5 -293q0 -40 -3 -124t-3 -123q0 -150 4.5 -246.5t18.5 -196.5l-5 -7 q-45 7 -116 7q-70 0 -115 -7l-5 7q23 157 23 443v240q0 74 -10 122.5t-32.5 76.5t-54.5 38.5t-81 10.5q-75 0 -172.5 -49.5t-183.5 -151.5v-287q0 -265 22 -443l-6 -7q-45 7 -115 7t-115 -7z" />
<glyph unicode="i" horiz-adv-x="638" d="M197 1468q0 49 37.5 86.5t87.5 37.5q32 0 61 -17t47 -46t18 -61q0 -50 -38.5 -88t-87.5 -38q-33 0 -62 17.5t-46 46.5t-17 62zM199 0q22 160 22 443v134q0 332 -22 478l5 7q32 -3 87 -3q9 1 19 1q68 0 108 4q14 0 18 -4.5t4 -20.5q-12 -124 -17 -208t-5 -214v-174 q0 -267 22 -443l-6 -7q-45 7 -115 7t-115 -7z" />
<glyph unicode="j" horiz-adv-x="668" d="M-101 -502q10 38 10 219l39 11q62 -111 148 -111q29 0 52 17.5t39 46.5t28 75t18.5 95t10.5 116t5.5 128.5t1.5 140.5v341q0 323 -23 478l6 7q32 -3 87 -3q9 0 19 1q68 0 108 4q14 0 17.5 -4t3.5 -21q-12 -119 -16.5 -204t-4.5 -218v-322q0 -267 -24.5 -400.5 t-83.5 -225.5q-57 -90 -140.5 -144.5t-192.5 -54.5q-71 0 -105 21zM221 1467.5q0 49.5 38 87t87.5 37.5t87.5 -37.5t38 -87t-38 -87.5t-87.5 -38t-87.5 38t-38 87.5z" />
<glyph unicode="k" horiz-adv-x="1236" d="M199 0q22 158 22 492v692q0 357 -22 474l5 9q68 5 113.5 16.5t100.5 32.5q22 0 22 -25q0 -11 -3.5 -50t-4 -51t-3 -46t-3.5 -50t-3 -47t-2.5 -52t-1.5 -50.5t-1 -57.5v-58v-639q67 5 108 36q75 58 193 187.5t195 241.5q202 0 249 7l5 -7q-75 -63 -177.5 -158.5 t-184.5 -176.5t-135 -136q104 -126 195 -223t193 -198t160 -163l-5 -7q-32 7 -147 7q-106 0 -162 -7q-104 150 -144.5 206.5t-102.5 132.5t-140 158q-14 12 -46.5 19t-53.5 7v-24q0 -325 22 -492l-6 -7q-45 7 -115 7t-115 -7z" />
<glyph unicode="l" horiz-adv-x="619" d="M199 0q22 158 22 492v692q0 357 -22 474l5 9q68 5 113.5 16.5t100.5 32.5q22 0 22 -25q0 -11 -3.5 -50t-4 -51t-3 -46t-3.5 -50t-3 -47t-2.5 -52t-1.5 -50.5t-1 -57.5v-58v-737q0 -325 22 -492l-6 -7q-45 7 -115 7t-115 -7z" />
<glyph unicode="m" horiz-adv-x="1982" d="M180 0q13 93 17.5 190t4.5 253v134q0 340 -22 478l5 7q29 -4 67 -4q16 0 32 1q58 2 99 10q9 0 12 -5.5t3 -19.5v-179l8 -7q94 100 199.5 160.5t212.5 60.5q104 0 174.5 -53t86.5 -142q185 195 415 195q77 0 133 -20.5t89 -53.5t52 -86t25 -106t6 -125v-245 q0 -150 4.5 -246.5t18.5 -196.5l-6 -7q-45 7 -115.5 7t-115.5 -7l-5 7q14 93 18 190t4 253v270q0 120 -47 169t-150 49q-41 0 -73.5 -5t-73 -19.5t-81.5 -45t-84 -77.5q3 -30 3 -94v-247q0 -150 4.5 -246.5t17.5 -196.5l-4 -7q-45 7 -117 7q-70 0 -115 -7l-5 7 q23 158 23 443v270q0 218 -163 218q-66 0 -159.5 -52.5t-179.5 -139.5v-296q0 -155 4.5 -250t17.5 -193l-5 -7q-45 7 -115 7t-115 -7z" />
<glyph unicode="n" horiz-adv-x="1323" d="M182 0q14 93 18 190t4 253v134q0 340 -22 478l5 7q29 -4 68 -4q15 0 32 1q59 2 99 10q6 0 9.5 -2.5t4.5 -7.5t1 -15v-179l5 -7q55 65 117.5 111.5t119.5 68.5t102 31.5t85 9.5q162 0 233.5 -96t71.5 -293q0 -40 -2.5 -124t-2.5 -123q0 -150 5 -246.5t18 -196.5l-6 -7 q-45 7 -115 7t-115 -7l-5 7q22 158 22 443v240q0 60 -7 102.5t-19.5 71t-34.5 45t-49.5 23t-66.5 6.5q-76 0 -173 -49.5t-183 -151.5v-287q0 -155 4 -250t17 -193l-4 -7q-45 7 -115.5 7t-115.5 -7z" />
<glyph unicode="o" horiz-adv-x="1228" d="M94 504q0 173 65 303.5t185.5 201t279.5 70.5q163 0 279 -69t174 -192.5t58 -291.5q0 -161 -62 -285t-181 -194.5t-278 -70.5q-119 0 -218 41t-165 112.5t-101.5 167.5t-35.5 207zM310 546q0 -51 6 -101.5t20 -105t39.5 -101t60 -84.5t86 -59.5t114.5 -21.5 q61 0 113.5 31t90 85t58.5 130t21 162q0 96 -7 167t-27.5 136.5t-55 106.5t-90 65t-132.5 24q-67 0 -119.5 -25t-85.5 -66t-54 -98.5t-29.5 -117t-8.5 -127.5z" />
<glyph unicode="p" horiz-adv-x="1285" d="M180 -570q22 158 22 491v656q0 340 -22 478l5 7q29 -4 67 -4q15 0 32 1q58 2 99 10q9 0 12 -5.5t3 -19.5v-179l5 -7q41 62 85.5 106.5t87.5 68.5t81.5 35t76.5 11q81 0 150.5 -28t120 -77t86.5 -114t54 -139.5t18 -152.5q0 -174 -62 -307.5t-181 -209t-278 -75.5 q-145 0 -244 54v-109q0 -323 22 -491l-5 -7q-45 7 -115 7t-115 -7zM398 185q31 -36 66 -60t67 -34t54 -14t41 -4q55 0 100.5 15.5t78 41t57.5 62t40.5 77t25.5 87.5t14 90t4 89q0 210 -64 320.5t-188 110.5q-48 0 -106.5 -33t-110.5 -90t-79 -121v-537z" />
<glyph unicode="q" horiz-adv-x="1282" d="M120 530q0 96 25.5 181.5t72.5 152t110 115t140.5 74.5t162.5 26q61 0 147.5 -5.5t121.5 -11.5q35 -5 95 -5t103 5l6 -7q-23 -145 -23 -478v-656q0 -334 23 -491l-6 -7q-31 7 -115 7q-39 0 -67.5 -2t-38.5 -3l-9 -2l-5 7q21 140 21 491v135q-33 -29 -113 -54.5 t-176 -25.5q-98 0 -179 33t-135 88t-91 127.5t-53.5 149.5t-16.5 156zM337 558q0 -107 19.5 -191t50.5 -136t74 -86.5t85 -47.5t88 -13q41 0 114 22t116 56v413q0 109 -1.5 196.5t-3.5 119.5l-2 33q-26 22 -60 34.5t-74 17t-96 4.5q-138 0 -224 -115.5t-86 -306.5z" />
<glyph unicode="r" horiz-adv-x="872" d="M192 0q13 92 17.5 189.5t4.5 253.5v134q0 340 -22 478l5 7q29 -4 67 -4q15 0 32 1q59 2 100 10q9 0 11.5 -5t2.5 -20v-223l8 -5q43 74 76 120.5t70 80.5t76.5 48t89.5 14q16 0 27.5 -1.5t16.5 -2.5t20 -5.5t24 -7.5l10 -10l-49 -182l-19 -5q-38 35 -129 35q-36 0 -73 -23 t-64 -63q-22 -35 -35.5 -59t-25.5 -54t-17.5 -61.5t-5.5 -69.5v-127q0 -275 22 -443l-5 -7q-45 7 -115 7t-115 -7z" />
<glyph unicode="s" horiz-adv-x="973" d="M82 42l40 206l38 3q55 -78 131 -128t159 -50q66 0 116.5 23.5t80 70t29.5 110.5q0 30 -8 54t-25.5 42.5t-37 33t-50.5 27.5t-59 22t-69 20q-41 12 -73 23.5t-68 29.5t-61.5 40.5t-47.5 52t-33 69.5t-11 88q0 59 21 109t57 84.5t83.5 59t100.5 36t109 11.5q45 0 94 -6.5 t92 -16.5t80.5 -23t64.5 -27l5 -9l-49 -181l-34 -2q-3 3 -8 9q-23 28 -37 43t-41.5 40t-51 39t-57 24.5t-68.5 10.5q-53 0 -95 -17t-67 -52.5t-25 -84.5q0 -136 228 -192q57 -14 102.5 -30.5t90.5 -43t75 -60t48.5 -81.5t18.5 -107q0 -45 -10.5 -87.5t-39.5 -89t-73.5 -80.5 t-120.5 -56.5t-174 -22.5q-182 0 -370 66z" />
<glyph unicode="t" horiz-adv-x="835" d="M47 959q33 51 54 101q40 -5 133 -5q0 144 10 314l4 7q37 5 63.5 14t58.5 24.5t50 23.5q12 0 17.5 -5.5t5.5 -18.5q-9 -115 -11 -171.5t-2 -187.5h116q25 0 56.5 1t66.5 2t49 2l12 -18q-20 -48 -29 -101q-43 5 -178 5h-93v-310q0 -83 -4 -191t-4 -135q0 -101 19 -148 t63 -54q29 -5 58 -5q67 0 135 24l30 -61q-52 -33 -97 -52.5t-90 -28.5t-97 -9q-59 0 -107 24.5t-79 79.5t-31 131q0 28 4 171.5t4 227.5v336q-119 0 -175 -5z" />
<glyph unicode="u" horiz-adv-x="1318" d="M182 1055l5 7q45 -7 115.5 -7t115.5 7l4 -7q-13 -91 -17 -189t-4 -254v-244q0 -66 9 -113.5t23.5 -74.5t37.5 -42.5t44 -20t50 -4.5q57 0 123.5 38.5t121 96.5t92.5 123v241q0 150 -4.5 246.5t-17.5 196.5l4 7q45 -7 117 -7q70 0 115 7l5 -7q-23 -156 -23 -443v-140 q0 -241 42 -472l-5 -7q-48 7 -109 7q-32 0 -97 -7q-10 0 -10 7l-12 218l-9 8q-32 -49 -72 -92t-87.5 -79.5t-102.5 -57.5t-110 -21q-71 0 -127 19.5t-92 51.5t-59.5 77t-33.5 92.5t-10 100.5v295q0 155 -4 249.5t-18 193.5z" />
<glyph unicode="v" horiz-adv-x="1135" d="M49 1062q40 -7 143 -7q90 0 122 7q14 -44 43.5 -138t45.5 -145t43.5 -135t49.5 -144.5t51 -135t59 -142.5h6q50 107 100 248.5t106.5 318.5t91.5 273q21 -7 82 -7q72 0 94 7q-98 -222 -160 -365.5t-140.5 -339.5t-138.5 -364q-22 7 -75 7q-51 0 -75 -7 q-213 553 -448 1069z" />
<glyph unicode="w" horiz-adv-x="1773" d="M49 1060q40 -8 143 -8q90 0 122 8q9 -27 43 -137t46.5 -148.5t43.5 -131.5t51.5 -148.5t50.5 -132t59 -144.5h16q76 164 204 522q-76 205 -115 322q39 -7 143 -7q90 0 122 7q112 -518 235 -840h21q144 337 302 840q22 -7 84 -7q84 0 106 7q-161 -351 -458 -1069 q-21 7 -91 7q-39 0 -63 -7q-31 85 -68.5 182.5t-83.5 216t-70 183.5q-77 -187 -219 -585q-21 8 -89 8q-56 0 -80 -8q-174 452 -455 1070z" />
<glyph unicode="x" horiz-adv-x="1117" d="M59 1062q47 -7 143 -7q82 0 133 7q23 -39 73.5 -126t90.5 -151.5t84 -124.5q61 79 157.5 225t117.5 177q32 -7 91 -7q73 0 111 7l-404 -496q33 -47 120 -176.5t150.5 -220t130.5 -176.5q-77 7 -140 7q-83 0 -126 -7q-22 33 -112.5 182.5t-148.5 230.5 q-55 -78 -142 -218.5t-123 -194.5q-38 7 -108 7q-53 0 -89 -7l386 516z" />
<glyph unicode="y" horiz-adv-x="1243" d="M68 1062q35 -7 129 -7q87 0 120 7q40 -122 95.5 -268.5t94.5 -242.5t113 -275q17 -41 26 -61h4q161 339 323 847q24 -7 96 -7q82 0 106 7q-102 -205 -377 -824.5t-336 -819.5q-40 12 -120 12q-46 0 -86 -12q174 288 290 558q-30 81 -101 246t-129.5 294.5t-147 325 t-100.5 220.5z" />
<glyph unicode="z" horiz-adv-x="1021" d="M49 4q24 27 54 75l577 864q-57 -1 -119 -2.5t-115 -4t-104 -5t-90.5 -5.5t-69.5 -5t-46 -3l-16 -1l-5 7q5 38 5 64q0 2 -5 68l5 6q56 -7 138 -6h502q31 0 77.5 3t81.5 6.5t39 3.5q13 0 13 -13q-18 -21 -73 -104l-564 -842q132 1 286 8t242 13l87 7l5 -7q-5 -39 -5 -65 q0 -1 5 -66l-5 -7q-56 7 -138 7h-555q-31 0 -81 -2t-84 -3l-35 -2z" />
<glyph unicode="{" horiz-adv-x="680" d="M35 577q-30 30 0 59q65 6 113.5 32t75 65.5t39 83.5t12.5 93l-15 452q-3 101 23 175t78 117t119.5 63.5t153.5 20.5q10 -11 10 -29.5t-10 -29.5q-25 -8 -41.5 -13.5t-40 -18t-39 -27.5t-32.5 -39.5t-26 -54.5t-14 -73.5t-3 -96.5l19 -407q2 -40 -1 -75t-11.5 -63.5 t-20.5 -52t-30 -42.5t-37.5 -34.5t-45.5 -28t-52.5 -22.5t-59.5 -19v-10q66 -27 113 -58.5t82.5 -75t51 -102t11.5 -132.5l-19 -367q-4 -75 11 -138t42.5 -104t64.5 -64t78 -23q10 -11 10 -29.5t-10 -29.5q-78 0 -136 11t-106 38.5t-77.5 72.5t-43.5 114.5t-11 164.5l15 418 q8 250 -240 279z" />
<glyph unicode="|" horiz-adv-x="516" d="M199 -570v2286h120v-2286h-120z" />
<glyph unicode="}" horiz-adv-x="680" d="M26 -493.5q0 18.5 11 29.5q25 7 41.5 13t40.5 18.5t39 27t32.5 38.5t26.5 54.5t14 74t3 95.5l-20 408q-4 65 6.5 115t31 85t55 61.5t73 43.5t92.5 32v10q-66 28 -113 59t-82.5 74.5t-51 102t-11.5 132.5l20 366q8 149 -51.5 239.5t-145.5 90.5q-11 11 -11 29.5t11 29.5 q78 0 136 -11t106 -38t77 -72.5t43.5 -115t10.5 -164.5l-14 -417q-8 -251 240 -281q29 -29 0 -59q-66 -6 -114 -32t-74.5 -65t-39 -82.5t-12.5 -92.5l14 -453q4 -101 -22.5 -175t-78 -117t-119 -63t-153.5 -20q-11 11 -11 29.5z" />
<glyph unicode="~" horiz-adv-x="1102" d="M64 514q16 80 61 151.5t113 117t140 45.5q26 0 60 -13t57.5 -26t64.5 -39q33 -21 48.5 -30.5t42.5 -24t48 -21t40 -6.5q28 0 60 9t67 27t66.5 51.5t50.5 77.5l42 -15q-18 -62 -43.5 -112t-54 -81t-56.5 -52.5t-56 -31.5t-48 -14t-37 -4q-43 0 -86 21.5t-98 60.5 q-36 24 -62 39.5t-58.5 27t-61.5 11.5q-69 0 -148.5 -49.5t-119.5 -127.5z" />
<glyph unicode="&#xa2;" horiz-adv-x="1228" d="M185 804q0 109 36.5 205.5t98.5 165.5t141.5 114.5t166.5 61.5v262h94v-253q61 0 124 -9.5t116 -25.5t92 -36l4 -7l-57 -207l-33 -2q-50 86 -113 135t-133 51v-901h10q76 0 139 22.5t130 82.5h11l46 -53q-45 -58 -98 -96.5t-111 -58t-127 -22.5v-267h-94v269 q-205 22 -324 174t-119 395zM406 817q0 -171 60 -285.5t162 -154.5v865q-99 -38 -160.5 -149.5t-61.5 -275.5z" />
<glyph unicode="&#xa3;" horiz-adv-x="1228" d="M48 44q0 35 34.5 65.5t98.5 65.5q57 41 95 101.5t57.5 137t27 154t7.5 175.5v44h-166q-8 0 -11.5 1.5t-5 5t-1.5 10.5v36q0 9 3.5 18.5t10.5 18t20 13.5t30 5h120v54q0 113 17.5 189.5t54.5 136t107 129.5q187 187 466 187q71 0 111 -23l4 -8q-37 -64 -71 -200l-27 -4 q-50 86 -142 86q-53 0 -108 -30t-99 -78.5t-72 -115.5t-28 -136v-187h329q19 0 19 -15v-59q0 -16 -20 -25t-44 -9h-284q-1 -112 -18 -204.5t-47 -157t-60 -107t-68 -78.5h14q83 0 146 -12.5t99 -31t66.5 -36.5t68.5 -31t86 -13q46 0 90.5 8.5t97.5 36t85 71.5l48 -28 q-49 -106 -145.5 -169t-222.5 -63q-66 0 -117 16.5t-86 39t-70 45.5t-85 39t-114 16q-62 0 -86.5 -19t-24.5 -45q0 -44 -30.5 -68t-76.5 -24q-38 0 -60.5 20.5t-22.5 51.5z" />
<glyph unicode="&#xa5;" horiz-adv-x="1228" d="M11 1604q42 -8 143 -8q97 0 139 8q89 -233 166 -404t184 -358q41 65 77.5 132.5t74.5 153t61.5 141t69.5 170t68 165.5q27 -8 103 -8q72 0 103 8q-49 -86 -93.5 -165t-86 -155.5t-69 -126.5t-66.5 -124t-52 -99.5t-52 -101t-43 -82.5h359q19 0 19 -16v-58 q0 -12 -10.5 -21t-24.5 -13t-29 -4h-336q1 -28 1.5 -86.5t1.5 -88.5h378q19 0 19 -17v-55q0 -17 -20 -27t-44 -10h-332q6 -238 14 -362q-39 8 -128 8q-86 0 -126 -8q10 94 14 362h-363q-10 0 -11.5 2.5t-1.5 14.5v37q0 13 4.5 24.5t19 21t37.5 9.5h317q0 31 0.5 89.5 t0.5 85.5h-366q-10 0 -11.5 3t-1.5 15v39q0 21 14 38t47 17h279q-46 86 -222 428t-225 426z" />
<glyph unicode="&#xa8;" horiz-adv-x="931" d="M122 1411q0 48 34.5 83t82 35t81.5 -35t34 -83t-34 -82t-81 -34q-31 0 -58 15.5t-43 42.5t-16 58zM539 1411q0 48 34 83t81 35t81 -35t34 -83t-33.5 -82t-81.5 -34q-31 0 -57.5 15.5t-42 42.5t-15.5 58z" />
<glyph unicode="&#xa9;" horiz-adv-x="1555" d="M84 752q0 141 55 269.5t148.5 221t222 147.5t269.5 55t269.5 -55t221 -147.5t147.5 -221t55 -269.5t-55 -269.5t-147.5 -222t-221 -149t-269.5 -55.5q-142 0 -271 56t-222 149.5t-147.5 222t-54.5 268.5zM160 752q0 -125 48.5 -239t131 -196.5t197.5 -131.5t242 -49 q125 0 239 48.5t197 131t132 196.5t49 240t-49 240.5t-131.5 197t-196.5 131t-240 48.5q-102 0 -196.5 -31t-170.5 -88t-133 -132.5t-88 -170t-31 -195.5zM406 739q0 44 10 86.5t29 80t45.5 71t60.5 60.5t72 46t82 29.5t89 10.5q59 0 100.5 -5.5t59 -12.5t39 -13t44.5 -6 l35 -192l-50 -10q-11 30 -22.5 53t-26.5 44.5t-33 36.5t-41 26.5t-52 17t-63 5.5q-27 0 -51.5 -6t-51 -19t-48 -36.5t-39 -55.5t-27 -79.5t-9.5 -106.5q0 -91 28 -162t86 -114t139 -43q136 0 221 123l47 -38q-27 -40 -67 -74t-99.5 -58.5t-124.5 -24.5q-80 0 -151.5 30 t-122 80t-79.5 117t-29 139z" />
<glyph unicode="&#xab;" horiz-adv-x="1334" d="M182 514v30q105 91 207.5 192.5t246.5 255.5q13 -1 26 -7.5t22 -17t12 -21.5q-160 -245 -313 -418q153 -173 313 -418q-4 -17 -22 -31t-38 -15q-99 106 -175 184t-142.5 141.5t-136.5 124.5zM624 514v30q201 176 455 448q20 -1 37 -15t22 -31q-164 -250 -312 -418 q148 -168 312 -418q-3 -11 -12 -21.5t-21.5 -17t-25.5 -7.5q-144 154 -247 256t-208 194z" />
<glyph unicode="&#xad;" horiz-adv-x="817" d="M82 622q0 30 19.5 60.5t41.5 30.5h563q16 0 24.5 -13t8.5 -32q0 -23 -21.5 -55.5t-44.5 -32.5h-555q-16 0 -26 12.5t-10 29.5z" />
<glyph unicode="&#xae;" horiz-adv-x="1555" d="M84 752q0 141 55 269.5t148.5 221t222 147.5t269.5 55t269.5 -55t221 -147.5t147.5 -221t55 -269.5t-55 -269.5t-147.5 -222t-221 -149t-269.5 -55.5q-142 0 -271 56t-222 149.5t-147.5 222t-54.5 268.5zM160 752q0 -125 48.5 -239t131 -196.5t197.5 -131.5t242 -49 q125 0 239 48.5t197 131t132 196.5t49 240t-49 240.5t-131.5 197t-196.5 131t-240 48.5q-102 0 -196.5 -31t-170.5 -88t-133 -132.5t-88 -170t-31 -195.5zM484 1046v42l6 5h333q45 0 82 -8.5t62 -23t43.5 -32.5t29 -39.5t15.5 -41t5 -38.5q0 -68 -41 -115.5t-102 -67.5 l117 -201q38 -64 106 -52l10 -42q-42 -17 -88 -17q-99 0 -150 87l-118 196q-6 5 -39 7.5t-52 2.5v-178q0 -48 29 -51l35 -5q1 0 4 -1q10 -1 14 -1.5t6.5 -3.5t2.5 -8v-40l-6 -5q-99 5 -144 5l-150 -5l-4 5v42q0 7 4 8.5t20 3.5l42 5q31 4 31 51v443q0 30 -16 45.5t-41 15.5 h-26q-20 0 -20 12zM703 767h78q31 0 54 5t44.5 19t33 44t11.5 75q0 63 -30 93.5t-92 30.5q-99 0 -99 -61v-206z" />
<glyph unicode="&#xb2;" horiz-adv-x="763" d="M94 894q0 86 178 269l99 96q81 83 81 230q0 57 -39 96q-36 37 -73 37q-104 0 -166 -110h-31l-28 103l5 5q80 73 229 73q126 0 199 -51q81 -54 81 -155t-127 -221l-131 -128q-85 -86 -85 -113h105q81 0 243 12q-8 -34 -8 -85q0 -29 8 -63q-116 5 -226 5q-98 0 -312 -5z " />
<glyph unicode="&#xb3;" horiz-adv-x="769" d="M113 959l30 103l29 2q39 -67 60 -86q34 -29 99 -29q54 0 89 31q54 45 54 146q0 152 -145 152q-30 0 -49 -2v61q180 7 180 167q0 51 -28 86q-29 35 -66 35q-65 0 -101 -30q-28 -21 -63 -87h-33l-26 104l2 8q82 71 231 71q100 0 165 -37q71 -45 71 -130q0 -160 -155 -199 v-5q82 -7 133 -52q62 -52 62 -138q0 -127 -104 -194q-87 -56 -219 -56q-128 0 -211 74z" />
<glyph unicode="&#xb4;" horiz-adv-x="837" d="M216 1367q0 5 0.5 9.5t1 8t2.5 8t2.5 6.5t4 8t5 8t6.5 10t7 10l185 293q14 5 34 5q77 0 136 -57l7 -27l-283 -268q-47 -47 -73 -47q-13 0 -24 10t-11 23z" />
<glyph unicode="&#xb8;" horiz-adv-x="1328" d="M530 -450q0 38 26 64q55 -21 81.5 -27.5t60.5 -6.5q37 0 65 11t44 33.5t16 53.5q0 20 -5 35.5t-14.5 27t-25.5 17.5t-36 6q-63 0 -111 -15l-14 15l98 236h84l-62 -164q29 7 65 7q75 0 124.5 -42t49.5 -111q0 -79 -75 -130.5t-188 -51.5q-56 0 -94 9.5t-89 32.5z" />
<glyph unicode="&#xb9;" horiz-adv-x="943" d="M275 1592q91 23 330 99q7 0 7 -7q-14 -101 -14 -212v-332q0 -150 16 -246l-2 -5q-40 5 -94 5q-52 0 -88 -5v5q15 96 15 246v320q0 83 -25 83q-87 0 -143 -7z" />
<glyph unicode="&#xbb;" horiz-adv-x="1334" d="M197 110q163 250 312 418q-149 168 -312 418q3 11 12 21.5t21.5 17t25.5 7.5q253 -272 454 -448v-30q-104 -92 -207 -194t-247 -256q-13 1 -25.5 7.5t-21.5 17t-12 21.5zM638 110q160 245 314 418q-154 173 -314 418q3 11 12.5 21.5t22 17t25.5 7.5q254 -272 455 -448 v-30q-104 -92 -207 -194t-248 -256q-9 0 -19 4.5t-18 10.5t-14 14.5t-9 16.5z" />
<glyph unicode="&#xbc;" horiz-adv-x="1621" d="M241 -133l1128 1610l101 -20l-1126 -1609zM268 1472q91 23 330 99q7 0 7 -7q-15 -101 -15 -213v-331q0 -150 17 -246l-2 -5q-40 5 -94 5q-52 0 -89 -5v5q16 96 16 246v319q0 84 -25 84q-87 0 -143 -7zM902 37q0 42 15 61q144 195 336 514v5q13 -5 65 -5q50 0 87 5l4 -5 q-13 -104 -13 -194v-312h93q17 0 17 -27q0 -15 -10 -35q-14 -25 -26 -25h-74q0 -91 13 -191l-4 -4q-37 4 -87 4q-55 0 -92 -4v4q15 110 15 191h-265q-72 0 -74 18zM1003 106h238v375z" />
<glyph unicode="&#xbd;" horiz-adv-x="1621" d="M182 -133l1126 1610l103 -20l-1128 -1609zM272 1472q92 23 330 99q8 0 8 -7q-15 -101 -15 -213v-331q0 -150 17 -246l-2 -5q-40 5 -94 5q-52 0 -89 -5v5q16 96 16 246v319q0 84 -25 84q-87 0 -143 -7zM973 -194q0 84 180 267l97 96q82 84 82 232q0 56 -40 96 q-34 36 -73 36q-103 0 -164 -111h-33l-27 104l6 4q81 75 228 75q126 0 199 -52q80 -53 80 -155t-127 -222l-131 -127q-85 -85 -85 -113h106q82 0 243 12q-8 -39 -8 -86q0 -21 8 -61q-115 5 -226 5q-98 0 -312 -5z" />
<glyph unicode="&#xbe;" horiz-adv-x="1621" d="M108 833l30 103l29 2q39 -67 59 -85q35 -30 100 -30q53 0 89 33q54 45 54 145q0 152 -145 152q-20 0 -49 -3v62q180 7 180 167q0 51 -28 86q-28 34 -66 34q-66 0 -101 -29q-28 -21 -63 -86h-33l-26 103l2 7q83 72 231 72q99 0 164 -37q72 -45 72 -131q0 -160 -155 -199 v-5q81 -7 132 -52q63 -53 63 -136q0 -128 -103 -195q-88 -56 -220 -56q-129 0 -211 73zM253 -133l1128 1610l101 -20l-1126 -1609zM912 42q0 41 14 61q151 204 338 514v5q12 -5 63 -5q52 0 89 5l2 -5q-13 -104 -13 -195v-312h94q18 0 18 -26q0 -13 -11 -35q-14 -25 -26 -25 h-75q0 -91 13 -191l-2 -5q-37 5 -89 5q-54 0 -91 -5v5q14 110 14 191h-265q-71 0 -73 18zM1013 110h237v377z" />
<glyph unicode="&#xc0;" horiz-adv-x="1545" d="M40 -7q406 888 724 1625h69q82 -198 236.5 -580t268.5 -659t168 -386q-42 7 -146 7q-82 0 -124 -7q-54 201 -191 569q-100 6 -288 6q-215 0 -317 -6q-149 -366 -204 -569q-30 7 -111 7q-55 0 -85 -7zM443 1900q74 72 186 110l297 -206q38 -26 38 -52q0 -9 -5.5 -17.5 t-14 -13.5t-18.5 -5q-36 0 -105 29zM488 678q162 -7 257 -7q120 0 256 6q-117 303 -249 606h-4z" />
<glyph unicode="&#xc2;" horiz-adv-x="1545" d="M40 -7q406 888 724 1625h69q82 -198 236.5 -580t268.5 -659t168 -386q-42 7 -146 7q-82 0 -124 -7q-54 201 -191 569q-100 6 -288 6q-215 0 -317 -6q-149 -366 -204 -569q-30 7 -111 7q-55 0 -85 -7zM488 678q162 -7 257 -7q120 0 256 6q-117 303 -249 606h-4zM502 1747 q108 81 243 232h106q102 -124 247 -232l-38 -51q-150 69 -261 152q-123 -89 -264 -152z" />
<glyph unicode="&#xc4;" horiz-adv-x="1545" d="M40 -7q406 888 724 1625h69q82 -198 236.5 -580t268.5 -659t168 -386q-42 7 -146 7q-82 0 -124 -7q-54 201 -191 569q-100 6 -288 6q-215 0 -317 -6q-149 -366 -204 -569q-30 7 -111 7q-55 0 -85 -7zM352 1742.5q0 45.5 33 78t79 32.5t78.5 -32.5t32.5 -78t-32.5 -78 t-78.5 -32.5t-79 32.5t-33 78zM488 678q162 -7 257 -7q120 0 256 6q-117 303 -249 606h-4zM1027 1742q0 46 33.5 78.5t79.5 32.5q30 0 55.5 -15t40 -40t14.5 -56q0 -45 -32 -77.5t-78 -32.5q-30 0 -56 14.5t-41.5 40t-15.5 55.5z" />
<glyph unicode="&#xc6;" horiz-adv-x="1970" d="M44 -7q52 98 235.5 461t321.5 617t299 515l5 6q41 -7 125 -7h523q88 0 147 7l5 -7q-5 -69 -5 -77q0 -25 5 -63l-5 -10q-191 25 -450 25q-72 0 -113 -4.5t-65 -18.5t-29 -36t0 -61q47 -235 114 -522q128 0 239 4.5t162 8t150 11.5l8 -7q-8 -38 -8 -68.5t8 -68.5l-8 -8 q-218 22 -527 25q81 -342 145 -578q109 4 239.5 10t206.5 11l76 4l5 -10q-5 -38 -5 -81q0 -1 5 -71l-5 -7q-59 7 -148 7h-336h-3h-132q-81 0 -123 -7q0 118 -109 693q-54 2 -162 2q-152 0 -289 -4q-205 -428 -305 -691q-30 7 -110 7q-57 0 -87 -7zM602 800q220 -3 221 -3 q99 0 153 1q-11 54 -44.5 228.5t-55.5 285.5h-5q-123 -219 -269 -512z" />
<glyph unicode="&#xc7;" horiz-adv-x="1663" d="M127 774q0 118 31 230t86 204t131 169t165 129.5t190 82t204 29.5q61 0 123.5 -7t114 -18t99 -24t83 -26.5t62.5 -24t40 -17.5l14 -7l5 -7q-15 -56 -22.5 -91t-12.5 -77t-10 -105l-30 -2q-73 147 -201 218t-299 71q-45 0 -92.5 -11t-98.5 -36.5t-98 -62.5t-89.5 -93 t-73.5 -124t-49.5 -159t-18.5 -194q0 -114 26 -222t75 -197.5t115 -157.5t150 -105.5t176 -37.5q116 0 206 24t173.5 79.5t170.5 151.5l17 -7q13 -32 16 -104q-207 -250 -551 -268l-56 -151q28 7 63 7q76 0 125 -41.5t49 -110.5q0 -52 -34 -94t-94 -65.5t-135 -23.5 q-55 0 -93 10t-89 32q0 39 25 64q56 -20 82.5 -27t60.5 -7q56 0 90.5 26t34.5 73q0 85 -81 85q-64 0 -111 -14l-15 14l93 222q-149 4 -272 48.5t-209 118.5t-145.5 174.5t-87.5 215t-28 241.5z" />
<glyph unicode="&#xc8;" horiz-adv-x="1321" d="M232 0q24 166 24 492v601q0 317 -24 492l4 7q41 -7 125 -7h647q88 0 148 7l4 -7q-4 -69 -4 -93q0 -26 4 -64l-4 -10q-341 29 -669 29q-7 -26 -12 -109.5t-6.5 -146t-1.5 -98.5v-191q53 0 102 1t84 1.5t77.5 2.5t63.5 3t62 4t52 3.5t55 4.5t52 4l7 -7q-7 -32 -7 -79 q0 -46 7 -78l-7 -7q-79 8 -190 13.5t-202 8t-156 2.5v-287q0 -72 4.5 -194t15.5 -160q146 0 319.5 7t273.5 15l100 7l4 -10q-4 -38 -4 -81q0 -6 4 -76l-4 -7q-60 7 -148 7h-671q-38 0 -70 -2t-44 -3l-13 -2zM415 1897q74 72 187 111l298 -207q36 -25 36 -51q0 -15 -11 -26.5 t-25 -11.5q-34 0 -106 30z" />
<glyph unicode="&#xc9;" horiz-adv-x="1321" d="M232 0q24 166 24 492v601q0 317 -24 492l4 7q41 -7 125 -7h647q88 0 148 7l4 -7q-4 -69 -4 -93q0 -26 4 -64l-4 -10q-341 29 -669 29q-7 -26 -12 -109.5t-6.5 -146t-1.5 -98.5v-191q53 0 102 1t84 1.5t77.5 2.5t63.5 3t62 4t52 3.5t55 4.5t52 4l7 -7q-7 -32 -7 -79 q0 -46 7 -78l-7 -7q-79 8 -190 13.5t-202 8t-156 2.5v-287q0 -72 4.5 -194t15.5 -160q146 0 319.5 7t273.5 15l100 7l4 -10q-4 -38 -4 -81q0 -6 4 -76l-4 -7q-60 7 -148 7h-671q-38 0 -70 -2t-44 -3l-13 -2zM518 1752q0 7 1.5 12.5t5.5 11.5t11.5 13t19.5 15l304 211 q106 -49 153 -127l-354 -143q-69 -29 -103 -29q-16 0 -27 10.5t-11 25.5z" />
<glyph unicode="&#xca;" horiz-adv-x="1321" d="M232 0q24 166 24 492v601q0 317 -24 492l4 7q41 -7 125 -7h647q88 0 148 7l4 -7q-4 -69 -4 -93q0 -26 4 -64l-4 -10q-341 29 -669 29q-7 -26 -12 -109.5t-6.5 -146t-1.5 -98.5v-191q53 0 102 1t84 1.5t77.5 2.5t63.5 3t62 4t52 3.5t55 4.5t52 4l7 -7q-7 -32 -7 -79 q0 -46 7 -78l-7 -7q-79 8 -190 13.5t-202 8t-156 2.5v-287q0 -72 4.5 -194t15.5 -160q146 0 319.5 7t273.5 15l100 7l4 -10q-4 -38 -4 -81q0 -6 4 -76l-4 -7q-60 7 -148 7h-671q-38 0 -70 -2t-44 -3l-13 -2zM430 1747q108 81 243 232h106q100 -121 248 -232l-39 -51 q-150 69 -261 152q-125 -91 -263 -152z" />
<glyph unicode="&#xcb;" horiz-adv-x="1321" d="M232 0q24 166 24 492v601q0 317 -24 492l4 7q41 -7 125 -7h647q88 0 148 7l4 -7q-4 -69 -4 -93q0 -26 4 -64l-4 -10q-341 29 -669 29q-7 -26 -12 -109.5t-6.5 -146t-1.5 -98.5v-191q53 0 102 1t84 1.5t77.5 2.5t63.5 3t62 4t52 3.5t55 4.5t52 4l7 -7q-7 -32 -7 -79 q0 -46 7 -78l-7 -7q-79 8 -190 13.5t-202 8t-156 2.5v-287q0 -72 4.5 -194t15.5 -160q146 0 319.5 7t273.5 15l100 7l4 -10q-4 -38 -4 -81q0 -6 4 -76l-4 -7q-60 7 -148 7h-671q-38 0 -70 -2t-44 -3l-13 -2zM356 1845.5q0 47.5 35 82.5t83 35q31 0 58.5 -16t44 -43t16.5 -58 q0 -48 -35.5 -83t-83.5 -35t-83 35t-35 82.5zM821 1846q0 47 35 82t82.5 35t83 -35t35.5 -82.5t-35.5 -82.5t-83.5 -35q-31 0 -58 16t-43 43t-16 59z" />
<glyph unicode="&#xce;" horiz-adv-x="722" d="M61 1747q108 81 244 232h105q100 -121 249 -232l-40 -51q-149 69 -260 152q-126 -91 -263 -152zM232 0q24 166 24 492v601q0 317 -24 492l4 7q45 -7 125 -7q81 0 126 7l5 -7q-25 -171 -25 -492v-601q0 -308 25 -492l-5 -7q-45 7 -126 7q-80 0 -125 -7z" />
<glyph unicode="&#xcf;" horiz-adv-x="722" d="M32 1843q0 48 35 83t83 35t83 -35t35 -83t-35 -82.5t-83 -34.5t-83 34.5t-35 82.5zM232 0q24 166 24 492v601q0 317 -24 492l4 7q45 -7 125 -7q81 0 126 7l5 -7q-25 -171 -25 -492v-601q0 -308 25 -492l-5 -7q-45 7 -126 7q-80 0 -125 -7zM497 1843q0 31 16 58.5t43 43.5 t58 16q48 0 83 -35t35 -83t-35 -82.5t-82.5 -34.5t-82.5 34.5t-35 82.5z" />
<glyph unicode="&#xd4;" horiz-adv-x="1820" d="M127 762q0 178 60 336.5t163.5 272.5t247.5 180.5t307 66.5q165 0 309.5 -58.5t250.5 -163t167 -256.5t61 -331q0 -183 -57 -337.5t-159.5 -263.5t-249 -170.5t-320.5 -61.5q-126 0 -243 35t-214 103t-169.5 162t-113 219t-40.5 267zM380 804q0 -138 31.5 -255.5 t86.5 -202t128 -144.5t157 -89t173 -29q106 0 194 44.5t153 128.5t101 213.5t36 291.5q0 189 -39.5 332t-114.5 233.5t-178.5 135.5t-235.5 45q-73 0 -141.5 -23t-133 -76.5t-112 -133t-76.5 -200.5t-29 -271zM605 1747q108 81 243 232h106q102 -124 247 -232l-38 -51 q-149 69 -261 152q-123 -89 -264 -152z" />
<glyph unicode="&#xd6;" horiz-adv-x="1820" d="M127 762q0 178 60 336.5t163.5 272.5t247.5 180.5t307 66.5q165 0 309.5 -58.5t250.5 -163t167 -256.5t61 -331q0 -183 -57 -337.5t-159.5 -263.5t-249 -170.5t-320.5 -61.5q-126 0 -243 35t-214 103t-169.5 162t-113 219t-40.5 267zM232 1742.5q0 45.5 33 78t79 32.5 t78.5 -32.5t32.5 -78t-32.5 -78t-78.5 -32.5t-79 32.5t-33 78zM380 804q0 -138 31.5 -255.5t86.5 -202t128 -144.5t157 -89t173 -29q106 0 194 44.5t153 128.5t101 213.5t36 291.5q0 189 -39.5 332t-114.5 233.5t-178.5 135.5t-235.5 45q-73 0 -141.5 -23t-133 -76.5 t-112 -133t-76.5 -200.5t-29 -271zM1369 1742.5q0 45.5 32.5 78t78.5 32.5q30 0 55.5 -15t40 -40t14.5 -56q0 -45 -32.5 -77.5t-78 -32.5t-78 32.5t-32.5 78z" />
<glyph unicode="&#xd9;" horiz-adv-x="1700" d="M232 1585l4 7q45 -7 125 -7q81 0 126 7l5 -7q-25 -171 -25 -492v-432q0 -44 1 -73.5t9 -92t22 -107t45 -100.5t73 -91t110 -59.5t153 -24.5q86 0 155.5 17.5t116.5 46t81.5 73.5t54 91t31 107.5t15 113.5t3.5 118v413q0 317 -24 492l5 7q45 -7 85 -7q41 0 86 7l5 -7 q-24 -163 -24 -492v-368q0 -97 -9 -179.5t-30 -160.5t-54.5 -139.5t-84 -112.5t-116.5 -85.5t-154 -53t-194 -18.5q-51 0 -101.5 7t-108.5 25.5t-108.5 47t-98 76t-81.5 108.5t-54 148.5t-20 191.5v513q0 317 -24 492zM638 1900q74 71 188 110l297 -206q37 -26 37 -52 q0 -14 -11 -25t-26 -11q-37 0 -105 29z" />
<glyph unicode="&#xdb;" horiz-adv-x="1700" d="M232 1585l4 7q45 -7 125 -7q81 0 126 7l5 -7q-25 -171 -25 -492v-432q0 -44 1 -73.5t9 -92t22 -107t45 -100.5t73 -91t110 -59.5t153 -24.5q86 0 155.5 17.5t116.5 46t81.5 73.5t54 91t31 107.5t15 113.5t3.5 118v413q0 317 -24 492l5 7q45 -7 85 -7q41 0 86 7l5 -7 q-24 -163 -24 -492v-368q0 -97 -9 -179.5t-30 -160.5t-54.5 -139.5t-84 -112.5t-116.5 -85.5t-154 -53t-194 -18.5q-51 0 -101.5 7t-108.5 25.5t-108.5 47t-98 76t-81.5 108.5t-54 148.5t-20 191.5v513q0 317 -24 492zM634 1747q108 81 243 232h106q100 -121 248 -232 l-39 -51q-150 69 -261 152q-125 -91 -263 -152z" />
<glyph unicode="&#xdc;" horiz-adv-x="1700" d="M232 1585l4 7q45 -7 125 -7q81 0 126 7l5 -7q-25 -171 -25 -492v-432q0 -44 1 -73.5t9 -92t22 -107t45 -100.5t73 -91t110 -59.5t153 -24.5q86 0 155.5 17.5t116.5 46t81.5 73.5t54 91t31 107.5t15 113.5t3.5 118v413q0 317 -24 492l5 7q45 -7 85 -7q41 0 86 7l5 -7 q-24 -163 -24 -492v-368q0 -97 -9 -179.5t-30 -160.5t-54.5 -139.5t-84 -112.5t-116.5 -85.5t-154 -53t-194 -18.5q-51 0 -101.5 7t-108.5 25.5t-108.5 47t-98 76t-81.5 108.5t-54 148.5t-20 191.5v513q0 317 -24 492zM590 1742.5q0 30.5 15 55.5t40.5 40t55.5 15t55.5 -15 t40 -40t14.5 -56q0 -45 -32 -77.5t-78 -32.5q-30 0 -55.5 14.5t-40.5 40t-15 56zM1018 1742.5q0 45.5 32 78t78 32.5q30 0 55.5 -15t40 -40t14.5 -56q0 -45 -32 -77.5t-78 -32.5t-78 32.5t-32 78z" />
<glyph unicode="&#xdf;" horiz-adv-x="1339" d="M91 966l17 64q4 13 15 19t41 6q24 0 38 3.5t23 10t12.5 22.5t5 32.5t1.5 48.5q0 117 30.5 212t79.5 155.5t113 101.5t126.5 58t124.5 17q53 0 100 -9t83.5 -24.5t66.5 -37t50.5 -46t35 -51.5t21 -53.5t6.5 -52.5q0 -139 -55.5 -235t-187.5 -197v-4q77 -51 143 -112 t123 -137t89.5 -168t32.5 -188q0 -193 -81 -298q-99 -127 -297 -127q-79 0 -152 24.5t-103 43.5l-3 8q8 13 14 25.5t10 26.5t6.5 24.5t7 30.5t8.5 35l28 3q23 -42 79 -83t105 -41q37 0 64.5 13t50.5 44t35 88.5t12 140.5q0 105 -42.5 218t-121 215.5t-180.5 180.5v33 q124 96 172.5 183.5t48.5 221.5q0 207 -191 207q-42 0 -76 -10.5t-59 -25.5t-44.5 -44.5t-32 -53.5t-21.5 -68t-13.5 -73.5t-6.5 -83.5t-2.5 -84t-0.5 -89v-594q0 -172 4 -284.5t18 -207.5l-5 -7q-45 7 -115 7q-71 0 -116 -7l-5 7q23 158 23 492v420q0 15 -3.5 22t-9.5 9.5 t-17 2.5h-104q-9 0 -15 6t-4 14z" />
<glyph unicode="&#xe0;" horiz-adv-x="1182" d="M110 241q0 83 50 154t141.5 122.5t216.5 80.5l230 51q16 6 16 29q0 57 -8.5 103t-22 76t-34.5 51.5t-40.5 33t-45.5 18t-44 7.5t-41 1q-42 0 -81.5 -16t-73 -47t-60.5 -65.5t-55 -79.5l-32 2l-41 164l7 10q32 27 58 45.5t73 44t105.5 39.5t124.5 14q62 0 115 -9.5 t108.5 -36t94 -69.5t63.5 -115.5t25 -168.5q0 -8 -3.5 -169t-3.5 -201q0 -155 40 -192q20 -18 72 -18q30 0 66 13l20 -61q-72 -76 -196 -76q-70 0 -121 36t-71 106h-10q-99 -84 -166.5 -113t-167.5 -29q-143 0 -225.5 66.5t-82.5 198.5zM280 1571l6 26q75 57 159 57 q17 0 36 -5l173 -310q14 -29 14 -59q0 -9 -11.5 -18t-25.5 -9q-7 0 -16 4.5t-21.5 15t-33.5 29.5zM310 251q0 -60 51 -105t131 -45q98 0 226 96q34 26 34 63l10 293l-209 -56q-70 -19 -118.5 -44.5t-75.5 -57t-38 -66.5t-11 -78z" />
<glyph unicode="&#xe2;" horiz-adv-x="1182" d="M110 241q0 83 50 154t141.5 122.5t216.5 80.5l230 51q16 6 16 29q0 57 -8.5 103t-22 76t-34.5 51.5t-40.5 33t-45.5 18t-44 7.5t-41 1q-42 0 -81.5 -16t-73 -47t-60.5 -65.5t-55 -79.5l-32 2l-41 164l7 10q32 27 58 45.5t73 44t105.5 39.5t124.5 14q62 0 115 -9.5 t108.5 -36t94 -69.5t63.5 -115.5t25 -168.5q0 -8 -3.5 -169t-3.5 -201q0 -155 40 -192q20 -18 72 -18q30 0 66 13l20 -61q-72 -76 -196 -76q-70 0 -121 36t-71 106h-10q-99 -84 -166.5 -113t-167.5 -29q-143 0 -225.5 66.5t-82.5 198.5zM239 1271q56 62 91.5 103t82 101 t79.5 113h122q80 -131 249 -317l-52 -35q-87 64 -145 112t-115 109q-111 -114 -263 -221zM310 251q0 -60 51 -105t131 -45q98 0 226 96q34 26 34 63l10 293l-209 -56q-70 -19 -118.5 -44.5t-75.5 -57t-38 -66.5t-11 -78z" />
<glyph unicode="&#xe4;" horiz-adv-x="1182" d="M110 241q0 83 50 154t141.5 122.5t216.5 80.5l230 51q16 6 16 29q0 57 -8.5 103t-22 76t-34.5 51.5t-40.5 33t-45.5 18t-44 7.5t-41 1q-42 0 -81.5 -16t-73 -47t-60.5 -65.5t-55 -79.5l-32 2l-41 164l7 10q32 27 58 45.5t73 44t105.5 39.5t124.5 14q62 0 115 -9.5 t108.5 -36t94 -69.5t63.5 -115.5t25 -168.5q0 -8 -3.5 -169t-3.5 -201q0 -155 40 -192q20 -18 72 -18q30 0 66 13l20 -61q-72 -76 -196 -76q-70 0 -121 36t-71 106h-10q-99 -84 -166.5 -113t-167.5 -29q-143 0 -225.5 66.5t-82.5 198.5zM223 1411q0 48 34.5 83t82 35 t81.5 -35t34 -83t-34 -82t-81 -34q-32 0 -58.5 15.5t-42.5 42.5t-16 58zM310 251q0 -60 51 -105t131 -45q98 0 226 96q34 26 34 63l10 293l-209 -56q-70 -19 -118.5 -44.5t-75.5 -57t-38 -66.5t-11 -78zM638 1411q0 48 34.5 83t82.5 35q31 0 57.5 -16t42 -43t15.5 -59 q0 -48 -34 -82t-81 -34q-24 0 -45.5 9t-37 25t-25 37.5t-9.5 44.5z" />
<glyph unicode="&#xe6;" horiz-adv-x="1687" d="M96 248q0 156 162 256t469 122q-1 91 -12 152t-37 105.5t-70.5 64.5t-110.5 20q-52 0 -106.5 -32t-96.5 -80t-76 -106l-31 2l-39 165l7 9q32 27 59.5 46.5t76 47.5t107 43.5t120.5 15.5q26 0 50 -2t67.5 -11.5t79.5 -26.5t75.5 -51t65.5 -81q61 83 152 127.5t197 44.5 q79 0 146.5 -25.5t109.5 -63t72 -82.5t42.5 -83t12.5 -65q0 -124 -64 -178q-31 -17 -88.5 -25t-117.5 -9.5t-179.5 -4t-219.5 -8.5q0 -129 37.5 -226t106.5 -149t161 -52q161 0 302 167l50 -69q-36 -66 -95.5 -118t-135.5 -82t-156 -30q-36 0 -69.5 4t-59 9.5t-51.5 17 t-43 19.5t-37 24t-29.5 24t-25.5 25.5t-20.5 23t-18.5 22.5q-177 -169 -368 -169q-95 0 -166.5 19t-116 55t-66.5 85.5t-22 112.5zM298 260q0 -162 174 -162q71 0 137.5 40t91.5 108q12 33 19 111.5t7 170.5q-118 -11 -204 -36.5t-134 -62t-69.5 -78t-21.5 -91.5zM922 634 q47 2 96 3.5t84 1.5t70.5 0.5t60 1t48 3t38.5 7.5t28 13t20 20t10.5 29t3.5 39q0 31 -12 67.5t-33.5 70.5t-57 56t-77.5 22q-116 0 -190.5 -89t-88.5 -245z" />
<glyph unicode="&#xe7;" horiz-adv-x="1053" d="M94 535q0 98 29.5 185t80.5 151.5t118 112t142.5 71.5t152.5 24q90 0 179 -19t147 -50l6 -7l-57 -201l-32 -3q-49 86 -112.5 133.5t-133.5 47.5q-61 0 -116 -30t-97 -84t-66.5 -136.5t-24.5 -181.5q0 -210 89.5 -330t229.5 -120q74 0 135 22t128 82h10l47 -52 q-67 -85 -148 -126.5t-183 -47.5l-50 -136q28 8 63 8q76 0 125.5 -42t49.5 -111q0 -52 -34 -93.5t-94 -65t-134 -23.5q-56 0 -94 9.5t-89 32.5q0 39 25 65q4 -2 12 -5q50 -18 74 -24t56 -6q56 0 91 26t35 72q0 40 -20.5 62.5t-61.5 22.5q-62 0 -110 -14l-14 14l86 210 q-202 18 -321 167.5t-119 389.5z" />
<glyph unicode="&#xe8;" horiz-adv-x="1112" d="M84 514q0 105 28 196.5t76 158.5t112 114.5t137 71.5t150 24q93 0 168 -29t122 -75t78.5 -108t44.5 -124.5t13 -128.5q0 -42 -45 -42h-668q0 -217 59 -312q24 -38 57.5 -66.5t70 -44t71.5 -22.5t68 -7q212 0 338 136l49 -62q-73 -98 -186.5 -158t-242.5 -60 q-123 0 -224.5 42.5t-165.5 119.5q-110 131 -110 376zM307 671h453q34 0 34 35q0 66 -18.5 120t-48.5 87t-66.5 50t-73.5 17q-22 0 -45.5 -5t-52.5 -17.5t-56 -36t-52 -56.5t-44.5 -83t-29.5 -111zM314 1571l5 26q75 57 160 57q18 0 37 -5l172 -310q15 -31 15 -59 q0 -9 -11.5 -18t-25.5 -9q-7 0 -16 4.5t-21.5 15t-33.5 29.5z" />
<glyph unicode="&#xe9;" horiz-adv-x="1112" d="M84 514q0 105 28 196.5t76 158.5t112 114.5t137 71.5t150 24q93 0 168 -29t122 -75t78.5 -108t44.5 -124.5t13 -128.5q0 -42 -45 -42h-668q0 -217 59 -312q24 -38 57.5 -66.5t70 -44t71.5 -22.5t68 -7q212 0 338 136l49 -62q-73 -98 -186.5 -158t-242.5 -60 q-123 0 -224.5 42.5t-165.5 119.5q-110 131 -110 376zM307 671h453q34 0 34 35q0 66 -18.5 120t-48.5 87t-66.5 50t-73.5 17q-22 0 -45.5 -5t-52.5 -17.5t-56 -36t-52 -56.5t-44.5 -83t-29.5 -111zM450 1288q0 13 3.5 24t7.5 17.5t17 26.5l186 293q14 5 34 5q76 0 135 -57 l7 -26l-282 -269q-46 -46 -74 -46q-13 0 -23.5 9.5t-10.5 22.5z" />
<glyph unicode="&#xea;" horiz-adv-x="1112" d="M84 514q0 105 28 196.5t76 158.5t112 114.5t137 71.5t150 24q93 0 168 -29t122 -75t78.5 -108t44.5 -124.5t13 -128.5q0 -42 -45 -42h-668q0 -217 59 -312q24 -38 57.5 -66.5t70 -44t71.5 -22.5t68 -7q212 0 338 136l49 -62q-73 -98 -186.5 -158t-242.5 -60 q-123 0 -224.5 42.5t-165.5 119.5q-110 131 -110 376zM258 1271q56 62 91.5 103t82 101t79.5 113h123q80 -131 248 -317l-52 -35q-57 42 -93 70t-81.5 68.5t-85.5 82.5q-111 -114 -263 -221zM307 671h453q34 0 34 35q0 66 -18.5 120t-48.5 87t-66.5 50t-73.5 17 q-22 0 -45.5 -5t-52.5 -17.5t-56 -36t-52 -56.5t-44.5 -83t-29.5 -111z" />
<glyph unicode="&#xeb;" horiz-adv-x="1112" d="M84 514q0 105 28 196.5t76 158.5t112 114.5t137 71.5t150 24q93 0 168 -29t122 -75t78.5 -108t44.5 -124.5t13 -128.5q0 -42 -45 -42h-668q0 -217 59 -312q24 -38 57.5 -66.5t70 -44t71.5 -22.5t68 -7q212 0 338 136l49 -62q-73 -98 -186.5 -158t-242.5 -60 q-123 0 -224.5 42.5t-165.5 119.5q-110 131 -110 376zM244 1411q0 48 33.5 83t81 35t81.5 -35t34 -83t-34 -82t-81 -34q-31 0 -58 15.5t-42 42.5t-15 58zM307 671h453q34 0 34 35q0 66 -18.5 120t-48.5 87t-66.5 50t-73.5 17q-22 0 -45.5 -5t-52.5 -17.5t-56 -36t-52 -56.5 t-44.5 -83t-29.5 -111zM659 1411q0 48 34 83t81 35t81 -35t34 -83t-33.5 -82t-81.5 -34q-31 0 -57.5 15.5t-42 42.5t-15.5 58z" />
<glyph unicode="&#xee;" horiz-adv-x="638" d="M19 1271q56 62 91.5 103t82 101t79.5 113h124q80 -131 248 -317l-51 -35q-60 44 -94.5 70.5t-81 67.5t-86.5 83q-110 -114 -263 -221zM199 0q22 160 22 443v134q0 332 -22 478l5 7q37 -3 105.5 -2.5t108.5 4.5q14 0 18 -4.5t4 -20.5q-12 -124 -17 -208t-5 -214v-174 q0 -267 22 -443l-6 -7q-45 7 -115 7t-115 -7z" />
<glyph unicode="&#xef;" horiz-adv-x="638" d="M12 1411q0 48 34 83t81.5 35t82 -35t34.5 -83t-34.5 -82t-82 -34t-81.5 34t-34 82zM199 0q22 160 22 443v134q0 332 -22 478l5 7q37 -3 105.5 -2.5t108.5 4.5q14 0 18 -4.5t4 -20.5q-12 -124 -17 -208t-5 -214v-174q0 -267 22 -443l-6 -7q-45 7 -115 7t-115 -7zM427 1411 q0 48 34.5 83t82.5 35q31 0 57.5 -16t42 -43t15.5 -59q0 -48 -34 -82t-81 -34q-24 0 -45.5 9t-37 25t-25 37.5t-9.5 44.5z" />
<glyph unicode="&#xf4;" horiz-adv-x="1228" d="M94 504q0 173 65 303.5t185.5 201t279.5 70.5q163 0 279 -69t174 -192.5t58 -291.5q0 -161 -62 -285t-181 -194.5t-278 -70.5q-119 0 -218 41t-165 112.5t-101.5 167.5t-35.5 207zM305 1271q56 62 91.5 103t82 101t79.5 113h122q80 -131 249 -317l-52 -35 q-87 64 -145 112t-115 109q-111 -114 -263 -221zM310 546q0 -51 6 -101.5t20 -105t39.5 -101t60 -84.5t86 -59.5t114.5 -21.5q61 0 113.5 31t90 85t58.5 130t21 162q0 96 -7 167t-27.5 136.5t-55 106.5t-90 65t-132.5 24q-67 0 -119.5 -25t-85.5 -66t-54 -98.5t-29.5 -117 t-8.5 -127.5z" />
<glyph unicode="&#xf6;" horiz-adv-x="1228" d="M94 504q0 173 65 303.5t185.5 201t279.5 70.5q163 0 279 -69t174 -192.5t58 -291.5q0 -161 -62 -285t-181 -194.5t-278 -70.5q-119 0 -218 41t-165 112.5t-101.5 167.5t-35.5 207zM275 1411q0 48 34.5 83t82 35t81 -35t33.5 -83t-33.5 -82t-81.5 -34t-82 34t-34 82z M310 546q0 -51 6 -101.5t20 -105t39.5 -101t60 -84.5t86 -59.5t114.5 -21.5q61 0 113.5 31t90 85t58.5 130t21 162q0 96 -7 167t-27.5 136.5t-55 106.5t-90 65t-132.5 24q-67 0 -119.5 -25t-85.5 -66t-54 -98.5t-29.5 -117t-8.5 -127.5zM690 1411q0 48 34.5 83t82 35 t81.5 -35t34 -83q0 -31 -15.5 -58t-42 -42.5t-58.5 -15.5q-47 0 -81.5 34t-34.5 82z" />
<glyph unicode="&#xf9;" horiz-adv-x="1318" d="M182 1055l5 7q45 -7 115.5 -7t115.5 7l4 -7q-13 -91 -17 -189t-4 -254v-244q0 -66 9 -113.5t23.5 -74.5t37.5 -42.5t44 -20t50 -4.5q57 0 123.5 38.5t121 96.5t92.5 123v241q0 150 -4.5 246.5t-17.5 196.5l4 7q45 -7 117 -7q70 0 115 7l5 -7q-23 -156 -23 -443v-140 q0 -241 42 -472l-5 -7q-48 7 -109 7q-32 0 -97 -7q-10 0 -10 7l-12 218l-9 8q-32 -49 -72 -92t-87.5 -79.5t-102.5 -57.5t-110 -21q-71 0 -127 19.5t-92 51.5t-59.5 77t-33.5 92.5t-10 100.5v295q0 155 -4 249.5t-18 193.5zM359 1571l5 26q75 57 159 57q18 0 37 -5l172 -310 q16 -31 16 -59q0 -9 -12 -18t-26 -9q-19 0 -72 49z" />
<glyph unicode="&#xfb;" horiz-adv-x="1318" d="M182 1055l5 7q45 -7 115.5 -7t115.5 7l4 -7q-13 -91 -17 -189t-4 -254v-244q0 -66 9 -113.5t23.5 -74.5t37.5 -42.5t44 -20t50 -4.5q57 0 123.5 38.5t121 96.5t92.5 123v241q0 150 -4.5 246.5t-17.5 196.5l4 7q45 -7 117 -7q70 0 115 7l5 -7q-23 -156 -23 -443v-140 q0 -241 42 -472l-5 -7q-48 7 -109 7q-32 0 -97 -7q-10 0 -10 7l-12 218l-9 8q-32 -49 -72 -92t-87.5 -79.5t-102.5 -57.5t-110 -21q-71 0 -127 19.5t-92 51.5t-59.5 77t-33.5 92.5t-10 100.5v295q0 155 -4 249.5t-18 193.5zM314 1271q56 62 92 103t82 101t80 113h122 q80 -131 248 -317l-51 -35q-58 42 -94 70t-81.5 68.5t-85.5 82.5q-110 -114 -262 -221z" />
<glyph unicode="&#xfc;" horiz-adv-x="1318" d="M182 1055l5 7q45 -7 115.5 -7t115.5 7l4 -7q-13 -91 -17 -189t-4 -254v-244q0 -66 9 -113.5t23.5 -74.5t37.5 -42.5t44 -20t50 -4.5q57 0 123.5 38.5t121 96.5t92.5 123v241q0 150 -4.5 246.5t-17.5 196.5l4 7q45 -7 117 -7q70 0 115 7l5 -7q-23 -156 -23 -443v-140 q0 -241 42 -472l-5 -7q-48 7 -109 7q-32 0 -97 -7q-10 0 -10 7l-12 218l-9 8q-32 -49 -72 -92t-87.5 -79.5t-102.5 -57.5t-110 -21q-71 0 -127 19.5t-92 51.5t-59.5 77t-33.5 92.5t-10 100.5v295q0 155 -4 249.5t-18 193.5zM324 1411q0 48 34.5 83t82 35t81.5 -35t34 -83 t-34 -82t-81.5 -34t-82 34t-34.5 82zM739 1411q0 48 34.5 83t82.5 35q31 0 57.5 -16t42 -43t15.5 -59q0 -48 -34 -82t-81 -34q-24 0 -45.5 9t-37 25t-25 37.5t-9.5 44.5z" />
<glyph unicode="&#xff;" horiz-adv-x="1243" d="M68 1062q35 -7 129 -7q87 0 120 7q40 -122 95.5 -268.5t94.5 -242.5t113 -275q17 -41 26 -61h4q161 339 323 847q24 -7 96 -7q82 0 106 7q-102 -205 -377 -824.5t-336 -819.5q-40 12 -120 12q-46 0 -86 -12q174 288 290 558q-30 81 -101 246t-129.5 294.5t-147 325 t-100.5 220.5zM324 1411q0 48 34.5 83t82 35t81.5 -35t34 -83t-34 -82t-81.5 -34t-82 34t-34.5 82zM739 1411q0 48 34.5 83t82.5 35q31 0 57.5 -16t42 -43t15.5 -59q0 -48 -34 -82t-81 -34q-24 0 -45.5 9t-37 25t-25 37.5t-9.5 44.5z" />
<glyph unicode="&#x131;" horiz-adv-x="638" d="M199 0q22 160 22 443v134q0 332 -22 478l5 7q37 -3 105.5 -2.5t108.5 4.5q14 0 18 -4.5t4 -20.5q-12 -124 -17 -208t-5 -214v-174q0 -267 22 -443l-6 -7q-45 7 -115 7t-115 -7z" />
<glyph unicode="&#x152;" horiz-adv-x="2059" d="M103 781q0 133 31.5 254t94 221.5t149.5 174.5t204 115.5t251 41.5q174 -3 285 -3h646q88 0 148 7l4 -7q-4 -69 -4 -77q0 -25 4 -63l-4 -10q-341 30 -669 30q-7 -26 -12 -115t-6 -153t-1 -104v-201q70 0 133.5 1t103 2t94.5 4.5t73 5t76 6.5t68 6l8 -7q-8 -33 -8 -70 q0 -36 8 -68l-8 -8q-115 12 -278 18t-270 6v-296q0 -39 1 -100.5t6 -146.5t12 -112q146 0 319.5 7.5t273.5 14.5l101 7l5 -10q-5 -38 -5 -81q0 -1 5 -71l-5 -7q-60 7 -148 7h-671l-258 -5q-169 1 -312 62t-240 166t-151 249t-54 309zM356 804q0 -148 28 -269t75 -202.5 t111.5 -136.5t136 -80t149.5 -25h31q49 0 76.5 11t38.5 31.5t11 56.5v1208q0 55 -27 73t-99 18h-85q-75 0 -138.5 -20.5t-121.5 -70t-98 -126t-64 -196t-24 -272.5z" />
<glyph unicode="&#x153;" horiz-adv-x="1904" d="M84 506q0 112 28.5 206.5t78 161t116.5 113.5t143.5 69.5t159.5 22.5q71 0 130.5 -12.5t100 -31.5t75.5 -50t56.5 -59.5t45.5 -67.5q74 105 179.5 163t213.5 58q68 0 125.5 -14t99.5 -37.5t75.5 -57t55 -72t36 -83t20.5 -88t6 -89.5q0 -40 -45 -40h-661q0 -89 16.5 -163 t44.5 -124.5t63 -88.5t75.5 -59.5t78 -32t74.5 -10.5q101 0 178.5 33.5t142.5 104.5l50 -64q-74 -99 -183.5 -158.5t-236.5 -59.5q-147 0 -256 54.5t-175 151.5q-36 -52 -69.5 -86t-81 -63t-112.5 -43t-150 -14q-115 0 -209 40.5t-157 111.5t-97.5 168t-34.5 210zM305 582 q0 -106 17.5 -195t54 -161t98 -112.5t142.5 -40.5q26 0 52 5t55 17.5t54 32.5t48.5 52.5t40 74.5t26 102.5t9.5 132.5q0 78 -10.5 146t-28.5 117t-42.5 89t-51.5 66t-56 43t-55.5 24.5t-50.5 7.5q-60 0 -111 -25.5t-85.5 -67t-59 -94.5t-35.5 -107.5t-11 -106.5zM1130 706 h446q33 0 33 33q0 66 -18 115t-48 75.5t-63 38.5t-69 12q-15 0 -31 -1.5t-41.5 -8t-48.5 -17.5t-49 -32t-46.5 -49t-38 -71t-26.5 -95z" />
<glyph unicode="&#x178;" horiz-adv-x="1429" d="M40 1592q63 -7 140 -7q76 0 139 7q60 -116 124 -229.5t168.5 -290.5t138.5 -237q272 426 430 757q45 -7 103 -7q54 0 103 7q-70 -107 -161 -244.5t-141 -213t-105.5 -162t-93 -150.5t-67.5 -121q6 -571 17 -708q-45 7 -122.5 7t-122.5 -7q17 190 17 683 q-75 128 -286 469.5t-281 446.5zM430 1843q0 48 34 83t81.5 35t81.5 -35t34 -83t-33.5 -81.5t-81.5 -33.5t-82 34t-34 81zM846 1843q0 48 34 83t81 35q31 0 58 -16t42 -43t15 -59q0 -48 -33.5 -81.5t-81.5 -33.5t-81.5 33.5t-33.5 81.5z" />
<glyph unicode="&#x237;" horiz-adv-x="668" d="M-101 -502q10 38 10 219l39 11q62 -111 148 -111q29 0 52 17.5t39 46.5t28 75t18.5 95t10.5 116t5.5 128.5t1.5 140.5v341q0 323 -23 478l6 7q37 -3 105.5 -2.5t108.5 4.5q14 0 17.5 -4t3.5 -21q-12 -119 -16.5 -204t-4.5 -218v-322q0 -267 -24.5 -400.5t-83.5 -225.5 q-57 -90 -140.5 -144.5t-192.5 -54.5q-71 0 -105 21z" />
<glyph unicode="&#x2b0;" horiz-adv-x="938" d="M187 894q12 77 12 236v392q0 178 -12 248l3 2q76 6 166 44q12 0 12 -12q-12 -102 -12 -251v-81l-4 -121l4 -2q99 126 200 126q178 0 178 -197v-148q0 -149 14 -236l-3 -5q-40 5 -89 5q-52 0 -84 -5l-2 5q7 68 7 236v118q0 124 -68 124q-72 0 -153 -106v-136 q0 -148 8 -236l-3 -5q-32 5 -84 5q-51 0 -87 -5z" />
<glyph unicode="&#x2b2;" horiz-adv-x="687" d="M54 590q7 15 14 74q6 67 11 81h29q40 -69 91 -69q50 0 76 30q27 35 27 120l-2 58q-2 89 -2 165v210q0 183 -15 263l5 4q118 11 188 38q16 0 16 -16q-18 -113 -18 -265v-334q0 -192 -61 -281q-67 -96 -270 -96q-68 0 -87 12zM290 1796q0 42 27 69q30 30 69 30q41 0 71 -30 q27 -27 27 -69q0 -40 -27 -68q-29 -28 -71 -28q-40 0 -69 28q-27 28 -27 68z" />
<glyph unicode="&#x2b3;" horiz-adv-x="692" d="M185 1546l2 4q80 -1 184 14q12 0 12 -16v-115l6 -5q92 136 191 136q26 0 62 -11l7 -7l-32 -150l-12 -3q-38 30 -89 30q-34 0 -71 -27q-56 -40 -56 -116v-110q0 -175 17 -276l-5 -5q-50 5 -108 5q-59 0 -96 -5l-3 5q15 103 15 276v108q0 130 -24 268z" />
<glyph unicode="&#x2b7;" horiz-adv-x="1274" d="M49 1550q34 -2 111 -2q69 0 96 2q100 -315 192 -518h14q66 142 136 324l-87 197q23 -5 101 -5q88 0 106 5q100 -318 174 -491h13q48 111 183 491q13 -5 68 -5q58 0 70 5q-191 -405 -295 -664q-13 5 -63 5q-72 0 -84 -5l-140 354q-94 -197 -150 -354q-12 5 -91 5 q-66 0 -79 -5q-145 377 -275 661z" />
<glyph unicode="&#x2b8;" horiz-adv-x="817" d="M68 1553q18 -5 99 -5q75 0 91 5q44 -135 180 -462q87 196 174 462q11 -5 76 -5q49 0 62 5q-327 -666 -421 -973q-25 7 -71 7q-53 0 -78 -7q92 153 162 318l-2 9q-102 266 -272 646z" />
<glyph unicode="&#x2c6;" horiz-adv-x="856" d="M122 1325q56 62 92 103t82 101t80 113h123q80 -131 249 -317l-52 -35q-86 64 -145 112.5t-117 109.5q-114 -117 -262 -222z" />
<glyph unicode="&#x2da;" horiz-adv-x="886" d="M232 1649q0 84 64 144t149 60q86 0 150 -59.5t64 -144.5q0 -83 -63 -143.5t-151 -60.5q-85 0 -149 60t-64 144zM322 1649q0 -54 34.5 -95.5t88.5 -41.5t88.5 41.5t34.5 95.5q0 58 -34.5 98t-88.5 40q-55 0 -89 -40.5t-34 -97.5z" />
<glyph unicode="&#x2dc;" horiz-adv-x="717" d="M12 1423q27 112 73 165.5t124 53.5q49 0 90.5 -18.5t86.5 -50.5q72 -54 128 -54q42 0 69.5 26.5t52.5 100.5l60 -14q-45 -221 -215 -221q-63 0 -157 64q-87 54 -132 54q-47 0 -75 -28t-46 -90z" />
<glyph unicode="&#x2e1;" horiz-adv-x="554" d="M187 894q12 77 12 264v364q0 178 -12 248l3 2q76 6 166 44q12 0 12 -12q-12 -102 -12 -251v-395q0 -180 12 -264l-2 -5q-37 5 -89 5q-51 0 -87 -5z" />
<glyph unicode="&#x2e2;" horiz-adv-x="678" d="M94 922l24 145l30 2q63 -123 164 -123q113 0 113 106q0 87 -127 123q-183 52 -183 201q0 78 75 132q75 56 178 56q116 0 188 -40l2 -5l-30 -138h-24q-54 113 -140 113q-99 0 -99 -89q0 -81 96 -103q223 -52 223 -221q0 -72 -68 -132q-81 -69 -216 -69q-95 0 -206 42z" />
<glyph unicode="&#x2e3;" horiz-adv-x="802" d="M49 1553q23 -5 118 -5q86 0 110 5q40 -68 141 -211q102 131 157 211q16 -5 84 -5q55 0 68 5l-248 -289l20 -28q102 -147 256 -347q-19 5 -106 5q-97 0 -116 -5q-50 80 -162 237l-165 -237q-12 5 -66 5q-70 0 -86 -5l256 321z" />
<glyph unicode="&#x2000;" horiz-adv-x="1007" />
<glyph unicode="&#x2001;" horiz-adv-x="2015" />
<glyph unicode="&#x2002;" horiz-adv-x="1007" />
<glyph unicode="&#x2003;" horiz-adv-x="2015" />
<glyph unicode="&#x2004;" horiz-adv-x="671" />
<glyph unicode="&#x2005;" horiz-adv-x="503" />
<glyph unicode="&#x2006;" horiz-adv-x="335" />
<glyph unicode="&#x2007;" horiz-adv-x="335" />
<glyph unicode="&#x2008;" horiz-adv-x="251" />
<glyph unicode="&#x2009;" horiz-adv-x="403" />
<glyph unicode="&#x200a;" horiz-adv-x="111" />
<glyph unicode="&#x2010;" horiz-adv-x="817" d="M82 622q0 30 19.5 60.5t41.5 30.5h563q16 0 24.5 -13t8.5 -32q0 -23 -21.5 -55.5t-44.5 -32.5h-555q-16 0 -26 12.5t-10 29.5z" />
<glyph unicode="&#x2011;" horiz-adv-x="817" d="M82 622q0 30 19.5 60.5t41.5 30.5h563q16 0 24.5 -13t8.5 -32q0 -23 -21.5 -55.5t-44.5 -32.5h-555q-16 0 -26 12.5t-10 29.5z" />
<glyph unicode="&#x2012;" horiz-adv-x="817" d="M82 622q0 30 19.5 60.5t41.5 30.5h563q16 0 24.5 -13t8.5 -32q0 -23 -21.5 -55.5t-44.5 -32.5h-555q-16 0 -26 12.5t-10 29.5z" />
<glyph unicode="&#x2013;" horiz-adv-x="1311" d="M110 626q0 24 21 52t43 28h994q33 0 33 -42q0 -16 -9 -34t-24 -32t-30 -14h-993q-35 0 -35 42z" />
<glyph unicode="&#x2014;" horiz-adv-x="1822" d="M71 584v122h1681v-122h-1681z" />
<glyph unicode="&#x2018;" horiz-adv-x="657" d="M180 1487q0 32 4.5 61.5t11 52.5t20 46t24.5 39t31 34.5t33.5 30t39.5 28t40 25.5t43 25q5 3 7 5q12 -10 17 -15.5t10.5 -15.5t5.5 -21q-98 -66 -145 -120t-47 -112q0 -21 6.5 -34.5t18.5 -19.5t22 -7.5t25 -1.5q32 -7 50.5 -13.5t35.5 -19t27.5 -32.5t18.5 -50v-10 q-18 -50 -47.5 -80.5t-84.5 -52.5h-10q-35 13 -62 32t-49.5 48.5t-34 74.5t-11.5 103z" />
<glyph unicode="&#x2019;" horiz-adv-x="657" d="M180 1590v10q17 49 47 80t85 53h10q35 -13 62 -32t49 -49t34 -74.5t12 -102.5q0 -32 -4.5 -61.5t-11 -52.5t-20 -46t-24.5 -39t-31.5 -34.5t-34 -30t-39 -28t-40 -25t-42.5 -25.5q-6 -3 -9 -5q-8 7 -12 11t-9 10.5t-7.5 14t-2.5 16.5q97 65 144 119t47 112 q0 22 -6.5 35.5t-18 19t-21.5 7.5t-25 2q-62 13 -89.5 34.5t-42.5 80.5z" />
<glyph unicode="&#x201a;" horiz-adv-x="657" d="M180 108v10q17 49 47 80t85 53h10q35 -13 62 -32t49 -49t34 -74.5t12 -102.5q0 -152 -103 -244q-41 -37 -153 -103q-10 9 -15.5 15t-10.5 15.5t-5 21.5q97 65 144 119t47 112q0 22 -6.5 35.5t-18 19t-21.5 7.5t-25 2q-62 13 -89.5 34.5t-42.5 80.5z" />
<glyph unicode="&#x201c;" horiz-adv-x="945" d="M118 1489q0 32 4.5 61.5t11 52.5t20 46t24 39t31 34.5t34 30t39 28t40 25l43.5 25.5l3 1.5t2.5 1.5t2.5 2q9 -7 13 -11t9.5 -11t8 -14t2.5 -16q-98 -66 -145 -119.5t-47 -111.5q0 -17 4.5 -29.5t11 -19t17.5 -10t19 -4.5t20 -1q62 -13 89 -34.5t43 -80.5v-10 q-18 -49 -48 -80t-84 -53h-11q-74 27 -115.5 87t-41.5 171zM528 1489q0 32 4.5 61.5t11 52.5t20 46t24.5 39t31 34.5t33.5 30t39.5 28t40 25t43 25.5q6 3 9 5q8 -7 12 -11t9.5 -11t8 -14t2.5 -16q-97 -66 -144.5 -119.5t-47.5 -111.5q0 -21 6.5 -35t18.5 -19.5t22 -7.5 t25 -2q62 -13 89.5 -34.5t42.5 -80.5v-10q-17 -49 -47 -80t-85 -53h-11q-74 27 -115.5 87t-41.5 171z" />
<glyph unicode="&#x201d;" horiz-adv-x="945" d="M120 1590v10q17 49 47.5 80t85.5 53h10q74 -27 115.5 -87t41.5 -171q0 -32 -4.5 -61.5t-11 -52.5t-20 -46t-24.5 -39t-31 -34.5t-33.5 -30t-39.5 -28t-40 -25t-43 -25.5q-6 -3 -9 -5q-7 7 -11.5 11t-9.5 10.5t-7.5 14t-2.5 16.5q97 65 144 119t47 112q0 22 -6 35.5 t-18 19t-22 7.5t-25 2q-63 14 -90.5 35.5t-42.5 79.5zM530 1590v10q18 49 48.5 80t85.5 53h9q74 -27 115.5 -87t41.5 -171q0 -32 -4.5 -61.5t-11 -52.5t-20 -46t-24 -39t-31 -34.5t-34 -30t-39 -28t-40 -25l-43.5 -25.5l-3 -1.5t-2.5 -1.5t-2.5 -2q-11 9 -16.5 15t-10 15.5 t-4.5 21.5q96 65 143 119t47 112q0 22 -6 35.5t-18 19t-22 7.5t-24 2q-63 14 -90.5 35.5t-43.5 79.5z" />
<glyph unicode="&#x201e;" horiz-adv-x="945" d="M120 106v9q17 50 47.5 80.5t85.5 52.5h10q74 -27 115.5 -86.5t41.5 -171.5q0 -32 -4.5 -61t-11 -52.5t-20 -46t-24.5 -38.5t-31 -34.5t-33.5 -30t-39.5 -28t-40 -25.5t-43 -25q-6 -4 -9 -5q-10 9 -15.5 14.5t-10.5 15.5t-5 21q97 66 144 120t47 112q0 21 -6 35t-18 19.5 t-22 7t-25 1.5q-63 14 -90.5 35.5t-42.5 80.5zM530 106v9q18 50 48.5 80.5t85.5 52.5h9q74 -27 115.5 -86.5t41.5 -171.5q0 -32 -4.5 -61t-11 -52.5t-20 -46t-24 -38.5t-31 -34.5t-34 -30t-39 -28t-40 -25.5t-43.5 -25q-2 -2 -3 -2.5t-2.5 -1.5t-2.5 -1q-11 9 -16.5 14.5 t-10 15.5t-4.5 21q64 44 103.5 79t63 74t23.5 79q0 21 -6 35t-18 19.5t-22 7t-24 1.5q-63 14 -90.5 35.5t-43.5 80.5z" />
<glyph unicode="&#x2022;" horiz-adv-x="861" d="M152 565q0 116 82 198.5t198 82.5t198.5 -82.5t82.5 -198.5t-82.5 -197.5t-198.5 -81.5t-198 81.5t-82 197.5z" />
<glyph unicode="&#x202f;" horiz-adv-x="403" />
<glyph unicode="&#x2039;" horiz-adv-x="891" d="M182 514v30q105 91 207.5 192.5t246.5 255.5q13 -1 26 -7.5t22 -17t12 -21.5q-160 -245 -313 -418q153 -173 313 -418q-4 -17 -22 -31t-38 -15q-99 106 -175 184t-142.5 141.5t-136.5 124.5z" />
<glyph unicode="&#x203a;" horiz-adv-x="891" d="M197 110q163 250 312 418q-149 168 -312 418q3 11 12 21.5t21.5 17t25.5 7.5q253 -272 454 -448v-30q-104 -92 -207 -194t-247 -256q-13 1 -25.5 7.5t-21.5 17t-12 21.5z" />
<glyph unicode="&#x2044;" horiz-adv-x="108" d="M-575 -133l1126 1610h103l-1128 -1610h-101z" />
<glyph unicode="&#x205f;" horiz-adv-x="503" />
<glyph unicode="&#x2070;" horiz-adv-x="753" d="M96 1304q0 185 86 305q83 112 191 112q115 0 190 -106q84 -115 84 -297q0 -208 -89 -317q-75 -91 -190 -91q-133 0 -206 117q-66 107 -66 277zM251 1292q0 -326 120 -326q123 0 123 378q0 137 -20 211q-27 106 -101 106q-122 0 -122 -369z" />
<glyph unicode="&#x2071;" horiz-adv-x="638" d="M157 889v5q15 98 15 276v83q0 189 -15 269l3 4q88 7 171 38q16 0 16 -16q-18 -140 -18 -270v-108q0 -146 18 -276l-5 -5q-37 5 -89 5q-24 0 -48 -1t-36 -3zM167 1738q0 35 24.5 60.5t59.5 25.5t60.5 -25.5t25.5 -60.5t-25.5 -59.5t-60.5 -24.5t-59.5 24t-24.5 60z" />
<glyph unicode="&#x2074;" horiz-adv-x="706" d="M47 1133q0 41 14 61q151 203 337 514v4q13 -4 64 -4q52 0 89 4l2 -4q-12 -95 -12 -194v-313h93q18 0 18 -26q0 -16 -10 -35q-14 -24 -28 -24h-73q0 -101 12 -192l-2 -5q-37 5 -89 5q-54 0 -91 -5v5q15 119 15 192h-266q-37 0 -54.5 4t-18.5 13zM148 1201h238v377z" />
<glyph unicode="&#x2075;" horiz-adv-x="798" d="M140 988l27 103l32 2q66 -117 160 -117q49 0 84 42q38 47 38 140q0 186 -125 186q-70 0 -142 -31l-27 9l41 394q92 -11 148 -11q95 0 241 16l7 -3l-19 -130q-79 -8 -162 -8q-74 0 -153 10l-20 -192q63 23 121 23q107 0 181 -75q70 -69 70 -166q0 -123 -84 -200 q-80 -70 -202 -70q-130 0 -211 73z" />
<glyph unicode="&#x2076;" horiz-adv-x="753" d="M110 1241q0 171 126 312q149 168 388 168l5 -49q-118 -11 -184 -52q-129 -75 -162 -260q51 33 123 33q138 0 206 -75q54 -63 54 -160t-64 -166q-73 -82 -204 -82q-100 0 -162 42q-126 79 -126 289zM270 1236q0 -157 42 -221q29 -47 94 -47q36 0 63 42q33 49 33 137 q0 79 -15 119q-28 66 -109 66q-59 0 -106 -37q-2 -39 -2 -59z" />
<glyph unicode="&#x2077;" horiz-adv-x="805" d="M194 1580q8 49 8 71q0 19 -8 67q74 -8 393 -8q44 0 84 11l17 -28q-185 -449 -294 -779l-117 -4l-5 9q105 231 284 676q-122 0 -362 -15z" />
<glyph unicode="&#x2078;" horiz-adv-x="751" d="M115 1114q0 124 192 220l-21 15q-126 79 -126 185q0 87 58 135q63 52 185 52q109 0 169 -45q59 -44 59 -121q0 -114 -164 -176l81 -52q123 -79 123 -194q0 -114 -103 -181q-70 -42 -185 -42q-113 0 -186 51q-82 56 -82 153zM263 1114q0 -69 39 -111q37 -42 84 -42 q135 0 135 145q0 96 -106 162l-61 36q-91 -66 -91 -190zM298 1558q0 -71 80 -123l40 -24q76 57 76 135q0 123 -98 123t-98 -111z" />
<glyph unicode="&#x2079;" horiz-adv-x="753" d="M140 1472q0 93 62 165q74 84 206 84q98 0 162 -42q126 -81 126 -291q0 -171 -128 -314q-147 -164 -388 -164l-4 49q118 11 185 51q128 74 162 261q-54 -37 -122 -37q-140 0 -207 79q-54 61 -54 159zM302 1480q0 -79 17 -116q28 -69 108 -69q57 0 106 37q2 43 2 61 q0 160 -41 222q-31 46 -93 46q-40 0 -66 -41q-33 -49 -33 -140z" />
<glyph unicode="&#x207a;" horiz-adv-x="753" d="M68 1199v96h263v263h96v-263h261v-96h-261v-261h-96v261h-263z" />
<glyph unicode="&#x207b;" horiz-adv-x="753" d="M86 1199v96h585v-96h-585z" />
<glyph unicode="&#x207c;" horiz-adv-x="753" d="M96 1165v83h565v-83h-565zM96 1344v84h565v-84h-565z" />
<glyph unicode="&#x207d;" horiz-adv-x="483" d="M89 1278q0 87 34.5 175.5t102 169t160.5 139.5l36 -27q-117 -122 -160.5 -220.5t-43.5 -236.5q0 -140 40.5 -231t163.5 -221l-36 -24q-159 102 -228 219.5t-69 256.5z" />
<glyph unicode="&#x207e;" horiz-adv-x="483" d="M64 830q84 90 126.5 157.5t58.5 133t16 162.5q0 137 -43 235.5t-158 221.5l37 28q93 -59 161 -140t102 -169.5t34 -175.5q0 -139 -69 -256.5t-228 -220.5z" />
<glyph unicode="&#x207f;" horiz-adv-x="783" d="M54 894q7 53 10.5 95t5 83t1.5 108v54q0 211 -17 312l2 4q33 -3 80 -1t80 9q7 0 9.5 -4.5t2.5 -15.5v-145l4 -5q92 110 139 144t103 34q63 0 105 -19.5t65.5 -61t33.5 -97t10 -135.5v-73v-51.5t0.5 -40.5t2 -35t2 -29.5t2.5 -29.5t3.5 -28.5t4.5 -33.5t5 -38l-5 -7 q-36 7 -93 7q-56 0 -92 -7l-4 7q11 81 13.5 129t2.5 157v68q0 61 -5 98.5t-18.5 60.5t-35 31.5t-56.5 8.5q-26 0 -46.5 -7.5t-43.5 -30t-42.5 -48t-54.5 -76.5v-105q0 -75 2 -120t4.5 -71.5t11.5 -94.5l-5 -7q-36 7 -91 7q-58 0 -94 -7z" />
<glyph unicode="&#x2080;" horiz-adv-x="753" d="M96 136q0 184 86 304q82 111 191 111q115 0 190 -106q84 -115 84 -297q0 -208 -89 -317q-75 -91 -190 -91q-133 0 -206 117q-66 107 -66 279zM251 122q0 -326 120 -326q123 0 123 378q0 138 -20 212q-27 106 -101 106q-122 0 -122 -370z" />
<glyph unicode="&#x2081;" horiz-adv-x="943" d="M275 425q91 22 330 98q7 0 7 -7q-14 -101 -14 -211v-333q0 -149 16 -244l-2 -5q-40 5 -94 5q-52 0 -88 -5v5q15 95 15 244v321q0 83 -25 83q-87 0 -143 -8z" />
<glyph unicode="&#x2082;" horiz-adv-x="763" d="M94 -275q0 85 178 268l99 96q81 83 81 230q0 57 -39 96q-36 37 -73 37q-104 0 -166 -110h-31l-28 103l5 5q80 73 229 73q126 0 199 -51q81 -54 81 -155t-127 -221l-131 -128q-85 -86 -85 -113h105q81 0 243 12q-8 -34 -8 -85q0 -27 8 -62q-116 5 -226 5q-98 0 -312 -5z " />
<glyph unicode="&#x2083;" horiz-adv-x="769" d="M113 -211l30 103l29 2q39 -67 60 -86q34 -29 99 -29q54 0 89 31q54 45 54 146q0 152 -145 152q-30 0 -49 -2v61q180 7 180 168q0 50 -28 85q-29 35 -66 35q-65 0 -101 -30q-29 -22 -63 -85h-33l-26 103l2 7q82 71 231 71q100 0 165 -37q71 -45 71 -130q0 -160 -155 -199 v-5q82 -7 133 -52q62 -52 62 -138q0 -127 -104 -194q-87 -56 -219 -56q-128 0 -211 74z" />
<glyph unicode="&#x2084;" horiz-adv-x="706" d="M47 -37q0 41 14 61q147 198 337 515v5q13 -5 64 -5q52 0 89 5l2 -5q-12 -94 -12 -195v-312h93q18 0 18 -27q0 -16 -10 -35q-14 -24 -28 -24h-73q0 -101 12 -192l-2 -5q-37 5 -89 5q-54 0 -91 -5v5q15 119 15 192h-266q-37 0 -54.5 4t-18.5 13zM148 32h238v376z" />
<glyph unicode="&#x2085;" horiz-adv-x="798" d="M140 -182l27 103l32 3q67 -118 160 -118q49 0 84 42q38 47 38 140q0 186 -125 186q-70 0 -142 -31l-27 9l41 394q92 -11 148 -11q95 0 241 16l7 -3l-19 -130q-79 -8 -162 -8q-74 0 -153 10l-20 -192q63 23 121 23q107 0 181 -75q70 -69 70 -166q0 -123 -84 -200 q-80 -70 -202 -70q-130 0 -211 73z" />
<glyph unicode="&#x2086;" horiz-adv-x="753" d="M94 71q0 173 124 312q149 168 389 168l5 -49q-119 -11 -185 -52q-129 -75 -162 -260q51 33 124 33q138 0 206 -75q54 -63 54 -160q0 -94 -65 -164q-74 -84 -204 -84q-100 0 -162 42q-124 78 -124 289zM253 66q0 -157 42 -221q29 -47 94 -47q36 0 63 42q32 47 32 138 q0 40 -4 69t-11 49q-28 66 -108 66q-59 0 -105 -37q-3 -39 -3 -59z" />
<glyph unicode="&#x2087;" horiz-adv-x="805" d="M194 410q8 49 8 71q0 19 -8 67q63 -7 393 -7q49 0 84 10l17 -28q-185 -449 -294 -779l-117 -4l-5 9q105 231 284 676q-122 0 -362 -15z" />
<glyph unicode="&#x2088;" horiz-adv-x="751" d="M101 -56q0 124 192 220l-23 16q-125 78 -125 184q0 87 59 135q62 52 185 52q109 0 169 -45q59 -44 59 -120q0 -115 -165 -177l81 -52q123 -80 123 -194t-103 -181q-69 -42 -185 -42q-113 0 -186 51q-81 56 -81 153zM248 -56q0 -69 40 -111q37 -42 83 -42q135 0 135 145 q0 96 -105 162l-61 38q-92 -67 -92 -192zM283 389q0 -72 81 -124l39 -24q76 56 76 135q0 123 -99 123q-97 0 -97 -110z" />
<glyph unicode="&#x2089;" horiz-adv-x="753" d="M122 302q0 91 63 165q75 84 206 84q98 0 162 -42q125 -80 125 -291q0 -172 -127 -314q-147 -164 -389 -164l-2 49q117 11 184 51q128 74 162 261q-54 -37 -123 -37q-140 0 -207 79q-54 61 -54 159zM286 310q0 -79 16 -116q28 -69 108 -69q58 0 106 37q2 43 2 61 q0 158 -42 222q-32 47 -93 47q-39 0 -66 -42q-31 -47 -31 -140z" />
<glyph unicode="&#x208a;" horiz-adv-x="753" d="M68 28v94h261v264h96v-264h263v-94h-263v-262h-96v262h-261z" />
<glyph unicode="&#x208b;" horiz-adv-x="753" d="M86 28v94h585v-94h-585z" />
<glyph unicode="&#x208c;" horiz-adv-x="753" d="M96 -7v83h565v-83h-565zM96 169v87h565v-87h-565z" />
<glyph unicode="&#x208d;" horiz-adv-x="483" d="M89 115q0 133 79 265t218 220l36 -28q-117 -122 -160.5 -220.5t-43.5 -236.5q0 -140 40.5 -231t163.5 -221l-36 -24q-159 103 -228 220t-69 256z" />
<glyph unicode="&#x208e;" horiz-adv-x="483" d="M64 -337q84 89 126.5 156.5t58.5 133.5t16 162q0 138 -43 236.5t-158 220.5l37 28q93 -59 161 -140t102 -169t34 -176q0 -139 -69 -256t-228 -220z" />
<glyph unicode="&#x2090;" horiz-adv-x="763" d="M84 -96q0 78 71 140q69 64 180 92l132 31q7 2 7 18q0 157 -106 157q-102 0 -171 -121h-35l-29 116l5 5q91 80 245 80q131 0 199 -61q60 -54 60 -185l-6 -298q0 -36 25 -47q18 -11 69 -11q14 -12 15 -31q-67 -49 -150 -49q-99 0 -121 88h-5q-99 -88 -192 -88 q-82 0 -137 42q-56 47 -56 122zM265 -84q0 -32 18 -59q21 -26 54 -26q61 0 113 51q22 22 22 69l2 143l-120 -33q-59 -18 -77 -56q-12 -26 -12 -89z" />
<glyph unicode="&#x2091;" horiz-adv-x="763" d="M84 56q0 164 101 270q92 96 209 96q142 0 216 -87q63 -80 63 -199q0 -28 -26 -28h-387q0 -265 165 -265q146 0 213 73q33 -18 33 -52q-93 -124 -275 -124q-160 0 -241 96q-71 85 -71 220zM263 176h204q23 0 23 35q0 138 -96 138q-44 0 -80 -37q-40 -46 -51 -136z" />
<glyph unicode="&#x2092;" horiz-adv-x="882" d="M98 66q0 161 94.5 258.5t252.5 97.5q156 0 247.5 -92t91.5 -248q0 -148 -97.5 -245t-246.5 -97t-245.5 90.5t-96.5 235.5zM280 101q0 -142 47 -216.5t135 -74.5q65 0 101.5 59.5t36.5 170.5q0 59 -3 101t-13.5 84.5t-28 68t-49 42t-74.5 16.5q-45 0 -76 -18.5t-47 -54 t-22.5 -78t-6.5 -100.5z" />
<glyph unicode="&#x2093;" horiz-adv-x="802" d="M54 413q22 -5 113 -5q86 0 110 5q17 -28 38.5 -60t56 -80.5t50.5 -70.5q103 131 158 211q16 -5 79 -5q55 0 68 5l-248 -291l20 -26q102 -147 256 -347q-19 5 -106 5q-91 0 -110 -5q-42 68 -163 237l-170 -237q-12 5 -66 5q-65 0 -81 -5l260 319z" />
<glyph unicode="&#x20ac;" d="M0 584v26l52 66h86v46q0 32 2 87h-103l3 26l51 65h59q39 279 191 439t381 160q73 0 137.5 -11.5t104 -27.5t69 -32.5t41.5 -27.5l12 -12l5 -9q-8 -28 -17 -60t-12.5 -46t-8.5 -36t-7 -46.5t-4 -62.5l-27 -2q-17 42 -30.5 71t-29.5 57.5t-30.5 47t-33 35.5t-38 26.5 t-45.5 17t-55.5 10t-67.5 2.5q-41 0 -81 -16.5t-79.5 -54.5t-71.5 -94t-55.5 -140.5t-32.5 -187.5h581l-46 -91h-540q0 -8 -0.5 -25.5t-0.5 -26.5q0 -55 1 -81h496l-47 -92h-442q9 -82 25.5 -153.5t45 -135t66 -108t90 -70.5t114.5 -26q46 0 78 3.5t59.5 17.5t44 25.5 t39 46.5t36 60.5t42.5 84.5q7 13 11 20l26 -2q4 -34 6.5 -54.5t7 -42.5t7.5 -33t12 -44.5t16 -59.5l-5 -7q-5 -6 -16 -15t-47 -32t-75 -40.5t-99 -32t-121 -14.5q-112 0 -204 30t-157.5 83.5t-113 130.5t-74.5 168.5t-37 199.5h-144z" />
<glyph unicode="&#x2122;" horiz-adv-x="1953" d="M32 1428l47 221l59 -19q-1 -3 -2.5 -10.5l-2.5 -12.5t-2 -5h572q-1 0 -2 5l-2.5 12.5t-2.5 10.5l61 19l47 -223l-56 -12q-16 56 -28 81.5t-27 34t-44 8.5h-105q-21 0 -28 -10t-7 -41v-649q0 -30 16.5 -44.5t56.5 -14.5h35q12 0 12 -12v-33l-3 -2q-154 2 -204 2l-201 -2 l-3 2v33q0 12 14 12h33q42 0 59.5 13t17.5 46v651q0 29 -8 39t-27 10h-125q-27 0 -42 -8t-27.5 -34t-26.5 -82zM821 734v21q0 17 44 17h35q11 0 16 18t10 52v4q6 86 15.5 206t19 239t15.5 208v7v6q0 41 -22 41h-40q-42 3 -42 15v20l12 14h220l275 -650q246 608 263 650h201 l7 -14v-20q0 -7 -14 -11t-28 -4h-36q-22 0 -22 -39v-15l56 -653q4 -36 10.5 -55t19.5 -19h35q45 0 45 -17v-21l-14 -14q-108 5 -160 5l-162 -5l-14 14v21q0 17 41 17h35q14 0 14 56v18l-41 484l-243 -598q-8 -24 -40 -24q-9 0 -22.5 6.5t-19.5 17.5q-148 352 -246 586 q-19 -316 -34 -476v-14q0 -56 17 -56h37q10 0 19 -2t16 -6t7 -9v-21l-8 -14q-95 5 -149 5l-116 -5z" />
<glyph unicode="&#x2153;" horiz-adv-x="1621" d="M182 -133l1126 1610l103 -20l-1128 -1609zM241 1472q87 22 329 99q7 0 7 -7q-14 -101 -14 -213v-331q0 -150 17 -246l-3 -5q-40 5 -93 5q-51 0 -88 -5v5q14 88 14 246v319q0 84 -24 84q-87 0 -142 -7zM992 -131l30 103l30 4q41 -70 59 -86q36 -30 101 -30q52 0 88 32 q54 45 54 145q0 153 -144 153q-30 0 -50 -3v61q179 8 179 167q0 53 -26 87q-28 33 -67 33q-67 0 -101 -29q-28 -21 -64 -86h-32l-27 103l3 7q83 72 231 72q100 0 165 -37q71 -44 71 -131q0 -158 -155 -198v-4q82 -8 133 -52q61 -52 61 -138q0 -127 -103 -194 q-87 -57 -218 -57t-213 73z" />
<glyph unicode="&#x2154;" horiz-adv-x="1621" d="M94 776q0 86 178 268l99 96q81 83 81 232q0 56 -39 96q-34 36 -73 36q-104 0 -166 -111h-31l-28 103l5 5q82 75 229 75q126 0 199 -52q81 -54 81 -155q0 -102 -127 -222l-131 -127q-85 -85 -85 -113h105q81 0 243 12q-8 -34 -8 -86q0 -27 8 -61q-116 4 -226 4 q-98 0 -312 -4zM182 -133l1126 1610l103 -20l-1128 -1609zM978 -136l30 104l29 2q39 -67 59 -85q35 -30 100 -30q53 0 89 32q54 45 54 145q0 153 -145 153q-30 0 -49 -3v62q180 7 180 166q0 52 -28 87q-28 33 -66 33q-66 0 -101 -28q-28 -22 -63 -87h-33l-26 103l2 8 q83 72 231 72q99 0 164 -38q72 -45 72 -130q0 -159 -155 -198v-6q81 -8 132 -52q63 -53 63 -137q0 -127 -103 -194q-88 -57 -220 -57q-129 0 -211 74z" />
<glyph unicode="&#x2155;" horiz-adv-x="1621" d="M182 -133l1126 1610l103 -20l-1128 -1609zM258 1475q86 21 329 98q8 0 8 -7q-15 -109 -15 -212v-332q0 -143 18 -246l-3 -4q-40 4 -93 4q-52 0 -89 -4v4q14 89 14 246v320q0 84 -24 84q-87 0 -143 -8zM1003 -106l27 104l32 2q66 -118 160 -118q48 0 82 42q40 49 40 140 q0 187 -125 187q-67 0 -143 -33l-27 10l42 394q81 -10 147 -10q107 0 242 14l7 -2l-19 -130q-80 -7 -164 -7q-72 0 -151 10l-20 -192q59 21 120 21q109 0 182 -73q69 -68 69 -167q0 -123 -83 -199q-81 -72 -202 -72q-129 0 -211 75z" />
<glyph unicode="&#x2156;" horiz-adv-x="1621" d="M96 776q0 86 179 268l98 96q82 83 82 232q0 56 -40 96q-34 36 -73 36q-104 0 -166 -111h-31l-27 103l4 5q82 75 230 75q126 0 199 -52q80 -54 80 -155q0 -102 -127 -222l-131 -127q-85 -85 -85 -113h106q81 0 242 12q-7 -34 -7 -86q0 -27 7 -61q-115 4 -226 4 q-97 0 -312 -4zM182 -133l1126 1610l103 -20l-1128 -1609zM1006 -103l26 103l32 2q66 -117 160 -117q49 0 84 42q38 47 38 139q0 187 -124 187q-68 0 -143 -32l-27 11l41 392q82 -10 148 -10q106 0 241 15l7 -3l-19 -129q-79 -7 -162 -7q-74 0 -152 9l-21 -192q60 22 121 22 q108 0 182 -73q68 -69 68 -167q0 -124 -83 -199q-81 -72 -201 -72q-130 0 -212 74z" />
<glyph unicode="&#x2157;" horiz-adv-x="1621" d="M110 838l30 103l29 2q39 -67 59 -85q36 -30 101 -30q53 0 89 32q54 45 54 146q0 152 -146 152q-30 0 -49 -2v61q180 7 180 167q0 51 -27 86q-29 34 -66 34q-67 0 -101 -29q-28 -21 -64 -87h-32l-27 104l3 7q83 72 230 72q101 0 166 -37q71 -45 71 -131q0 -159 -155 -198 v-6q80 -7 132 -52q62 -53 62 -137q0 -127 -103 -194q-87 -56 -220 -56q-129 0 -211 73zM182 -133l1126 1610l103 -20l-1128 -1609zM997 -103l28 103l32 2q66 -117 160 -117q48 0 83 42q39 48 39 139q0 187 -125 187q-67 0 -142 -32l-28 11l42 392q82 -10 148 -10 q106 0 241 15l7 -3l-19 -129q-79 -7 -163 -7q-74 0 -153 9l-19 -192q59 22 120 22q109 0 182 -73q69 -69 69 -167q0 -124 -83 -199q-81 -72 -202 -72q-129 0 -211 74z" />
<glyph unicode="&#x2158;" horiz-adv-x="1621" d="M24 1015q0 40 16 61q144 195 336 514v5q12 -5 64 -5q51 0 88 5l2 -5q-12 -94 -12 -194v-312h94q17 0 17 -27q0 -15 -10 -35q-14 -25 -26 -25h-75q0 -100 12 -191l-2 -4q-37 4 -88 4q-54 0 -91 -4v4q15 110 15 191h-266q-72 0 -74 18zM125 1084h239v376zM182 -133 l1126 1610l103 -20l-1128 -1609zM1008 -103l26 103l33 2q66 -117 159 -117q50 0 84 42q39 47 39 139q0 187 -125 187q-67 0 -143 -32l-26 11l41 392q81 -10 147 -10q106 0 241 15l8 -3l-20 -129q-79 -7 -162 -7q-74 0 -152 9l-20 -192q59 22 121 22q108 0 181 -73 q68 -69 68 -167q0 -124 -82 -199q-81 -72 -202 -72q-130 0 -211 74z" />
<glyph unicode="&#x2159;" horiz-adv-x="1621" d="M182 -133l1126 1610l103 -20l-1128 -1609zM270 1475q92 22 330 98q7 0 7 -7q-14 -101 -14 -212v-332q0 -150 17 -246l-3 -4q-40 4 -93 4q-52 0 -89 -4v4q15 96 15 246v320q0 84 -25 84q-87 0 -143 -8zM959 148q0 173 125 312q147 166 388 166l5 -49q-119 -11 -185 -51 q-129 -76 -162 -261q54 35 123 35q138 0 207 -77q54 -63 54 -159q0 -94 -64 -165q-75 -84 -204 -84q-100 0 -162 42q-125 79 -125 291zM1118 143q0 -158 42 -222q28 -46 93 -46q38 0 65 41q31 47 31 138q0 78 -15 118q-29 67 -108 67q-59 0 -105 -37q-3 -39 -3 -59z" />
<glyph unicode="&#x215a;" horiz-adv-x="1621" d="M138 870l26 103l33 3q66 -118 159 -118q50 0 84 42q39 47 39 139q0 187 -125 187q-67 0 -143 -32l-26 11l41 392q81 -9 147 -9q106 0 241 14l8 -2l-20 -130q-79 -7 -162 -7q-74 0 -152 9l-20 -192q59 22 121 22q108 0 181 -73q68 -69 68 -167q0 -124 -82 -199 q-81 -72 -202 -72q-130 0 -211 74zM182 -133l1126 1610l103 -20l-1128 -1609zM956 150q0 173 125 312q147 167 389 167l5 -49q-119 -11 -185 -52q-129 -75 -162 -260q53 34 122 34q137 0 207 -76q55 -65 55 -160q0 -94 -65 -164q-75 -84 -204 -84q-100 0 -162 42 q-125 78 -125 290zM1116 145q0 -78 10.5 -133.5t31.5 -87.5q29 -46 92 -46q39 0 65 40q31 47 31 138q0 78 -14 118q-29 67 -108 67q-59 0 -106 -37q-2 -38 -2 -59z" />
<glyph unicode="&#x215b;" horiz-adv-x="1621" d="M182 -133l1126 1610l103 -20l-1128 -1609zM258 1472q86 22 329 99q8 0 8 -7q-15 -110 -15 -213v-331q0 -143 18 -246l-3 -5q-40 5 -93 5q-52 0 -89 -5v5q14 88 14 246v319q0 84 -24 84q-87 0 -143 -7zM971 17q0 126 192 222l-23 14q-125 79 -125 185q0 86 59 134 q62 52 185 52q109 0 169 -44q59 -45 59 -120q0 -114 -165 -177l81 -51q123 -80 123 -195t-103 -182q-69 -42 -185 -42q-113 0 -186 51q-81 57 -81 153zM1118 17q0 -69 40 -111q37 -42 83 -42q135 0 135 146q0 95 -105 162l-61 37q-92 -66 -92 -192zM1153 462q0 -71 81 -122 l39 -26q76 56 76 136q0 122 -99 122q-97 0 -97 -110z" />
<glyph unicode="&#x215c;" horiz-adv-x="1621" d="M118 835l30 103l28 3q38 -65 60 -85q36 -30 101 -30q52 0 88 32q54 45 54 145q0 153 -144 153q-30 0 -49 -3v61q178 8 178 167q0 53 -26 87q-28 33 -67 33q-67 0 -101 -29q-28 -21 -64 -86h-32l-26 103l2 7q83 72 230 72q101 0 166 -37q71 -44 71 -131q0 -159 -155 -199 v-5q82 -7 133 -51q61 -52 61 -137q0 -127 -103 -194q-87 -57 -218 -57q-130 0 -213 73zM182 -133l1126 1610l103 -20l-1128 -1609zM968 22q0 126 192 222l-22 14q-125 78 -125 185q0 86 59 134q62 52 184 52q109 0 170 -45q58 -44 58 -120q0 -113 -164 -176l80 -52 q124 -80 124 -194q0 -115 -103 -182q-70 -42 -185 -42q-114 0 -187 51q-81 56 -81 153zM1116 22q0 -69 40 -111q36 -42 82 -42q136 0 136 145q0 96 -106 162l-61 38q-91 -67 -91 -192zM1150 467q0 -70 81 -123l40 -25q75 56 75 136q0 122 -98 122t-98 -110z" />
<glyph unicode="&#x215d;" horiz-adv-x="1621" d="M131 870l26 103l33 3q66 -118 159 -118q48 0 83 42q40 49 40 139q0 187 -125 187q-67 0 -143 -32l-28 11l42 392q82 -9 148 -9q106 0 241 14l7 -2l-19 -130q-79 -7 -163 -7q-74 0 -152 9l-20 -192q60 22 120 22q110 0 183 -73q68 -69 68 -167q0 -124 -83 -199 q-81 -72 -201 -72q-130 0 -211 74zM182 -133l1126 1610l103 -20l-1128 -1609zM956 19q0 127 191 222l-21 15q-125 78 -125 184q0 87 59 135q62 51 183 51q110 0 171 -44q58 -45 58 -120q0 -114 -164 -176l80 -52q124 -80 124 -194q0 -116 -103 -183q-70 -42 -185 -42 q-114 0 -187 52q-81 55 -81 152zM1104 19q0 -70 38 -110q37 -42 84 -42q136 0 136 145q0 96 -106 162l-62 37q-90 -65 -90 -192zM1138 464q0 -69 81 -122l40 -25q75 56 75 135q0 123 -98 123t-98 -111z" />
<glyph unicode="&#x215e;" horiz-adv-x="1621" d="M182 -133l1126 1610l103 -20l-1128 -1609zM197 1463q7 48 7 71q0 17 -7 66q63 -8 393 -8q48 0 83 10l17 -26q-185 -449 -294 -779l-116 -6l-5 11q104 230 283 675q-122 0 -361 -14zM980 22q0 126 192 222l-22 14q-125 78 -125 185q0 86 59 134q62 52 184 52 q109 0 170 -45q58 -44 58 -120q0 -113 -164 -176l82 -52q122 -79 122 -194t-103 -182q-70 -42 -185 -42q-113 0 -186 51q-82 56 -82 153zM1128 22q0 -69 40 -111q36 -42 82 -42q136 0 136 145q0 96 -106 162l-61 38q-91 -67 -91 -192zM1163 467q0 -71 80 -123l40 -25 q77 57 77 136q0 122 -98.5 122t-98.5 -110z" />
<glyph unicode="&#x215f;" horiz-adv-x="864" d="M182 -133l1126 1610l103 -20l-1128 -1609zM251 1475q86 21 329 98q7 0 7 -7q-15 -101 -15 -212v-332q0 -143 18 -246l-3 -4q-40 4 -93 4q-52 0 -88 -4v4q14 89 14 246v320q0 84 -24 84q-87 0 -143 -8z" />
<glyph unicode="&#x2248;" horiz-adv-x="1294" d="M133 204q17 80 62 151.5t112.5 117t140.5 45.5q26 0 60 -12.5t56 -25.5t65 -40q31 -20 48 -30t43 -24.5t48 -20.5t41 -6q28 0 60 9t66.5 27t66 51.5t50.5 76.5l41 -14q-18 -63 -43.5 -113t-53.5 -81t-55.5 -52.5t-56 -31.5t-48 -13.5t-37.5 -3.5q-15 0 -31 3t-32 9 t-31 13t-31 17t-29.5 18.5t-30.5 20.5q-55 38 -97.5 58t-84.5 20q-69 0 -148 -49.5t-120 -126.5zM143 563q16 80 61.5 151.5t113 117t139.5 45.5q27 0 60.5 -13t56 -25.5t64.5 -39.5q31 -20 48 -30t43.5 -24.5t48 -20.5t40.5 -6q22 0 47 5t53.5 17.5t54 30.5t49.5 47t40 64 l42 -14q-18 -63 -43.5 -113t-54 -81t-56 -52.5t-56 -31.5t-48.5 -14t-37 -4q-43 0 -87 21.5t-98 60.5q-55 38 -97.5 58t-83.5 20q-69 0 -149 -49.5t-120 -126.5z" />
<glyph unicode="&#x25fc;" horiz-adv-x="1056" d="M0 0v1057h1057v-1057h-1057z" />
<glyph unicode="&#xe010;" horiz-adv-x="1164" d="M113 710q0 142 26 267.5t71.5 219.5t105.5 163t130.5 104t143.5 35q141 0 233 -85q31 -28 58.5 -62.5t60 -93t56 -126.5t39 -165.5t15.5 -206.5q0 -120 -16 -224.5t-44.5 -183t-66.5 -142.5t-81 -107t-90 -72t-91 -42t-86 -13q-74 0 -139.5 26.5t-116 75t-90.5 116 t-65.5 149.5t-39 174.5t-13.5 192.5zM324 706q0 -53 2 -103.5t9 -116t18 -121t30.5 -111.5t45.5 -95t64.5 -63.5t86.5 -24.5q16 0 34.5 4t46 18t51 37.5t48 67.5t39.5 102q25 89 33 193t8 286q0 157 -20 282t-51 197.5t-71 105.5q-44 39 -108 39q-266 0 -266 -697z" />
<glyph unicode="&#xe011;" horiz-adv-x="810" d="M64 1292q81 25 181.5 65.5t196.5 80.5t160 61q5 0 7 -0.5t5 -1.5t4 -3.5t1 -6.5q-19 -139 -19 -399v-624q0 -274 22 -464l-5 -7q-69 7 -118 7q-20 0 -48 -2t-46 -3l-19 -2l-3 7q20 170 20 464v610v45.5t-1.5 41.5t-4 40.5t-7.5 30t-12.5 22.5t-18.5 7q-17 0 -50 -4.5 t-66.5 -10.5t-80.5 -13t-83 -11z" />
<glyph unicode="&#xe012;" horiz-adv-x="1090" d="M130 84q0 17 3 31q14 14 71.5 67t95 89t101 99.5t111 116.5t103 121.5t97.5 130.5q45 69 69 159t24 171q0 63 -22.5 118t-59 92.5t-83 59t-94.5 21.5q-118 0 -190 -58q-18 -15 -31 -29.5t-24 -33.5t-17.5 -31.5t-17.5 -39t-18 -40.5l-32 2l-54 170q24 31 59.5 62t88 64 t125 53t151.5 20q202 0 316 -108.5t114 -287.5q0 -97 -50 -206.5t-127 -213.5q-58 -78 -110.5 -142t-108 -122.5t-86.5 -89t-94 -90.5q-43 -43 -43 -67q0 -7 4 -12q67 4 200 4q35 0 67 0.5t57 1t52.5 1.5t44 1.5t42.5 2t36.5 2t38 2.5t35 3t38.5 3.5t39 3.5 q-13 -51 -13 -117q0 -21 8 -80q-292 12 -427 12q-80 0 -151.5 -2t-161.5 -5t-152 -5q-24 39 -24 96z" />
<glyph unicode="&#xe013;" horiz-adv-x="1132" d="M110 96l54 184l38 3q2 -5 6 -14q13 -29 19.5 -42.5t19 -36.5t20.5 -33.5t21.5 -26.5t26.5 -23.5t31.5 -17t39 -13.5t46.5 -7t58 -3q18 0 39 3t48 10t53.5 20t53 31t49.5 45.5t40.5 61.5t27.5 80.5t10 100.5q0 73 -24.5 134.5t-71.5 101.5q-48 40 -112 59t-129 19 q-73 0 -103 -5v108q52 -7 91 -7q131 0 204 70q94 89 94 240q0 57 -18.5 107t-48 83t-65.5 51.5t-72 18.5q-108 0 -174 -51t-112 -158l-36 3l-52 157l8 7q26 23 60.5 45t83.5 44t112.5 35.5t130.5 13.5q89 0 164.5 -25t125.5 -68.5t78 -101.5t28 -124q0 -73 -27 -140 t-70.5 -114t-93.5 -78.5t-99 -43.5v-13q145 -13 242 -109t97 -239q0 -78 -25 -147t-68 -119t-97.5 -89.5t-115.5 -63.5t-120 -36.5t-112 -12.5q-226 0 -366 119z" />
<glyph unicode="&#xe014;" horiz-adv-x="1164" d="M79 413q0 38 31 96q95 163 307 486.5t325 479.5q0 1 2.5 3.5t5.5 4.5l2 1q44 -9 83 -9q21 0 54 4.5t42 4.5q5 0 5 -9q-14 -136 -14 -364v-624h157q17 0 27 -11t10 -28q0 -23 -24 -53.5t-48 -30.5h-122q0 -150 14 -364q0 -7 -5 -7q-8 0 -26 1.5t-39 3.5t-38 2 q-8 0 -19 -0.5t-21.5 -1t-21.5 -1.5t-20.5 -1.5t-17 -1t-11.5 -1.5h-4l-3 7q12 102 16 166t4 198h-507q-144 0 -144 49zM232 487h498v772z" />
<glyph unicode="&#xe015;" horiz-adv-x="1102" d="M110 120l54 197l35 2q9 -15 23.5 -42t21.5 -40.5t20 -35.5t22 -32.5t23 -27t26.5 -24.5t30.5 -18t37 -14.5t42.5 -8t51.5 -3.5q126 0 202.5 99.5t76.5 267.5q0 98 -21.5 174.5t-59.5 124t-89 72t-112 24.5q-53 0 -110 -12t-94.5 -25t-99.5 -38l-18 6l79 723 q168 -14 279 -14q203 0 404 24l18 -7l-40 -167q-121 -15 -258 -15q-148 0 -312 22l-52 -434q42 14 118 25t150 11q58 0 110.5 -12.5t96 -35.5t80 -55t63.5 -71.5t46 -84t28.5 -94t9.5 -100.5q0 -143 -63.5 -258.5t-178 -181t-258.5 -65.5q-66 0 -127 13t-107.5 35.5 t-78.5 43.5t-59 45z" />
<glyph unicode="&#xe016;" horiz-adv-x="1159" d="M106 598q0 184 65.5 351t196.5 299q123 125 265 183.5t335 69.5l8 -68q-135 -14 -239 -55.5t-193 -127.5q-60 -58 -107 -133t-80.5 -168.5t-46.5 -196.5q43 54 131 91t164 37q79 0 145 -18.5t111.5 -48t81 -69t56 -80t34 -84t18 -76.5t4.5 -61q0 -40 -6.5 -81.5 t-22.5 -87.5t-40 -88t-61 -80.5t-83.5 -66t-110.5 -44.5t-138 -17q-44 0 -87 7t-92.5 26t-92.5 48.5t-83.5 78t-69 111.5t-45.5 152.5t-17 196.5zM302 590q0 -91 11 -166.5t29 -128.5t44 -94.5t53.5 -66.5t60 -40.5t61 -21.5t58.5 -6q46 0 84 18.5t69 59t48.5 112 t17.5 169.5q0 29 -3 57.5t-10.5 65t-20.5 68t-35 63t-50.5 53.5t-71 35.5t-94.5 13.5q-28 0 -49.5 -2t-57 -10.5t-71.5 -31t-70 -57.5q-3 -24 -3 -90z" />
<glyph unicode="&#xe017;" horiz-adv-x="999" d="M76 1268q0 7 4.5 36.5t6.5 48.5t2 35q0 17 -2 33.5t-6 37t-5 33.5q123 -17 688 -17q83 0 158 24l42 -24q-128 -312 -239.5 -610t-162.5 -445.5t-149 -441.5l-179 -10l-8 15q76 171 181 422t162.5 392.5t199.5 492.5q-106 6 -339.5 1t-353.5 -23z" />
<glyph unicode="&#xe018;" d="M96 359q0 72 43 150t119 145q78 69 172 140l-50 27q-104 61 -160 149.5t-56 192.5q0 94 54.5 170.5t153 121t221.5 44.5q179 0 282 -86t103 -221q0 -45 -20.5 -91t-48.5 -81t-72.5 -73.5t-75.5 -60.5t-73 -51l150 -98q105 -69 159.5 -152t54.5 -187q0 -57 -20 -115.5 t-62 -113t-100 -97t-139.5 -68.5t-174.5 -26q-99 0 -182.5 24.5t-145.5 71.5t-97 120t-35 165zM288 359q0 -64 17.5 -116t45.5 -85.5t64.5 -56.5t73 -32.5t71.5 -9.5q38 0 74 6.5t76 26t69.5 50.5t49 83.5t19.5 121.5q0 182 -217 319l-113 71q-60 -40 -104.5 -86.5t-68 -86 t-37 -82t-17 -69.5t-3.5 -54zM349 1207q0 -33 5.5 -60.5t22 -63t53 -72.5t91.5 -73l77 -44q30 22 60.5 50t63.5 67.5t54 87.5t21 95q0 45 -12.5 84t-37.5 71t-68.5 50.5t-101.5 18.5q-107 0 -167.5 -60t-60.5 -151z" />
<glyph unicode="&#xe019;" horiz-adv-x="1140" d="M89 1032q0 40 6.5 81.5t22.5 87.5t39.5 88t61 80t83.5 66t110 44.5t139 16.5q44 0 87 -7t92 -25.5t92 -48t83 -78t68.5 -111.5t46 -152.5t17.5 -196.5q0 -184 -65.5 -352t-197.5 -299q-123 -125 -265 -184t-335 -70l-7 70q136 13 240 54.5t193 126.5q90 89 151.5 217.5 t81.5 281.5q-29 -35 -80 -64.5t-108 -46t-106 -16.5q-79 0 -145.5 18.5t-111.5 47.5t-80.5 69t-56 80.5t-34 84t-18 76.5t-4.5 61zM305 1049q0 -29 2.5 -58t10.5 -65t21 -67.5t35 -62.5t51 -53t71.5 -35.5t93.5 -13.5q22 0 38 0.5t44.5 6t52.5 15.5t54.5 30t58.5 48 q2 24 2 90q0 91 -11 167t-29 129t-43.5 94.5t-53.5 66t-60 40.5t-61 22t-59 6q-46 0 -84 -19t-69 -59.5t-48 -112t-17 -169.5z" />
<glyph unicode="&#xe01a;" horiz-adv-x="1510" d="M12 558l56 103h228q-1 17 -1 52q0 42 4 81h-191q-40 0 45 92l11 12h149q25 125 82.5 234.5t137.5 191t185.5 128.5t219.5 47q81 0 158.5 -8.5t130.5 -20t94.5 -23.5t61.5 -20l20 -9l6 -7q-3 -9 -10.5 -38.5t-9 -35t-6.5 -27.5t-6 -29t-4.5 -25.5t-4.5 -31.5t-3 -32.5 t-3 -41.5l-25 -3q-72 145 -161.5 199t-249.5 54q-58 0 -120 -32.5t-119.5 -93t-102 -159t-62.5 -217.5h618q0 -5 -1 -12t-5 -24.5t-9.5 -31t-15.5 -25t-23 -11.5h-574q-1 -15 -1 -49q0 -42 4 -84h519l-54 -103h-448q20 -96 59.5 -183t91.5 -154.5t118.5 -107.5t136.5 -40 q95 0 157.5 11.5t111.5 43t83 77t72 121.5l24 -2q7 -112 23 -235l-6 -7q-7 -5 -21 -12t-60 -25t-96 -32t-128.5 -25.5t-159.5 -11.5q-138 0 -251 43.5t-190 122.5t-125 183.5t-66 232.5h-294z" />
<glyph unicode="&#xe01b;" horiz-adv-x="1250" d="M35 1494q37 -5 122 -5q91 0 129 5q41 -79 92 -171t84 -149.5t101.5 -174t95.5 -161.5q248 396 373 656q24 -5 96 -5q61 0 89 5q-60 -91 -138.5 -209.5t-121 -183.5t-91.5 -141t-81.5 -132t-58.5 -106q0 -6 0.5 -18.5t0.5 -18.5h330q19 0 19 -14v-52q0 -10 -9.5 -17.5 t-23 -11t-25.5 -3.5h-290q1 -25 1 -77t1 -78h327q19 0 19 -14v-50q0 -14 -18.5 -22.5t-39.5 -8.5h-286q4 -283 10 -344q-35 7 -116 7q-82 0 -117 -7q7 69 12 344h-315q-7 0 -9.5 3t-2.5 12v31q0 18 13.5 33.5t43.5 15.5h271q0 27 0.5 78.5t0.5 76.5h-317q-7 0 -9.5 3 t-2.5 12v34q0 18 13.5 33.5t43.5 15.5h272v18q-74 126 -251 413.5t-237 377.5z" />
<glyph unicode="&#xe02c;" horiz-adv-x="1545" d="M40 -7q406 888 724 1625h69q82 -198 236.5 -580t268.5 -659t168 -386q-42 7 -146 7q-82 0 -124 -7q-54 201 -191 569q-100 6 -288 6q-215 0 -317 -6q-149 -366 -204 -569q-30 7 -111 7q-55 0 -85 -7zM455 1843q0 31 16 58.5t43 43.5t58 16q48 0 83 -35t35 -83t-35 -82.5 t-82.5 -34.5t-82.5 34.5t-35 82.5zM488 678q162 -7 257 -7q120 0 256 6q-117 303 -249 606h-4zM919 1843q0 48 35 83t83 35t83.5 -35t35.5 -82.5t-35.5 -82.5t-83.5 -35t-83 34.5t-35 82.5z" />
<glyph unicode="&#xe02d;" horiz-adv-x="1820" d="M127 762q0 178 60 336.5t163.5 272.5t247.5 180.5t307 66.5q165 0 309.5 -58.5t250.5 -163t167 -256.5t61 -331q0 -183 -57 -337.5t-159.5 -263.5t-249 -170.5t-320.5 -61.5q-126 0 -243 35t-214 103t-169.5 162t-113 219t-40.5 267zM380 804q0 -138 31.5 -255.5 t86.5 -202t128 -144.5t157 -89t173 -29q106 0 194 44.5t153 128.5t101 213.5t36 291.5q0 189 -39.5 332t-114.5 233.5t-178.5 135.5t-235.5 45q-73 0 -141.5 -23t-133 -76.5t-112 -133t-76.5 -200.5t-29 -271zM539 1846q0 47 35 82t82.5 35t82.5 -35t35 -82.5t-35 -82.5 t-83 -35q-31 0 -58 16t-43 43t-16 59zM1003 1845.5q0 47.5 35 82.5t83 35t82.5 -35t34.5 -82q0 -32 -16 -59t-43 -43t-58 -16q-48 0 -83 35t-35 82.5z" />
<glyph unicode="&#xe02e;" horiz-adv-x="1700" d="M232 1585l4 7q45 -7 125 -7q81 0 126 7l5 -7q-25 -171 -25 -492v-432q0 -44 1 -73.5t9 -92t22 -107t45 -100.5t73 -91t110 -59.5t153 -24.5q86 0 155.5 17.5t116.5 46t81.5 73.5t54 91t31 107.5t15 113.5t3.5 118v413q0 317 -24 492l5 7q45 -7 85 -7q41 0 86 7l5 -7 q-24 -163 -24 -492v-368q0 -97 -9 -179.5t-30 -160.5t-54.5 -139.5t-84 -112.5t-116.5 -85.5t-154 -53t-194 -18.5q-51 0 -101.5 7t-108.5 25.5t-108.5 47t-98 76t-81.5 108.5t-54 148.5t-20 191.5v513q0 317 -24 492zM548 1845.5q0 47.5 35 82.5t83 35t83 -35t35 -82.5 t-35 -82.5t-83 -35t-83 35t-35 82.5zM1013 1845.5q0 47.5 35 82.5t82 35q32 0 59 -16t43 -43t16 -58q0 -48 -35 -83t-82.5 -35t-82.5 35t-35 82.5z" />
<glyph unicode="&#xe03d;" horiz-adv-x="1874" d="M94 535q0 98 29.5 185t80.5 151.5t118 112t142.5 71.5t152.5 24q5 0 15.5 -0.5t15.5 -0.5q-48 43 -76 90.5t-38.5 95t-10.5 108.5q0 66 32 128t90 110t148 77t197 29q225 0 340.5 -111t126.5 -317l13 -233h115q25 0 56.5 1t66.5 2t49 2l13 -18q-21 -54 -30 -101 q-43 5 -176 5h-94v-310q0 -83 -3.5 -191t-3.5 -135q0 -68 8 -110t25.5 -64.5t46.5 -27.5q96 -15 193 19l32 -61q-77 -49 -142.5 -69.5t-143.5 -20.5q-91 0 -153.5 61t-62.5 174q0 28 3.5 171.5t3.5 227.5v336q-119 0 -175 -5l-12 18q33 51 54 101q22 -5 56 -5q30 0 53 8.5 t37.5 20.5t25 33.5t16 38.5t8 45t3 44t0.5 43q0 168 -94.5 263t-278.5 95q-75 0 -142.5 -21.5t-116 -57.5t-77 -84t-28.5 -99q0 -105 52 -186t174 -146q75 -20 115 -42l6 -7l-57 -201l-32 -3q-49 86 -112.5 133.5t-133.5 47.5q-61 0 -116 -30t-97 -84t-66.5 -136.5 t-24.5 -181.5q0 -210 89.5 -330t229.5 -120q74 0 135 22t128 82h10l47 -52q-72 -92 -160.5 -133t-201.5 -41q-225 0 -359 151.5t-134 407.5z" />
<glyph unicode="&#xe04a;" horiz-adv-x="1306" d="M49 968v76q0 11 7 11q61 0 101.5 17.5t63 55t31 87.5t8.5 124v47l143 49v-380h617q24 0 54 2t52 5t39.5 5t18.5 2q33 0 33 -14q0 -22 -54 -103l-333 -542q109 0 202.5 -61t148.5 -165.5t55 -225.5q0 -104 -36 -200.5t-98.5 -171t-154.5 -119t-197 -44.5q-73 0 -141 24.5 t-112.5 60t-71.5 74t-27 69.5q0 23 8.5 42.5t27 33t42.5 13.5q43 0 70 -20.5t41 -63.5q7 -22 22 -46.5t38 -48t56 -38.5t69 -15q40 0 86 29.5t87 80t67.5 130.5t26.5 170q0 121 -26 211.5t-81 143.5t-133 53q-23 0 -145 -26l-42 40l368 621l-577 -2v-628q0 -92 4 -150 t12 -86.5t18 -38t25 -9.5h14l11 -59q-48 -18 -89 -18q-89 0 -134.5 58t-45.5 186v745h-159q-10 0 -10 9z" />
<glyph unicode="&#xe04b;" horiz-adv-x="1228" d="M199 0q22 158 22 492v692q0 357 -22 474l5 9q68 5 113.5 16.5t100.5 32.5q22 0 22 -25q0 -11 -3.5 -50t-4 -51t-3 -46t-3.5 -50t-3 -47t-2.5 -52t-1.5 -50.5t-1 -57.5v-58v-295q92 82 164.5 117t154.5 35q60 0 114 -16t106 -56t89.5 -101t60.5 -159.5t23 -223.5 q0 -140 -17.5 -265.5t-48.5 -226t-75.5 -188t-95.5 -154t-112 -122t-121.5 -94t-126.5 -67.5l-34 66q83 59 144.5 120t117 149t90.5 195t55 253t20 327q0 94 -14.5 171t-39 126.5t-56.5 83t-65.5 48t-67.5 14.5q-54 0 -117 -32.5t-148 -119.5v-322q0 -325 22 -492l-6 -7 q-45 7 -115 7t-115 -7z" />
<glyph unicode="&#xe050;" horiz-adv-x="1773" d="M96 440q0 98 20 183.5t54 149.5t80.5 115.5t98.5 86t109 58t110.5 33.5t104.5 10q29 0 57 -12l168 290l23.5 47t14 36.5t7.5 42.5q0 31 -26.5 54.5t-63.5 23.5q-50 0 -79 -35.5t-29 -92.5q0 -4 1.5 -15.5t1.5 -16.5l-54 -5q-6 42 -6 52q0 95 59.5 149.5t159.5 54.5 q62 0 98.5 -33t36.5 -80q0 -21 -19.5 -67.5t-42.5 -87.5l-633 -1113q114 -123 284 -123q99 0 185 26t150.5 70.5t117.5 106.5t89 130.5t61 145.5t37.5 150t16.5 145q-36 28 -66 46.5t-77 34t-96 15.5q-73 0 -73 -42q0 -17 6.5 -30.5t14 -20t21.5 -15.5q14 -12 20 -18.5 t14 -23t8 -37.5q0 -38 -28 -69.5t-61 -31.5q-19 0 -36 6t-32 20t-24 39.5t-9 60.5q0 54 16 99t48 81.5t86 57t125 20.5q54 0 110 -16t93 -34.5t82 -45.5q5 -2 18.5 -9.5l18 -10t15 -7.5t16 -7.5t13 -5t13.5 -3.5t12 -1q28 0 28 19q0 15 -18 47q-22 43 -22 77q0 44 21.5 68.5 t54.5 24.5q36 0 62 -24.5t26 -68.5q0 -54 -15 -99t-38 -73.5t-50.5 -48.5t-52 -28.5t-43.5 -8.5q-82 0 -127 26q-10 -165 -59.5 -310.5t-127 -254t-176.5 -188t-212 -119.5t-229 -40q-93 0 -178.5 37t-147.5 100t-99 150.5t-37 182.5zM226 580q0 -47 20 -120.5t61 -137.5 l322 565q-18 28 -47.5 46.5t-67.5 18.5q-60 0 -114.5 -34.5t-92 -88.5t-59.5 -120t-22 -129z" />
<glyph unicode="&#xe051;" horiz-adv-x="1240" d="M40 -5q271 590 520 1170h153q391 -983 483 -1170q-30 5 -169 5q-59 0 -89 -5q-39 134 -135 396q-137 5 -210 5q-101 0 -235 -5q-103 -257 -140 -396q-21 5 -80 5q-77 0 -98 -5zM397 488q113 -4 187 -4q66 0 184 4q-99 265 -178 436h-6q-90 -203 -187 -436z" />
<glyph unicode="&#xe052;" horiz-adv-x="1198" d="M187 0q15 92 19.5 188.5t4.5 251.5v250q0 151 -4.5 250t-19.5 190l3 8q33 -8 120 -8q227 15 295 15q104 0 180.5 -15t122 -39.5t73 -62t37 -76t9.5 -87.5q0 -81 -53 -146.5t-133 -96.5l1 -11q234 -61 234 -304q0 -161 -115 -240t-327 -79q-78 0 -189 6t-135 6 q-39 0 -69 -2t-41 -3l-10 -2zM413 164q0 -21 1.5 -32t9.5 -24.5t24.5 -19.5t47 -10.5t76.5 -4.5q53 0 94 9t67.5 22t45.5 34.5t29 41t15 48t6 48t1 48.5q0 44 -3 74t-11.5 60.5t-25.5 49t-44.5 34t-68 22t-95.5 6.5h-169v-406zM413 659h169q120 0 172 47t52 157q0 57 -16 97 t-46 60.5t-63.5 28.5t-78.5 8q-82 0 -120 -5.5t-53.5 -19.5t-15.5 -44v-329z" />
<glyph unicode="&#xe053;" horiz-adv-x="1208" d="M94 546q0 139 44.5 254.5t121.5 192.5t181 120t223 43q237 0 385 -126l6 -8l-52 -199l-32 -2q-27 47 -55.5 84.5t-68 72.5t-90.5 54.5t-110 19.5q-30 0 -59.5 -5.5t-63 -21t-63 -39t-57 -62t-47 -87t-31.5 -117.5t-12 -150q0 -70 14 -137t43.5 -128.5t71.5 -107.5 t103.5 -73.5t133.5 -27.5q194 0 334 126l48 -46q-191 -200 -443 -200q-250 0 -387.5 152t-137.5 418z" />
<glyph unicode="&#xe054;" horiz-adv-x="1390" d="M187 0q15 92 19.5 188.5t4.5 251.5v250q0 151 -4.5 250t-19.5 190l3 8q33 -8 120 -8q38 1 93 2.5t95.5 2.5l81 2t62.5 1q135 0 250 -45.5t194 -124.5t123 -186t44 -229q0 -89 -18 -165.5t-49 -133t-75 -101t-94 -74t-108 -48.5t-115.5 -27.5t-117.5 -8.5 q-116 0 -234.5 2.5t-131.5 2.5q-39 0 -69 -2t-41 -3l-10 -2zM408 199q0 -23 3.5 -38t16 -30t35 -23.5t61 -13.5t93.5 -5q85 0 148 10.5t117.5 38.5t88 75.5t52.5 121.5t19 176q0 49 -6 96.5t-18 95t-32 90t-46.5 81t-63.5 69.5t-81.5 53.5t-102 35t-122.5 12.5 q-162 0 -162 -80v-765z" />
<glyph unicode="&#xe055;" horiz-adv-x="1107" d="M187 0q15 92 19.5 188.5t4.5 251.5v250q0 151 -4.5 250t-19.5 190l3 8q38 -8 124 -8h500q88 0 147 8l5 -8q-5 -69 -5 -75q0 -13 5 -52l-5 -11q-8 2 -24 4t-69 7t-111 9t-148 7t-182 3q-7 -26 -12 -105t-6 -135.5t-1 -93.5v-46q83 0 139 1.5t91 4t57 5t56 6.5t70 7l7 -7 q-7 -33 -7 -69q0 -37 7 -69l-7 -7q-254 25 -413 25v-96q0 -37 1 -91t6 -130t12 -102q146 0 285.5 7.5t206.5 14.5l66 8l5 -10q-5 -38 -5 -76q0 -11 0.5 -18.5t2 -19.5t2.5 -26l-5 -7q-59 7 -147 7h-524q-40 0 -71.5 -2t-41.5 -3l-11 -2z" />
<glyph unicode="&#xe056;" horiz-adv-x="1076" d="M187 0q15 92 19.5 188.5t4.5 251.5v250q0 151 -4.5 250t-19.5 190l3 8q38 -8 124 -8h500q88 0 147 8l5 -8q-5 -69 -5 -75q0 -13 5 -52l-5 -11q-8 2 -24 4t-69 7t-111 9t-148 7t-182 3q-7 -26 -12 -105t-6 -135.5t-1 -93.5v-46q83 0 139 1.5t91 4t57 5t56 6.5t70 7l7 -7 q-7 -33 -7 -69q0 -37 7 -69l-7 -7q-254 25 -413 25v-99q0 -155 4.5 -251t19.5 -189l-2 -7q-29 7 -120 7q-40 0 -70 -2t-40 -3l-10 -2z" />
<glyph unicode="&#xe057;" horiz-adv-x="1309" d="M94 535q0 144 45 261.5t126 196t194.5 121t248.5 42.5q239 0 427 -99l5 -8l-56 -201l-40 -2q-30 44 -61.5 78t-73 64.5t-93.5 47t-110 16.5q-127 0 -215.5 -59.5t-132.5 -167.5t-44 -257q0 -46 6 -91.5t20 -94t34.5 -92t52.5 -82.5t72 -67.5t95 -45t119 -16.5 q117 0 230 36v10q0 112 -4.5 173t-19.5 171l5 7q31 -7 115 -7q24 0 45 1t33.5 2t21.5 2t13 2h4l2 -7q-18 -126 -18 -307v-26q0 -32 18 -57q-214 -103 -490 -103q-129 0 -237.5 43t-182 118.5t-114 178t-40.5 219.5z" />
<glyph unicode="&#xe058;" horiz-adv-x="1358" d="M185 0q10 64 15.5 135.5t7 136.5t1.5 168v250q0 151 -4.5 249.5t-19.5 190.5l2 8q34 -8 120 -8q38 0 67 2t40 4l11 2l5 -8q-14 -110 -19 -203.5t-5 -236.5v-73h543v73q0 285 -25 440l2 8q34 -8 120 -8q38 0 67.5 2t40.5 4l11 2l5 -8q-10 -76 -15.5 -140.5t-7.5 -134.5 t-2 -165v-250q0 -150 5 -245t20 -195l-5 -7q-35 7 -119 7q-24 0 -45 -0.5t-34 -2t-23 -2.5t-14 -1l-4 -1l-2 7q15 94 20 192t5 248v76h-543v-76q0 -104 1 -168t6.5 -134t16.5 -138l-5 -7q-34 7 -118 7q-38 0 -68 -2t-41 -3l-11 -2z" />
<glyph unicode="&#xe059;" horiz-adv-x="614" d="M185 0q10 64 15.5 135.5t7 136.5t1.5 168v250q0 151 -4.5 249.5t-19.5 190.5l2 8q34 -8 120 -8q38 0 67 2t40 4l11 2l5 -8q-14 -110 -19 -203.5t-5 -236.5v-250q0 -104 1 -168t6.5 -134t16.5 -138l-5 -7q-34 7 -118 7q-38 0 -68 -2t-41 -3l-11 -2z" />
<glyph unicode="&#xe05a;" horiz-adv-x="636" d="M-223 -396q30 51 68 202l28 2q48 -85 141 -85q41 0 73.5 17.5t54 45.5t37.5 70.5t25 85t14 97.5t6.5 98t1.5 97v413q0 315 -24 491l4 7q37 -7 120 -7q39 0 68.5 1.5t40.5 3.5l10 2l3 -7q-26 -172 -26 -491v-359q0 -148 -10 -227.5t-39.5 -145.5t-95.5 -154 q-138 -186 -387 -186q-76 0 -111 22z" />
<glyph unicode="&#xe05b;" horiz-adv-x="1186" d="M185 0q10 64 15.5 135.5t7 136.5t1.5 168v250q0 151 -4.5 249.5t-19.5 190.5l2 8q34 -8 120 -8q38 0 67 2t40 4l11 2l5 -8q-14 -110 -19 -203.5t-5 -236.5v-100q32 13 75 48q75 57 205.5 208.5t223.5 283.5q183 0 232 8l5 -8q-110 -94 -258 -251.5t-260 -285.5 q74 -94 174 -206.5t160.5 -176.5t199.5 -210l-5 -7q-36 7 -138 7q-101 0 -164 -7q-113 161 -203 269.5t-223 248.5q-10 10 -24 17v-88q0 -104 1 -168t6.5 -134t16.5 -138l-5 -7q-34 7 -118 7q-38 0 -68 -2t-41 -3l-11 -2z" />
<glyph unicode="&#xe05c;" horiz-adv-x="1063" d="M185 0q10 64 15.5 135.5t7 136.5t1.5 168v250q0 151 -4.5 250t-19.5 190l2 8q32 -8 118 -8q37 0 67 2t41 4l12 2l5 -8q-15 -98 -19.5 -191.5t-4.5 -248.5v-250q0 -35 1 -88.5t5.5 -129.5t12.5 -102q146 0 285.5 7.5t205.5 14.5l67 8l5 -10q-5 -38 -5 -76q0 -11 0.5 -19 t2 -19.5t2.5 -25.5l-5 -7q-60 7 -148 7h-523q-41 0 -72 -2t-42 -3l-11 -2z" />
<glyph unicode="&#xe05d;" horiz-adv-x="1597" d="M127 -5q124 671 175 1161h146q214 -493 379 -804l19 4l366 800h132q55 -472 152 -1161q-27 5 -140 5q-62 0 -90 -5q-30 431 -76 838q-169 -344 -384 -833h-61q-221 527 -383 847q-63 -603 -67 -852q-17 5 -72 5q-77 0 -96 -5z" />
<glyph unicode="&#xe05e;" horiz-adv-x="1341" d="M169 0q25 164 25 326l8 453q3 208 -17 351l2 5q32 -5 93 -5l86 5q414 -491 634 -803l18 5l-3 418q0 248 -42 375l5 5q47 -5 91 -5l103 5v-5q-25 -196 -25 -326l-7 -804q-14 0 -78.5 -3t-76.5 -4q-8 17 -36 54q-364 514 -609 780l-16 -6l2 -445q0 -261 40 -376l-2 -7 q-54 7 -96 7q-11 0 -25 -0.5t-26 -2t-22.5 -2.5t-16.5 -1l-6 -1z" />
<glyph unicode="&#xe05f;" horiz-adv-x="1311" d="M94 541q0 181 66.5 319.5t195.5 217t303 78.5q122 0 226 -42.5t177.5 -118t115 -184.5t41.5 -239q0 -128 -38.5 -237t-110.5 -189t-183 -125t-249 -45q-115 0 -215.5 41.5t-173 115t-114 179.5t-41.5 229zM314 570q0 -224 99.5 -357.5t259.5 -133.5q99 0 171.5 51.5 t112.5 155.5t40 253q0 96 -18.5 179t-51 144t-77.5 104t-98.5 64.5t-113.5 21.5q-63 0 -120 -29.5t-103 -86.5t-73.5 -151.5t-27.5 -214.5z" />
<glyph unicode="&#xe060;" horiz-adv-x="1117" d="M185 0q10 64 15.5 135.5t7 136.5t1.5 168v250q0 151 -4.5 250t-19.5 190l2 8q34 -8 120 -8q29 0 137 7.5t178 7.5q225 0 324.5 -79t99.5 -255q0 -47 -13 -96.5t-47 -101.5t-84 -92t-130.5 -65.5t-181.5 -25.5q-130 0 -180 15v-30q0 -149 4.5 -232t19.5 -183l-4 -7 q-37 7 -120 7q-40 0 -70.5 -2t-41.5 -3l-11 -2zM410 546q61 -13 185 -13q74 0 126.5 32t80.5 93.5t28 147.5q0 236 -248 236q-102 0 -137 -12.5t-35 -50.5v-433z" />
<glyph unicode="&#xe061;" horiz-adv-x="1311" d="M94 541q0 181 66.5 319.5t195.5 217t303 78.5q122 0 226 -42.5t177.5 -118t115 -184.5t41.5 -239q0 -157 -56 -284t-163 -205q282 -160 482 -238v-14q-148 -76 -221 -133q-32 23 -86 64t-73 55t-57.5 41t-66 43.5t-69.5 41t-95 53.5q-82 -20 -176 -20q-115 0 -215.5 41.5 t-173 115t-114 179.5t-41.5 229zM314 570q0 -224 99.5 -357.5t259.5 -133.5q99 0 171.5 51.5t112.5 155.5t40 253q0 96 -18.5 179t-51 144t-77.5 104t-98.5 64.5t-113.5 21.5q-63 0 -120 -29.5t-103 -86.5t-73.5 -151.5t-27.5 -214.5z" />
<glyph unicode="&#xe062;" horiz-adv-x="1194" d="M185 0q10 64 15.5 135.5t7 136.5t1.5 168v250q0 151 -4.5 250t-19.5 190l5 8q43 -8 120 -8q28 0 135 4t177 4q222 0 321 -71.5t99 -215.5q0 -115 -61 -195.5t-159 -127.5q98 -127 169 -242q123 -194 203 -286l-5 -7q-47 7 -120 7q-91 0 -135 -7q-24 85 -130 251 q-74 115 -178 230q-36 -2 -51 -2h-165v-32q0 -154 4.5 -248t19.5 -192l-4 -7q-37 7 -120 7q-40 0 -70.5 -2t-41.5 -3l-11 -2zM410 575h155q95 0 151.5 27t83 87t26.5 162q0 52 -14.5 88t-42 56.5t-63.5 29.5t-84 9q-71 0 -110.5 -2.5t-63.5 -11.5t-31 -22t-7 -37v-386z" />
<glyph unicode="&#xe063;" horiz-adv-x="1053" d="M110 52l45 208l39 3q46 -85 127.5 -134.5t175.5 -49.5q107 0 168.5 46t61.5 135q0 81 -68 145t-187 106q-57 21 -98.5 39t-88 47t-75.5 61.5t-48 80t-19 103.5q0 64 22.5 116.5t61 88.5t89.5 61t108 36.5t117 11.5q194 0 369 -92l4 -7l-51 -177l-37 -3q-14 30 -39 60 t-59 57t-80 44t-95 17q-90 0 -150.5 -46t-60.5 -125q0 -35 16.5 -66t39.5 -51.5t59 -39t63.5 -28.5t63.5 -21q79 -23 140.5 -53t112.5 -72.5t78.5 -101t27.5 -129.5q0 -48 -11 -92.5t-41.5 -92t-78.5 -82t-128.5 -57t-184.5 -22.5q-179 0 -389 76z" />
<glyph unicode="&#xe064;" horiz-adv-x="1110" d="M61 976q8 54 0 154l5 5q74 -5 136 -5h708q60 0 134 5l5 -5q-8 -100 0 -154l-5 -8q-9 3 -31 7.5t-121 12t-236 7.5v-552q0 -157 4.5 -251t19.5 -192l-4 -7q-37 7 -120 7q-39 0 -70 -2t-42 -3l-12 -2l-2 7q15 94 20 192.5t5 250.5v552q-86 0 -158 -3t-112.5 -6.5 t-69.5 -7.5t-39 -7l-10 -3z" />
<glyph unicode="&#xe065;" horiz-adv-x="1328" d="M187 1130l3 8q36 -8 122 -8q37 0 69.5 2t45.5 4l13 2l5 -8q-15 -99 -20 -195t-5 -247v-191q0 -75 6 -132t24.5 -113t49 -92t82 -58.5t121.5 -22.5q56 0 101.5 14t78 38t57 58.5t39.5 72t24 82.5t12 86.5t3 87.5l-3 170q0 287 -25 442l2 8q70 -8 94 -8l82 8l4 -8 q-15 -99 -20 -195t-5 -247v-137q0 -107 -14 -191.5t-48 -158t-88.5 -122t-139 -76t-196.5 -27.5q-450 0 -450 420v292q0 101 -1.5 166t-6.5 139t-16 137z" />
<glyph unicode="&#xe066;" horiz-adv-x="1262" d="M54 1138q42 -8 136 -8q87 0 122 8q140 -441 340 -899h21q22 47 46.5 104t42.5 100t46.5 118.5t41 108.5t45.5 124t40 110.5t43.5 123t39.5 110.5q24 -8 84 -8q84 0 108 8q-30 -67 -124.5 -277t-137.5 -309t-110 -261.5t-116 -297.5q-21 7 -96 7q-66 0 -93 -7 q-238 618 -479 1145z" />
<glyph unicode="&#xe067;" horiz-adv-x="1948" d="M54 1138q56 -10 136 -10q76 0 122 10q5 -16 40.5 -128t45 -141.5t41 -124.5t49.5 -142t47.5 -123.5t57.5 -139t59 -123.5l12 1q96 182 231 553q-95 226 -161 370q56 -10 138 -10q79 0 125 10q182 -570 343 -929h14q45 94 95.5 220.5t84.5 223t88 253.5t81 232 q32 -10 81 -10q79 0 111 10q-34 -75 -159 -350t-199 -449.5t-137 -347.5q-24 7 -103 7q-68 0 -96 -7q-144 379 -242 623q-78 -187 -237 -626q-21 8 -110 8q-54 0 -82 -8q-257 667 -476 1148z" />
<glyph unicode="&#xe068;" horiz-adv-x="1198" d="M37 1138q42 -8 153 -8q92 0 136 8q26 -43 52 -83.5t64 -94.5t54 -76t68.5 -94t59.5 -82q25 32 103.5 131.5t128.5 165.5t96 133q30 -8 92 -8q89 0 119 8l-465 -531q152 -220 458 -614q-40 7 -131 7q-111 0 -150 -7q-44 68 -90.5 136t-119.5 171t-95 134 q-22 -31 -76.5 -106.5t-84 -116.5t-73 -103.5t-78.5 -114.5q-28 7 -115 7q-64 0 -91 -7l438 555z" />
<glyph unicode="&#xe069;" horiz-adv-x="1048" d="M-2 1129l7 9q48 -8 140 -8q82 0 127 8q137 -272 286 -509q60 95 99.5 162t90 164.5t82.5 182.5q33 -8 101 -8q57 0 89 8q-51 -79 -134 -204.5t-118 -179.5t-76.5 -122.5t-67.5 -117.5q3 -402 14 -521q-41 7 -112 7t-116 -7q12 110 12 507q-73 138 -197 316.5t-227 312.5z " />
<glyph unicode="&#xe06a;" horiz-adv-x="1093" d="M52 5q7 7 15 17t14 18.5t14.5 21.5t14.5 22l620 913q-85 -1 -178 -4.5t-165 -7t-132 -7t-92 -5.5l-32 -2l-9 7q9 67 9 82q0 12 -3.5 33t-5.5 37l9 8q59 -8 146 -8h537q33 0 83 4.5t88 8.5t42 4q15 0 15 -17q-4 -3 -7 -6.5t-6.5 -8t-7.5 -10t-8 -11.5t-10 -14.5 t-11.5 -16.5t-14 -20t-16.5 -23l-602 -887q65 0 136.5 1.5t134 4t122.5 5t107 5.5t83.5 5.5t55.5 3.5l20 2l4 -8q-4 -38 -4 -81q0 -1 4 -71l-4 -7q-60 7 -148 7h-595q-16 0 -36 -0.5l-40 -1t-40 -1.5t-37.5 -1.5t-31 -1t-21.5 -1.5h-8z" />
<glyph unicode="&#xe06d;" horiz-adv-x="817" d="M82 575q0 30 19.5 60.5t41.5 30.5h563q16 0 24.5 -13t8.5 -31q0 -24 -21.5 -56.5t-44.5 -32.5h-555q-16 0 -26 12.5t-10 29.5z" />
<glyph unicode="&#xe070;" horiz-adv-x="1240" d="M40 -5q271 590 520 1170h153q391 -983 483 -1170q-30 5 -169 5q-59 0 -89 -5q-39 134 -135 396q-137 5 -210 5q-101 0 -235 -5q-103 -257 -140 -396q-21 5 -80 5q-77 0 -98 -5zM397 488q113 -4 187 -4q66 0 184 4q-99 265 -178 436h-6q-90 -203 -187 -436zM438 1573l5 27 q75 56 159 56q17 0 36 -5l173 -309q15 -29 15 -59q0 -9 -12 -18t-26 -9q-19 0 -70 48z" />
<glyph unicode="&#xe072;" horiz-adv-x="1240" d="M40 -5q271 590 520 1170h153q391 -983 483 -1170q-30 5 -169 5q-59 0 -89 -5q-39 134 -135 396q-137 5 -210 5q-101 0 -235 -5q-103 -257 -140 -396q-21 5 -80 5q-77 0 -98 -5zM314 1283q56 62 92 103t82 101t80 113h122q80 -131 248 -317l-51 -35q-84 62 -143.5 111.5 t-117.5 110.5q-114 -117 -262 -222zM397 488q113 -4 187 -4q66 0 184 4q-99 265 -178 436h-6q-90 -203 -187 -436z" />
<glyph unicode="&#xe074;" horiz-adv-x="1240" d="M40 -5q271 590 520 1170h153q391 -983 483 -1170q-30 5 -169 5q-59 0 -89 -5q-39 134 -135 396q-137 5 -210 5q-101 0 -235 -5q-103 -257 -140 -396q-21 5 -80 5q-77 0 -98 -5zM312 1405q0 24 9 45.5t24.5 38t37 26t44.5 9.5q48 0 82.5 -35.5t34.5 -83.5q0 -47 -34.5 -81 t-82.5 -34t-81.5 33.5t-33.5 81.5zM397 488q113 -4 187 -4q66 0 184 4q-99 265 -178 436h-6q-90 -203 -187 -436zM727 1405q0 48 34 83.5t81 35.5q32 0 58.5 -16.5t42.5 -43.5t16 -59q0 -47 -34.5 -81t-82 -34t-81.5 33.5t-34 81.5z" />
<glyph unicode="&#xe076;" horiz-adv-x="1766" d="M86 -5q257 486 538 1140q101 -5 295 -5h499q89 0 148 8l5 -8q-5 -69 -5 -75q0 -13 5 -52l-5 -11q-23 4 -65 9t-180 13t-284 8q-8 -26 -12.5 -105t-5.5 -135.5t-1 -93.5v-46q131 0 193 3t117.5 10.5t97.5 10.5l7 -7q-7 -33 -7 -69q0 -37 7 -69l-7 -7q-254 25 -408 25v-96 q0 -37 1 -91t5.5 -130t12.5 -102q146 0 284.5 7.5t203.5 14.5l65 8l5 -10q-5 -38 -5 -76q0 -11 0.5 -19t2 -19.5t2.5 -25.5l-5 -7q-59 7 -148 7h-523q-25 0 -47.5 -0.5t-36 -2t-23.5 -2.5t-14 -1l-4 -1l-3 7q15 94 20 192t5 248v99h-323q-177 -408 -228 -544q-21 5 -80 5 q-77 0 -99 -5zM538 642h278v319q0 53 -13 69t-41 16q-20 0 -42.5 -19.5t-41.5 -60.5q-46 -108 -140 -324z" />
<glyph unicode="&#xe077;" horiz-adv-x="1208" d="M94 546q0 139 44.5 254.5t121.5 192.5t181 120t223 43q237 0 385 -126l6 -8l-52 -199l-32 -2q-27 47 -55.5 84.5t-68 72.5t-90.5 54.5t-110 19.5q-30 0 -59.5 -5.5t-63 -21t-63 -39t-57 -62t-47 -87t-31.5 -117.5t-12 -150q0 -70 14 -137t43.5 -128.5t71.5 -107.5 t103.5 -73.5t133.5 -27.5q194 0 334 126l48 -46q-91 -96 -192 -143.5t-210 -55.5l-53 -141q29 7 64 7q49 0 88.5 -18.5t63 -53.5t23.5 -81q0 -78 -75.5 -130t-188.5 -52q-38 0 -69.5 5t-54.5 13.5t-57 23.5q0 40 24 64q55 -21 81.5 -27.5t61.5 -6.5q56 0 91 26t35 72 q0 40 -20.5 63t-61.5 23q-63 0 -110 -15l-15 15l88 213q-230 14 -355.5 164.5t-125.5 404.5z" />
<glyph unicode="&#xe078;" horiz-adv-x="1107" d="M187 0q15 92 19.5 188.5t4.5 251.5v250q0 151 -4.5 250t-19.5 190l3 8q38 -8 124 -8h500q88 0 147 8l5 -8q-5 -69 -5 -75q0 -13 5 -52l-5 -11q-8 2 -24 4t-69 7t-111 9t-148 7t-182 3q-7 -26 -12 -105t-6 -135.5t-1 -93.5v-46q83 0 139 1.5t91 4t57 5t56 6.5t70 7l7 -7 q-7 -33 -7 -69q0 -37 7 -69l-7 -7q-254 25 -413 25v-96q0 -37 1 -91t6 -130t12 -102q146 0 285.5 7.5t206.5 14.5l66 8l5 -10q-5 -38 -5 -76q0 -11 0.5 -18.5t2 -19.5t2.5 -26l-5 -7q-59 7 -147 7h-524q-40 0 -71.5 -2t-41.5 -3l-11 -2zM361 1597l5 28q75 56 160 56 q18 0 37 -5l171 -309q16 -31 16 -59q0 -9 -11.5 -18.5t-25.5 -9.5q-11 0 -26 10.5t-45 39.5z" />
<glyph unicode="&#xe079;" horiz-adv-x="1107" d="M187 0q15 92 19.5 188.5t4.5 251.5v250q0 151 -4.5 250t-19.5 190l3 8q38 -8 124 -8h500q88 0 147 8l5 -8q-5 -69 -5 -75q0 -13 5 -52l-5 -11q-8 2 -24 4t-69 7t-111 9t-148 7t-182 3q-7 -26 -12 -105t-6 -135.5t-1 -93.5v-46q83 0 139 1.5t91 4t57 5t56 6.5t70 7l7 -7 q-7 -33 -7 -69q0 -37 7 -69l-7 -7q-254 25 -413 25v-96q0 -37 1 -91t6 -130t12 -102q146 0 285.5 7.5t206.5 14.5l66 8l5 -10q-5 -38 -5 -76q0 -11 0.5 -18.5t2 -19.5t2.5 -26l-5 -7q-59 7 -147 7h-524q-40 0 -71.5 -2t-41.5 -3l-11 -2zM422 1268q0 6 1 10.5t1 7.5t2 8t3 7 t4.5 8t4.5 7.5t6 9.5t7 11l185 293q14 4 35 4q76 0 135 -56l8 -28l-284 -267q-46 -47 -73 -47q-13 0 -24 10t-11 22z" />
<glyph unicode="&#xe07a;" horiz-adv-x="1107" d="M187 0q15 92 19.5 188.5t4.5 251.5v250q0 151 -4.5 250t-19.5 190l3 8q38 -8 124 -8h500q88 0 147 8l5 -8q-5 -69 -5 -75q0 -13 5 -52l-5 -11q-8 2 -24 4t-69 7t-111 9t-148 7t-182 3q-7 -26 -12 -105t-6 -135.5t-1 -93.5v-46q83 0 139 1.5t91 4t57 5t56 6.5t70 7l7 -7 q-7 -33 -7 -69q0 -37 7 -69l-7 -7q-254 25 -413 25v-96q0 -37 1 -91t6 -130t12 -102q146 0 285.5 7.5t206.5 14.5l66 8l5 -10q-5 -38 -5 -76q0 -11 0.5 -18.5t2 -19.5t2.5 -26l-5 -7q-59 7 -147 7h-524q-40 0 -71.5 -2t-41.5 -3l-11 -2zM288 1280q56 62 91.5 103.5t82 101 t79.5 112.5h123q80 -130 248 -317l-52 -34q-84 62 -143 111.5t-117 110.5q-114 -118 -263 -222z" />
<glyph unicode="&#xe07b;" horiz-adv-x="1107" d="M187 0q15 92 19.5 188.5t4.5 251.5v250q0 151 -4.5 250t-19.5 190l3 8q38 -8 124 -8h500q88 0 147 8l5 -8q-5 -69 -5 -75q0 -13 5 -52l-5 -11q-8 2 -24 4t-69 7t-111 9t-148 7t-182 3q-7 -26 -12 -105t-6 -135.5t-1 -93.5v-46q83 0 139 1.5t91 4t57 5t56 6.5t70 7l7 -7 q-7 -33 -7 -69q0 -37 7 -69l-7 -7q-254 25 -413 25v-96q0 -37 1 -91t6 -130t12 -102q146 0 285.5 7.5t206.5 14.5l66 8l5 -10q-5 -38 -5 -76q0 -11 0.5 -18.5t2 -19.5t2.5 -26l-5 -7q-59 7 -147 7h-524q-40 0 -71.5 -2t-41.5 -3l-11 -2zM283 1411q0 48 34 83t81.5 35 t81.5 -35t34 -83t-34 -82t-81.5 -34t-81.5 34t-34 82zM698 1411q0 32 15.5 59t42 43t58 16t58 -16t42 -43t15.5 -59q0 -48 -34 -82t-81.5 -34t-81.5 34t-34 82z" />
<glyph unicode="&#xe07e;" horiz-adv-x="614" d="M32 1283q56 62 92 103t82 101t80 113h122q80 -131 248 -317l-51 -35q-84 62 -143.5 111.5t-117.5 110.5q-114 -117 -262 -222zM185 0q10 64 15.5 135.5t7 136.5t1.5 168v250q0 151 -4.5 249.5t-19.5 190.5l2 8q34 -8 120 -8q38 0 67 2t40 4l11 2l5 -8 q-14 -110 -19 -203.5t-5 -236.5v-250q0 -104 1 -168t6.5 -134t16.5 -138l-5 -7q-34 7 -118 7q-38 0 -68 -2t-41 -3l-11 -2z" />
<glyph unicode="&#xe07f;" horiz-adv-x="614" d="M-14 1411q0 48 33.5 83t81 35t81.5 -35t34 -83t-34 -82t-81 -34q-31 0 -58 15.5t-42 42.5t-15 58zM185 0q10 64 15.5 135.5t7 136.5t1.5 168v250q0 151 -4.5 249.5t-19.5 190.5l2 8q34 -8 120 -8q38 0 67 2t40 4l11 2l5 -8q-14 -110 -19 -203.5t-5 -236.5v-250 q0 -104 1 -168t6.5 -134t16.5 -138l-5 -7q-34 7 -118 7q-38 0 -68 -2t-41 -3l-11 -2zM401 1411q0 48 34 83t81 35t81 -35t34 -83t-33.5 -82t-81.5 -34q-23 0 -44.5 9t-37 25t-24.5 37.5t-9 44.5z" />
<glyph unicode="&#xe084;" horiz-adv-x="1311" d="M94 541q0 181 66.5 319.5t195.5 217t303 78.5q122 0 226 -42.5t177.5 -118t115 -184.5t41.5 -239q0 -128 -38.5 -237t-110.5 -189t-183 -125t-249 -45q-115 0 -215.5 41.5t-173 115t-114 179.5t-41.5 229zM314 570q0 -224 99.5 -357.5t259.5 -133.5q99 0 171.5 51.5 t112.5 155.5t40 253q0 96 -18.5 179t-51 144t-77.5 104t-98.5 64.5t-113.5 21.5q-63 0 -120 -29.5t-103 -86.5t-73.5 -151.5t-27.5 -214.5zM380 1273q33 36 55 60.5t52 60.5t53 65t48 63.5t46 67.5h123q80 -130 249 -317l-52 -35q-55 41 -93 70.5t-82.5 69.5t-84.5 82 q-112 -114 -264 -222z" />
<glyph unicode="&#xe086;" horiz-adv-x="1311" d="M94 541q0 181 66.5 319.5t195.5 217t303 78.5q122 0 226 -42.5t177.5 -118t115 -184.5t41.5 -239q0 -128 -38.5 -237t-110.5 -189t-183 -125t-249 -45q-115 0 -215.5 41.5t-173 115t-114 179.5t-41.5 229zM314 570q0 -224 99.5 -357.5t259.5 -133.5q99 0 171.5 51.5 t112.5 155.5t40 253q0 96 -18.5 179t-51 144t-77.5 104t-98.5 64.5t-113.5 21.5q-63 0 -120 -29.5t-103 -86.5t-73.5 -151.5t-27.5 -214.5zM335 1405q0 48 34 83.5t81 35.5t81 -35.5t34 -83.5t-33.5 -81.5t-81.5 -33.5t-81.5 33.5t-33.5 81.5zM750 1405q0 48 34 83.5 t81.5 35.5t81 -35.5t33.5 -83.5q0 -31 -15 -57.5t-42 -42t-58 -15.5q-48 0 -81.5 33.5t-33.5 81.5z" />
<glyph unicode="&#xe087;" horiz-adv-x="1780" d="M71 521q0 128 43.5 241t122 196.5t194.5 131.5t254 48q2 0 20 -1t44.5 -2t57.5 -2t65.5 -2t61.5 -1h499q88 0 147 8l5 -8q-5 -69 -5 -75q0 -13 5 -52l-5 -11q-22 4 -64 9t-179.5 13t-284.5 8q-10 -37 -15 -151.5t-5 -182.5v-46q132 0 194 3t117.5 10.5t96.5 10.5l7 -7 q-7 -33 -7 -69q0 -37 7 -69l-7 -7q-254 25 -408 25v-96q0 -67 5 -176t15 -147q92 0 183 3t154.5 7.5t114 9t75.5 7.5l25 3l5 -10q-5 -38 -5 -76q0 -11 1 -18.5t2 -19.5t2 -26l-5 -7q-59 7 -147 7h-523q-55 0 -143 -3.5t-103 -3.5q-190 0 -328 59.5t-213.5 179t-75.5 289.5z M288 551q0 -125 32.5 -219t91.5 -151.5t137.5 -86t175.5 -28.5q62 0 83.5 18.5t21.5 63.5v840q0 18 -4.5 31t-15.5 21.5t-24 14t-34.5 8t-41 3.5t-49.5 1q-57 0 -110 -18t-101 -58t-84 -99t-57 -146.5t-21 -194.5z" />
<glyph unicode="&#xe089;" horiz-adv-x="1328" d="M187 1130l3 8q36 -8 122 -8q37 0 69.5 2t45.5 4l13 2l5 -8q-15 -99 -20 -195t-5 -247v-191q0 -75 6 -132t24.5 -113t49 -92t82 -58.5t121.5 -22.5q56 0 101.5 14t78 38t57 58.5t39.5 72t24 82.5t12 86.5t3 87.5l-3 170q0 287 -25 442l2 8q70 -8 94 -8l82 8l4 -8 q-15 -99 -20 -195t-5 -247v-137q0 -107 -14 -191.5t-48 -158t-88.5 -122t-139 -76t-196.5 -27.5q-450 0 -450 420v292q0 101 -1.5 166t-6.5 139t-16 137zM457 1564l5 26q75 56 160 56q18 0 37 -4l171 -310q16 -31 16 -59q0 -9 -11.5 -18t-25.5 -9q-20 0 -72 49z" />
<glyph unicode="&#xe08b;" horiz-adv-x="1328" d="M187 1130l3 8q36 -8 122 -8q37 0 69.5 2t45.5 4l13 2l5 -8q-15 -99 -20 -195t-5 -247v-191q0 -75 6 -132t24.5 -113t49 -92t82 -58.5t121.5 -22.5q56 0 101.5 14t78 38t57 58.5t39.5 72t24 82.5t12 86.5t3 87.5l-3 170q0 287 -25 442l2 8q70 -8 94 -8l82 8l4 -8 q-15 -99 -20 -195t-5 -247v-137q0 -107 -14 -191.5t-48 -158t-88.5 -122t-139 -76t-196.5 -27.5q-450 0 -450 420v292q0 101 -1.5 166t-6.5 139t-16 137zM418 1271q55 62 91 103t82.5 101t79.5 113h123q83 -135 248 -317l-52 -35q-57 42 -93 70t-82 68.5t-85 82.5 q-111 -114 -263 -221z" />
<glyph unicode="&#xe08c;" horiz-adv-x="1328" d="M187 1130l3 8q36 -8 122 -8q37 0 69.5 2t45.5 4l13 2l5 -8q-15 -99 -20 -195t-5 -247v-191q0 -75 6 -132t24.5 -113t49 -92t82 -58.5t121.5 -22.5q56 0 101.5 14t78 38t57 58.5t39.5 72t24 82.5t12 86.5t3 87.5l-3 170q0 287 -25 442l2 8q70 -8 94 -8l82 8l4 -8 q-15 -99 -20 -195t-5 -247v-137q0 -107 -14 -191.5t-48 -158t-88.5 -122t-139 -76t-196.5 -27.5q-450 0 -450 420v292q0 101 -1.5 166t-6.5 139t-16 137zM386 1411q0 32 15.5 59t42 43t58 16t58 -16t42 -43t15.5 -59q0 -48 -34 -82t-81.5 -34t-81.5 34t-34 82zM802 1411 q0 48 33.5 83t81 35t81.5 -35t34 -83t-34 -82t-81 -34q-31 0 -58 15.5t-42 42.5t-15 58z" />
<glyph unicode="&#xe08f;" horiz-adv-x="1048" d="M-2 1129l7 9q48 -8 140 -8q82 0 127 8q137 -272 286 -509q60 95 99.5 162t90 164.5t82.5 182.5q33 -8 101 -8q57 0 89 8q-51 -79 -134 -204.5t-118 -179.5t-76.5 -122.5t-67.5 -117.5q3 -402 14 -521q-41 7 -112 7t-116 -7q12 110 12 507q-73 138 -197 316.5t-227 312.5z M265 1405q0 48 34 83.5t81 35.5q32 0 58.5 -16.5t42.5 -43.5t16 -59q0 -47 -34.5 -81t-82 -34t-81.5 33.5t-34 81.5zM680 1405q0 48 34.5 83.5t82 35.5t81.5 -35.5t34 -83.5t-33.5 -81.5t-81.5 -33.5t-82.5 34t-34.5 81z" />
<glyph unicode="&#xe092;" horiz-adv-x="1332" d="M155 0q25 163 25 440v144q0 76 8.5 140.5t27.5 123.5t49.5 106t75 85t102.5 63.5t134 39.5t168 14q84 0 209.5 -19t198.5 -44v-38l-266 -384q-1 -1 -3 -5t-3 -7.5t-1 -4.5q0 -10 12 -10q105 -4 183 -50.5t116 -117.5t38 -157q0 -64 -30.5 -126t-83 -110t-128.5 -77.5 t-161 -29.5q-56 0 -119.5 15.5t-99 29.5t-49.5 23l-2 8q9 16 16.5 34t10.5 28t9.5 38.5t9.5 41.5l27 3q23 -42 85 -86.5t112 -44.5q29 0 54.5 5.5t52.5 22t46 42.5t31 71.5t12 104.5q0 11 -1.5 23.5t-5 30t-10.5 35t-16.5 37t-23.5 37.5t-31.5 35.5t-41.5 32t-52 25 t-64.5 16.5t-77.5 6q-2 0 -32 -6l-10 45q88 116 172 240.5t84 152.5q0 20 -68.5 33.5t-133.5 13.5q-81 0 -140 -22t-102.5 -72t-65.5 -136.5t-22 -209.5v-184q0 -148 5.5 -245.5t20.5 -199.5l-5 -7q-38 7 -121 7q-39 0 -69.5 -2t-41.5 -3l-12 -2z" />
<glyph unicode="&#xe0b6;" horiz-adv-x="614" d="M185 0q10 64 15.5 135.5t7 136.5t1.5 168v250q0 151 -4.5 249.5t-19.5 190.5l2 8q34 -8 120 -8q38 0 67 2t40 4l11 2l5 -8q-14 -110 -19 -203.5t-5 -236.5v-250q0 -104 1 -168t6.5 -134t16.5 -138l-5 -7q-34 7 -118 7q-38 0 -68 -2t-41 -3l-11 -2zM185 1468 q0 49 37.5 86.5t87 37.5t87 -37.5t37.5 -87t-37.5 -87.5t-86.5 -38q-33 0 -62 17.5t-46 46.5t-17 62z" />
<glyph unicode="&#xe0c0;" horiz-adv-x="729" d="M84 1044q0 78 71 140q69 64 180 92l132 32q7 2 7 17q0 157 -106 157q-103 0 -171 -120h-35l-29 115l5 5q92 82 245 82q129 0 199 -63q60 -54 60 -183l-6 -300q0 -36 25 -47q16 -10 69 -10q13 -12 15 -32q-67 -49 -150 -49q-99 0 -121 88h-5q-99 -88 -192 -88 q-82 0 -137 42q-56 47 -56 122zM265 1057q0 -33 18 -60q21 -26 54 -26q61 0 113 51q22 22 22 69l2 143l-120 -33q-59 -18 -77 -56q-12 -26 -12 -88z" />
<glyph unicode="&#xe0c1;" horiz-adv-x="844" d="M160 1772l2 3q73 5 167 44q13 0 13 -13q-13 -111 -13 -251v-152q96 74 175 74q103 0 174 -66q72 -66 72 -194q0 -158 -106 -251q-93 -84 -214 -84q-97 0 -150 70q-48 -45 -66 -72q-30 0 -47 12q5 30 5 98v534q0 178 -12 248zM329 1015q25 -66 114 -66q53 0 98 64 q49 73 49 176q0 204 -126 204q-64 0 -135 -51v-327z" />
<glyph unicode="&#xe0c2;" horiz-adv-x="746" d="M103 1201q0 176 94 271q87 92 246 92q129 0 225 -50l5 -6l-37 -146l-26 -2q-61 124 -153 124q-79 0 -126 -61q-45 -65 -45 -182q0 -112 49 -192q48 -83 122 -83q119 0 172 64h25q0 -35 7 -69q-100 -81 -243 -81q-141 0 -233 96q-82 92 -82 225z" />
<glyph unicode="&#xe0c3;" horiz-adv-x="854" d="M108 1163q0 154 113 242q90 70 222 70q41 0 96 -30v77q0 171 -13 248l2 2q78 6 168 44q12 0 12 -12q-12 -102 -12 -251v-406q0 -132 22 -253l-3 -5q-24 5 -84 5q-42 0 -71 -5q-12 0 -12 5l-7 84h-2q-100 -98 -190 -98q-110 0 -177 81q-64 77 -64 202zM265 1184 q0 -216 133 -216q78 0 141 81v276q-48 78 -126 78q-148 0 -148 -219z" />
<glyph unicode="&#xe0c4;" horiz-adv-x="763" d="M66 1226q0 164 101 270q92 96 209 96q142 0 217 -88q63 -80 63 -200q0 -26 -27 -26h-385q0 -265 164 -265q146 0 214 73q32 -18 32 -52q-93 -124 -276 -124q-158 0 -240 96q-72 86 -72 220zM246 1346h204q22 0 22 35q0 138 -96 138q-43 0 -78 -37q-41 -46 -52 -136z" />
<glyph unicode="&#xe0c5;" horiz-adv-x="535" d="M54 1409v26q0 25 30 25h64v39q0 132 91 227q86 90 235 90q42 0 59 -12l2 -3q-9 -12 -17 -63l-14 -71h-25q-34 59 -71 59q-110 0 -110 -126v-12t1 -22.5t1 -27.5q5 -41 5 -63v-15h143q9 0 9 -8v-34q0 -18 -30 -18h-122v-242q0 -187 9 -264l-2 -5q-37 5 -86 5q-50 0 -86 -5 l-2 5q10 59 10 264v242h-87q-7 0 -7 9z" />
<glyph unicode="&#xe0c6;" horiz-adv-x="844" d="M79 708q0 76 34 120q16 9 51 32l47 32q-98 26 -98 118q0 70 110 137l-41 28q-76 64 -76 157q0 108 79 169q77 63 201 63q63 0 106 -14q71 4 150 5q14 1 30 2t27.5 2l23 2t21.5 1.5t18 1.5l5 -6q-5 -18 -5 -44q0 -22 5 -39l-5 -5l-152 12q75 -52 75 -148q0 -103 -75 -164 q-79 -59 -212 -59q-66 0 -118 22q-20 -33 -20 -73q0 -75 87 -75l29 5q59 7 96 7q309 0 309 -203q0 -116 -147 -192q-131 -67 -292 -67q-98 0 -173 37q-90 46 -90 136zM228 739q0 -68 60 -108q43 -31 95 -31q100 0 161 44q63 46 63 116q0 110 -189 110h-106q-8 1 -32 5 q-52 -54 -52 -136zM283 1354q0 -182 115 -182q47 0 76 35q35 40 35 113q0 184 -126 184q-100 0 -100 -150z" />
<glyph unicode="&#xe0ca;" horiz-adv-x="810" d="M174 894q13 85 13 264v364q0 171 -13 248l2 2q78 6 168 44q12 0 12 -12q-12 -102 -12 -251v-339q28 6 45 17q101 80 204 229q147 0 169 5l2 -5q-24 -22 -246 -250q160 -195 276 -316l-3 -5q-18 5 -113 5q-75 0 -106 -5q-145 205 -204 267q-12 8 -24 9v-7q0 -180 12 -264 l-2 -5q-37 5 -89 5t-89 -5z" />
<glyph unicode="&#xe0cc;" horiz-adv-x="1390" d="M172 894q15 111 15 276v83q0 179 -15 269l2 4q112 7 190 38q14 0 14 -16q-3 -18 -8.5 -62.5t-8.5 -62.5l5 -5q114 146 224 146q134 0 186 -126q121 126 227 126q211 0 211 -244v-150q0 -175 17 -276l-5 -5q-43 5 -100 5q-60 0 -104 -5l-2 5q14 103 14 276v140 q0 135 -82 135q-77 0 -166 -96v-47v-132q0 -168 18 -276l-5 -5q-40 5 -96 5q-57 0 -103 -5l-2 5q16 96 16 276v152q0 75 -24 101q-19 22 -67 22q-57 0 -157 -120v-155q0 -175 17 -276l-5 -5q-43 5 -101 5q-60 0 -103 -5z" />
<glyph unicode="&#xe0ce;" horiz-adv-x="882" d="M98 1236q0 161 94.5 258.5t252.5 97.5q156 0 247.5 -92.5t91.5 -249.5q0 -147 -97 -243.5t-246.5 -96.5t-246 90.5t-96.5 235.5zM280 1271q0 -142 47 -216.5t135 -74.5q65 0 101.5 59.5t36.5 170.5q0 59 -3 101t-13.5 84.5t-28 68t-49 42t-74.5 16.5q-45 0 -76 -18.5 t-47 -54t-22.5 -78t-6.5 -100.5z" />
<glyph unicode="&#xe0cf;" horiz-adv-x="962" d="M172 541q15 104 15 305v404q0 178 -15 272l2 2q116 11 190 40q14 0 14 -16q-11 -66 -15 -95.5t-2 -29.5l7 -5q95 146 216 146q103 0 173 -56q108 -88 108 -258q0 -156 -103 -265q-100 -105 -241 -105q-92 0 -160 42v-76q0 -204 15 -305l-3 -6q-52 6 -98 6q-49 0 -101 -6z M361 1025q83 -69 162 -69q76 0 115 74q35 69 35 182q0 235 -138 235q-42 0 -92 -38q-57 -42 -82 -101v-283z" />
<glyph unicode="&#xe0d0;" horiz-adv-x="948" d="M96 1207q0 144 113 250q110 101 253 101q131 0 199 -62l22 38q19 30 49 30q35 0 35 -38v-684q0 -200 14 -301l-2 -6q-52 6 -99 6q-48 0 -100 -6l-3 6q16 104 16 301v92q-80 -57 -183 -57q-150 0 -225 77q-89 100 -89 253zM295 1236q0 -263 181 -263q65 0 117 40v361 q-62 103 -150 103q-148 0 -148 -241z" />
<glyph unicode="&#xe0d3;" horiz-adv-x="544" d="M28 1499q0 16 9 32q10 17 22 17h89q0 96 -10 152l2 5q6 1 177 70q12 0 12 -16q-7 -110 -7 -211h162q13 0 13 -10v-42q0 -19 -35 -19h-140l-3 -169q-2 -108 -2 -215q0 -125 56 -125q54 0 89 20q28 -19 28 -50q-81 -58 -204 -58q-71 0 -112 46q-36 45 -36 101l10 450h-101 q-19 0 -19 22z" />
<glyph unicode="&#xe0d4;" horiz-adv-x="982" d="M160 1548l2 5q43 -5 101 -5t98 5l3 -5q-5 -24 -12 -272l-3 -138q-2 -141 85 -141q59 0 112 45q61 48 61 111v123q0 190 -12 272l3 5q41 -5 98 -5q60 0 103 5v-5q-13 -85 -13 -272v-89q0 -153 25 -293l-2 -5q-26 5 -96 5q-52 0 -84 -5q-12 0 -12 5l-7 98h-3 q-105 -112 -227 -112q-105 0 -162 63q-51 55 -49 143l3 190q1 130 -12 272z" />
<glyph unicode="&#xe0d5;" horiz-adv-x="812" d="M49 1553q23 -5 103 -5q93 0 111 5q98 -307 175 -491h5q49 110 183 491q13 -5 68 -5q59 0 70 5q-191 -405 -295 -664q-13 5 -63 5q-72 0 -84 -5q-159 420 -273 664z" />
<glyph unicode="&#xe0d9;" horiz-adv-x="729" d="M52 905q24 24 32 36l348 516q-192 -6 -322 -17l-4 5q4 22 4 51l-4 50l4 4q29 -4 84 -4h354q33 0 76 4l47 5q7 0 7 -9q-12 -14 -44 -64l-339 -499q155 1 371 18l2 -6q-2 -34 -2 -54l2 -49l-2 -3q-46 3 -86 3h-344q-12 0 -35.5 -0.5t-67 -1t-79.5 -1.5z" />
<glyph unicode="&#xe0e0;" horiz-adv-x="793" d="M47 959q33 51 54 101q32 -5 143 -5v95q0 146 16.5 219.5t70.5 156.5q63 97 143.5 143.5t193.5 46.5q34 0 71 -8t52 -17l3 -7q-31 -95 -44 -202l-28 -2q-22 39 -63 65t-91 26q-41 0 -69 -18t-44 -53.5t-23 -80.5t-7 -106q0 -17 7.5 -102t7.5 -135v-21h128q25 0 56.5 1 t66 2t48.5 2l13 -18q-21 -54 -30 -101q-43 5 -176 5h-106v-456q0 -325 24 -490l-4 -7q-45 7 -118 7q-74 0 -119 -7l-5 7q26 163 26 490v456h-3q-123 0 -182 -5z" />
<glyph unicode="&#xe0eb;" horiz-adv-x="1536" d="M42 1538v47l5 3q214 -3 309 -3l317 3l5 -3v-47q0 -19 -19 -19h-64q-49 0 -79.5 -13t-43 -36t-12.5 -59v-519q53 0 103 25t89 63l378 359q37 35 64 75t27 68q0 37 -54 37h-79q-20 0 -20 19v47l5 3q195 -3 291 -3l255 3l5 -3v-47q0 -19 -20 -19h-44q-35 0 -72 -13 t-73.5 -38.5t-61.5 -46t-59 -52.5l-484 -471l396 -532q87 -121 217 -245t225 -165l-22 -62q-83 3 -149.5 19t-126.5 47.5t-122 89.5t-123.5 131t-144.5 185l-253 347q-22 40 -54 59t-93 19v-615q0 -28 7 -48.5t23.5 -34.5t42 -20.5t62.5 -6.5h64q5 0 9 -2t7 -6.5t3 -10.5 v-47l-5 -5q-211 5 -309 5l-315 -5l-5 5v47q0 9 5 14t12 5h66q72 0 102.5 28t30.5 82v1235q0 56 -31 82t-102 26h-66q-7 0 -13 5.5t-6 13.5z" />
<glyph unicode="&#xe0ec;" horiz-adv-x="1410" d="M42 0v47q0 19 19 19h64q72 0 103.5 28t31.5 82v1235q0 59 -14 86t-59 27q-13 0 -18 -2l-73 -8q-9 0 -14.5 5t-5.5 12v47q21 6 120.5 14t174.5 10q105 5 276 5q68 0 120 -4t113.5 -15.5t115 -37.5t95.5 -66q131 -123 131 -307q0 -196 -176 -342q-77 -64 -162 -90l281 -541 q42 -81 84 -145t80.5 -106.5t75 -72t72 -44.5t65 -21.5t60.5 -6.5l10 -49q-70 -29 -142 -29q-262 0 -492 427l-270 509q-5 9 -31.5 16t-82.5 11.5t-134 4.5v-522q0 -37 13 -61t42.5 -36.5t77.5 -12.5h66q5 0 9 -2t7 -6.5t3 -10.5v-47l-5 -2q-214 2 -309 2l-317 -2zM460 791 h122q273 0 361 126q79 116 79 258q0 183 -100 275q-12 11 -29 23t-47.5 28.5t-75.5 26.5t-97 10q-123 0 -213 -19v-728z" />
<glyph unicode="&#xe0ed;" horiz-adv-x="1016" d="M106 1388q0 32 8.5 62.5t30.5 61t54 54t82 38t113 14.5q48 0 109 -27.5t137.5 -72.5t111.5 -61q0 35 10.5 70t37.5 63t65 28q30 0 51.5 -8t32 -21t15 -26t4.5 -27q0 -38 -34.5 -76.5t-91.5 -83.5v-88q0 -116 4 -241t10 -163q5 -37 28.5 -48.5t91.5 -17.5l2 -61l-127 -12 v-405q0 -174 -22 -313t-62 -235.5t-97.5 -160.5t-126.5 -93.5t-152 -29.5q-63 0 -123 21t-98.5 58.5t-38.5 81.5q0 20 6.5 38t25 31.5t46.5 13.5q37 0 63 -12t37.5 -29.5t22 -37.5t17.5 -37.5t22.5 -29.5t38.5 -12q56 0 98.5 28.5t81.5 97.5q83 143 76 456q0 26 -2.5 158 t-2.5 168v240l-302 22l-5 50l312 16v30q2 188 12.5 271.5t51.5 214.5l-3 10q-13 -10 -39 -10q-37 0 -82.5 18t-88.5 43t-85.5 50t-87 42.5t-79.5 17.5q-36 0 -58 -19t-22 -44q0 -10 10 -21t24.5 -22.5t29 -24.5t24.5 -32.5t10 -43.5q0 -57 -69 -57q-31 0 -53.5 14t-33.5 36 t-16 43t-5 42z" />
<glyph unicode="&#xe118;" d="M89 539q0 118 37.5 219.5t102.5 171.5t153 109.5t188 39.5q233 0 359 -140t126 -400q0 -132 -35.5 -239t-100 -177.5t-153.5 -108.5t-196 -38q-103 0 -191 37.5t-152.5 108t-101 177.5t-36.5 240zM286 539q0 -106 16 -188t50 -142t89 -91.5t129 -31.5q65 0 114.5 21 t82.5 58.5t53.5 94.5t29 125t8.5 154q0 213 -68.5 320t-219.5 107q-136 0 -210 -107t-74 -320z" />
<glyph unicode="&#xe119;" d="M307 959q161 36 235 56.5t206 63.5q6 0 8.5 -0.5t5 -3.5t2.5 -8q-19 -139 -19 -399v-204q0 -274 22 -464l-5 -7q-74 7 -124 7q-19 0 -46 -2t-44 -3l-18 -2l-2 7q20 170 20 464v251v45.5t-1 42t-4 40.5t-7.5 30t-12.5 22.5t-19 6.5q-48 0 -192 -15z" />
<glyph unicode="&#xe11a;" d="M145 0v28l303 270q84 76 137 129.5t94.5 109.5t59.5 107.5t18 107.5q0 53 -9.5 93t-31 73.5t-62 51.5t-98.5 18q-178 0 -288 -243l-36 3l-72 169l1 1q31 28 50 43.5t60.5 42.5t80.5 41.5t99 26.5t126 12q84 0 152.5 -15t116 -41.5t79.5 -64t47.5 -82.5t15.5 -97 q0 -172 -191 -334l-330 -293h96q79 0 133.5 0.5t101.5 3t68 4t74.5 5.5t79.5 6q-12 -54 -12 -94t12 -94q-57 2 -121 5t-95 4t-85 2t-126 1h-448z" />
<glyph unicode="&#xe11b;" d="M76 -319l55 183l36 3q2 -5 6 -13q12 -26 18 -38.5t17 -34t18 -31t18.5 -25.5t22 -23.5t25.5 -18t31 -15t36 -9.5t44 -6.5t52 -1.5q21 0 45.5 3.5t56.5 14t61.5 27t59 44t51 63t34.5 87t13 112.5q0 74 -24.5 135.5t-71.5 101.5q-48 40 -111.5 59t-128.5 19q-73 0 -103 -5 v108q52 -7 90 -7q132 0 204 68q94 90 94 241q0 58 -18.5 108t-48 83t-65.5 51.5t-72 18.5q-107 0 -173 -51t-112 -158l-37 2l-51 158l7 7q26 23 61 44.5t84 44t112.5 36t131.5 13.5q89 0 164 -25t125 -68.5t77.5 -101.5t27.5 -124q0 -73 -27 -140t-70 -114.5t-93 -79.5 t-99 -43v-12q95 -9 171.5 -54.5t122 -122.5t45.5 -172q0 -78 -25.5 -147t-68 -119t-97 -89t-115.5 -63t-119.5 -36.5t-112.5 -12.5q-226 0 -366 119z" />
<glyph unicode="&#xe11c;" d="M84 47q0 38 31 92q94 156 306.5 466.5t326.5 461.5q0 1 2 3.5t5 4.5l2 1q43 -9 83 -9q21 0 44.5 4.5t32.5 4.5q5 0 5 -9q-15 -131 -15 -349v-600h157q18 0 28 -10.5t10 -27.5q0 -21 -24 -50.5t-48 -29.5h-123q0 -212 15 -418q0 -7 -5 -7q-9 0 -35.5 3.5t-48.5 3.5 q-18 0 -46.5 -1.5t-48.5 -3.5l-20 -2l-3 7q19 160 19 418h-506q-144 0 -144 47zM236 118h498v741z" />
<glyph unicode="&#xe11d;" d="M133 -300l54 197l34 2q8 -15 22.5 -42t22 -40.5t20.5 -35.5t21.5 -32.5t23 -27t27 -24.5t30.5 -18t36.5 -14.5t42.5 -8t51 -3.5q127 0 204 99t77 267q0 193 -78.5 294.5t-204.5 101.5q-53 0 -110 -12t-94.5 -25t-100.5 -38l-17 6l78 723q168 -14 281 -14q203 0 403 24 l17 -7l-39 -167q-131 -16 -258 -16q-139 0 -312 23l-52 -436q42 15 118.5 26.5t149.5 11.5q100 0 183.5 -37t137.5 -100t84 -144.5t30 -171.5q0 -107 -37.5 -201t-103 -161t-159 -105.5t-201.5 -38.5q-215 0 -371 138z" />
<glyph unicode="&#xe11e;" d="M101 595q0 184 65.5 351.5t197.5 299.5q123 124 264.5 183t335.5 70l7 -69q-89 -8 -160.5 -27.5t-141 -58t-130.5 -96.5q-91 -89 -152.5 -217t-81.5 -281q43 53 131 90t164 37q79 0 145 -18t111.5 -47.5t80.5 -69.5t55.5 -80t34 -83.5t18 -76.5t4.5 -62q0 -34 -5.5 -70 t-16.5 -76t-30 -78t-44.5 -74t-62 -66t-80 -52.5t-101 -35t-122.5 -12.5q-30 0 -60 3.5t-63.5 11.5t-65.5 21.5t-64.5 32.5t-61 47t-55 62t-47.5 80t-36.5 99t-24 120t-8.5 142zM298 587q0 -91 10.5 -167t28.5 -129t44 -94t53.5 -65.5t60 -40.5t61 -21.5t58.5 -5.5 q47 0 84.5 18.5t68.5 58.5t48.5 112t17.5 169q0 29 -2.5 58t-10.5 65.5t-20.5 68t-35 62.5t-51 53t-71 36t-94.5 14q-28 0 -49.5 -2.5t-57 -11t-71.5 -30.5t-70 -57q-2 -24 -2 -91z" />
<glyph unicode="&#xe11f;" d="M157 856q12 93 12 120q0 16 -1.5 32t-5 38t-5.5 33q123 -17 689 -17q83 0 157 24l41 -24q-98 -239 -176.5 -441.5t-154.5 -418.5t-106 -304t-113 -332l-180 -11l-7 15q156 349 513 1231q20 51 31 76q-106 6 -339.5 1t-354.5 -22z" />
<glyph unicode="&#xe120;" d="M101 359q0 72 43 150t119 145q78 69 171 140l-48 27q-105 61 -161 149.5t-56 192.5q0 94 54.5 170.5t152.5 121t222 44.5q178 0 281.5 -86t103.5 -221q0 -45 -20.5 -91t-48.5 -81t-72 -73.5t-75 -61t-73 -50.5l148 -98q70 -46 116.5 -96t72.5 -111.5t26 -131.5 q0 -57 -20 -115.5t-62 -113t-100 -97t-140 -68.5t-175 -26q-98 0 -181.5 24.5t-145.5 71.5t-97 120t-35 165zM293 359q0 -53 12 -98.5t33.5 -77.5t48.5 -56.5t58 -39t61 -21.5t59 -7q38 0 74 6.5t76 26t69.5 50.5t49 83.5t19.5 121.5q0 182 -217 319l-113 71 q-60 -40 -104.5 -86.5t-68 -86t-37 -82t-17 -69.5t-3.5 -54zM354 1207q0 -33 5.5 -60.5t22 -63t52.5 -72.5t92 -73l76 -44q31 22 61 50t63.5 67.5t54.5 87.5t21 95q0 45 -12.5 84t-37.5 71t-68.5 50.5t-101.5 18.5q-107 0 -167.5 -60t-60.5 -151z" />
<glyph unicode="&#xe121;" d="M94 614q0 40 6.5 81.5t22 88t39.5 88t61.5 80t83.5 66.5t110 44.5t139 16.5q43 0 86 -7t92.5 -26t92.5 -48.5t83 -78t68.5 -111t46 -152t17.5 -196.5q0 -185 -66 -352.5t-197 -299.5q-123 -125 -264.5 -183.5t-334.5 -69.5l-8 69q135 14 239.5 55t193.5 127 q90 88 151 216.5t82 282.5q-29 -36 -80 -65.5t-108 -46.5t-106 -17q-79 0 -145.5 18.5t-112 48t-80.5 69.5t-56 80.5t-34 84t-17.5 76.5t-4.5 61zM310 631q0 -29 2.5 -57.5t10.5 -65t20.5 -68t35 -63t51.5 -53.5t71.5 -35.5t93.5 -13.5q28 0 49.5 2t56.5 10.5t71.5 31 t69.5 57.5q4 36 4 91q0 91 -11 166.5t-29 128.5t-44 94t-53.5 66t-60 40.5t-61.5 21.5t-59 6q-46 0 -84 -18.5t-69 -59t-48 -112t-17 -169.5z" />
<glyph unicode="&#xe149;" horiz-adv-x="844" d="M160 631l2 3q73 5 167 44q13 0 13 -12q-13 -111 -13 -251v-152q96 74 175 74q101 0 174 -67q72 -67 72 -194q0 -157 -106 -250q-93 -84 -214 -84q-98 0 -150 68q-50 -46 -66 -70q-30 0 -47 12q5 30 5 98v533q0 178 -12 248zM329 -125q25 -67 114 -67q52 0 98 65 q49 73 49 176q0 204 -126 204q-64 0 -135 -51v-327z" />
<glyph unicode="&#xe14a;" horiz-adv-x="746" d="M103 61q0 175 94 270q87 91 246 91q129 0 225 -49l5 -5l-37 -147l-26 -3q-62 126 -153 126q-79 0 -126 -61q-45 -65 -45 -182q0 -112 49 -192q48 -83 122 -83q119 0 172 64h25q0 -36 7 -70q-98 -80 -243 -80q-141 0 -233 96q-82 92 -82 225z" />
<glyph unicode="&#xe14b;" horiz-adv-x="854" d="M108 22q0 155 113 243q90 70 222 70q41 0 96 -30v75q0 171 -13 249l2 2q74 6 168 45q12 0 12 -12q-12 -102 -12 -251v-406q0 -132 22 -253l-3 -5q-24 5 -84 5q-42 0 -71 -5q-12 0 -12 5l-7 84h-2q-100 -98 -190 -98q-111 0 -177 80q-64 76 -64 202zM265 44 q0 -216 133 -216q78 0 141 81v276q-48 78 -126 78q-148 0 -148 -219z" />
<glyph unicode="&#xe14d;" horiz-adv-x="535" d="M54 268v27q0 24 30 24h64v40q0 131 91 225q87 92 235 92q42 0 59 -12l2 -3q-9 -12 -17 -63l-14 -72h-25q-34 58 -71 58q-110 0 -110 -124v-12t1 -22.5t1 -27.5q5 -41 5 -63v-16h143q9 0 9 -7v-35q0 -17 -30 -17h-122v-243q0 -186 9 -263l-2 -5q-37 5 -86 5q-50 0 -86 -5 l-2 5q10 59 10 263v243h-87q-7 0 -7 8z" />
<glyph unicode="&#xe14e;" horiz-adv-x="844" d="M79 -432q0 76 34 120q16 9 51 32l47 32q-98 26 -98 117q0 71 110 138l-41 28q-76 64 -76 157q0 108 79 169q75 61 201 61q67 0 106 -12q71 4 150 5q80 6 120 7l5 -4q-5 -18 -5 -45q0 -21 5 -38l-5 -6l-152 13q75 -52 75 -148q0 -103 -75 -164q-80 -60 -212 -60 q-63 0 -118 23q-20 -33 -20 -75q0 -73 87 -73l29 5q59 7 96 7q309 0 309 -204q0 -116 -147 -192q-129 -66 -292 -66q-98 0 -173 37q-90 46 -90 136zM228 -401q0 -68 60 -108q45 -32 95 -32q100 0 161 44q63 46 63 117q0 110 -189 110h-106q-8 1 -32 5q-52 -54 -52 -136z M283 214q0 -182 115 -182q48 0 76 34q35 40 35 114q0 184 -126 184q-100 0 -100 -150z" />
<glyph unicode="&#xe14f;" horiz-adv-x="823" d="M187 -275q12 77 12 235v392q0 178 -12 248l3 2q73 6 166 45q12 0 12 -13q-12 -102 -12 -251v-81l-4 -120l4 -2q98 125 200 125q178 0 178 -197v-148q0 -148 14 -235l-3 -5q-40 5 -89 5q-52 0 -84 -5l-2 5q7 69 7 235v119q0 123 -68 123q-72 0 -153 -106v-136 q0 -147 8 -235l-3 -5q-32 5 -84 5q-51 0 -87 -5z" />
<glyph unicode="&#xe150;" horiz-adv-x="598" d="M197 -246q14 103 14 276v83q0 186 -14 267l2 6q123 8 195 36q14 0 14 -14q-14 -115 -14 -270v-108q0 -168 14 -276l-2 -5q-47 5 -104 5q-60 0 -103 -5zM204 656q0 41 30 69q28 30 68.5 30t68.5 -30q30 -28 30 -69t-30 -69q-27 -29 -68.5 -29t-68.5 29q-30 28 -30 69z" />
<glyph unicode="&#xe151;" horiz-adv-x="687" d="M54 -580q7 15 14 74q6 67 11 81h29q40 -69 91 -69q50 0 76 30q27 35 27 120l-2 58q-2 89 -2 166v209q0 183 -15 263l5 4q118 11 188 38q16 0 16 -16q-18 -113 -18 -265v-334q0 -192 -61 -281q-67 -96 -270 -96q-66 0 -87 14zM290 626q0 44 27 70q29 29 69 29q42 0 71 -29 q27 -26 27 -70q0 -40 -27 -68q-29 -28 -71 -28q-40 0 -69 28q-27 28 -27 68z" />
<glyph unicode="&#xe152;" horiz-adv-x="781" d="M118 -275q15 106 15 305v287q0 203 -15 285l2 5q21 2 43 7t34 9t34.5 12.5t28.5 11.5q15 0 15 -16q-17 -131 -17 -287v-258q20 0 49 22q45 34 115.5 115t121.5 155q129 0 159 5l3 -5q-44 -38 -97 -90.5t-118.5 -123t-70.5 -75.5q119 -143 178 -211t139 -153l-3 -5 q-28 5 -96 5q-51 0 -99 -5q-31 43 -67.5 96.5t-55.5 80.5t-49 64t-65 74q-14 12 -44 12v-17q0 -184 17 -305l-5 -5q-22 5 -73 5q-24 0 -44 -1t-28 -2l-7 -2v5z" />
<glyph unicode="&#xe153;" horiz-adv-x="554" d="M187 -275q12 77 12 263v364q0 178 -12 248l3 2q73 6 166 45q12 0 12 -13q-12 -102 -12 -251v-395q0 -179 12 -263l-2 -5q-37 5 -89 5q-51 0 -87 -5z" />
<glyph unicode="&#xe154;" horiz-adv-x="1191" d="M110 -275q15 98 15 275v84q0 191 -15 268l3 4q21 2 41 6.5t31.5 8.5t30.5 11.5t28 11.5q14 0 14 -16l-14 -125l7 -5q33 36 54 56t52 44t62 35t65 11q63 0 108 -35t52 -87q64 68 116.5 95t114.5 27q48 0 82.5 -12.5t55 -33t32.5 -53t15.5 -65.5t3.5 -78v-152 q0 -154 17 -275l-5 -5q-19 5 -70 5q-24 0 -43.5 -1t-26.5 -2l-7 -2v5q14 98 14 275v169q0 51 -14 82t-40 43.5t-68 12.5q-46 0 -80 -18.5t-87 -77.5q2 -17 2 -59v-152q0 -171 15 -275l-3 -5q-21 5 -73 5q-24 0 -43 -1t-26 -2l-8 -2v5q15 98 15 275v167q0 49 -14.5 81.5 t-37.5 45.5t-54 13q-19 0 -39 -8.5t-47 -32t-42.5 -39t-52.5 -53.5v-174q0 -154 17 -275l-5 -5q-19 5 -71 5q-15 0 -28.5 -0.5t-22 -1t-14.5 -1.5t-9 -1l-3 -1v5z" />
<glyph unicode="&#xe155;" horiz-adv-x="783" d="M54 -275q11 77 14 132.5t3 152.5v54q0 211 -17 312l2 4q34 -3 80.5 -0.5t79.5 9.5q12 0 12 -21v-145l4 -5q92 110 139 144t103 34q63 0 105 -19.5t65.5 -60.5t33.5 -96.5t10 -135.5v-74q0 -38 0.5 -67.5t1 -47t3 -43.5t3.5 -35t5.5 -43.5t6.5 -48.5l-5 -8q-42 8 -93 8 q-50 0 -92 -8l-4 8q11 81 13.5 128.5t2.5 156.5v69q0 82 -10 123.5t-34 58t-71 16.5q-26 0 -46.5 -7.5t-43.5 -30t-42.5 -48t-54.5 -76.5v-105q0 -57 0.5 -90t3.5 -68.5t5 -53t9 -73.5l-5 -8q-42 8 -91 8q-52 0 -94 -8z" />
<glyph unicode="&#xe157;" horiz-adv-x="748" d="M110 352l3 4q21 2 41.5 6.5t32 8.5t32 12t27.5 11q12 0 12 -16l-12 -106h2q25 38 55.5 63.5t60.5 37.5t53 16.5t45 4.5q81 0 144.5 -48t95.5 -121.5t32 -156.5q0 -159 -93.5 -258.5t-242.5 -99.5q-93 0 -152 32v-66q0 -184 17 -305l-5 -5q-19 5 -71 5q-15 0 -28.5 -0.5 t-22 -1t-14.5 -1.5t-9 -1l-3 -1v5q15 98 15 305v408q0 191 -15 268zM246 -157q58 -66 143 -66q47 0 83 16.5t58 43t36 63t19 73t5 76.5q0 125 -48.5 196.5t-121.5 71.5q-43 0 -96.5 -37.5t-77.5 -94.5v-342z" />
<glyph unicode="&#xe158;" horiz-adv-x="756" d="M96 37q0 145 113 251q110 101 253 101q129 0 199 -63l22 38q19 30 49 30q35 0 35 -38v-682q0 -202 14 -303l-2 -5q-42 5 -99 5q-59 0 -100 -5l-3 5q16 104 16 303v90q-80 -57 -183 -57q-150 0 -225 77q-89 100 -89 253zM295 66q0 -263 181 -263q65 0 117 40v361 q-62 103 -150 103q-148 0 -148 -241z" />
<glyph unicode="&#xe159;" horiz-adv-x="692" d="M185 376l2 4q80 -1 184 14q12 0 12 -16v-115l6 -5q92 136 191 136q26 0 62 -11l7 -7l-32 -150l-12 -3q-38 30 -89 30q-34 0 -71 -27q-56 -40 -56 -116v-110q0 -174 17 -275l-5 -5q-50 5 -108 5q-59 0 -96 -5l-3 5q15 103 15 275v108q0 130 -24 268z" />
<glyph unicode="&#xe15a;" horiz-adv-x="678" d="M94 -248l24 145l30 2q63 -122 164 -122q113 0 113 105q0 44 -32 74.5t-95 48.5q-183 52 -183 201q0 79 75 134q73 54 178 54q116 0 188 -40l2 -5l-30 -138h-24q-54 113 -140 113q-99 0 -99 -88q0 -81 96 -103q223 -52 223 -222q0 -72 -68 -132q-81 -69 -216 -69 q-95 0 -206 42z" />
<glyph unicode="&#xe15b;" horiz-adv-x="505" d="M42 317v56q0 5 5 5h98q0 121 -9 185l2 5q21 1 39.5 5.5t29.5 9t27 11.5t26 11q8 0 11.5 -3t3.5 -12q-1 -12 -3 -33t-2.5 -28.5t-1.5 -23t-1.5 -25t-1 -26t-0.5 -34.5v-42h180q12 0 12 -10v-37q0 -10 -11.5 -14.5t-25.5 -4.5h-155v-218q0 -52 -1 -118t-1 -84q0 -51 10 -76 t39 -25q74 0 120 27l20 -36q-78 -72 -194 -72q-26 0 -48 9t-37.5 25t-24 38t-8.5 49q0 18 2.5 105.5t2.5 139.5v236h-96q-7 0 -7 5z" />
<glyph unicode="&#xe15c;" horiz-adv-x="982" d="M160 378l2 5q43 -5 101 -5t98 5l3 -5q-5 -24 -12 -272l-3 -138q-2 -140 85 -140q59 0 112 45q61 48 61 110v123q0 190 -12 272l3 5q41 -5 98 -5q60 0 103 5v-5q-13 -85 -13 -272v-89q0 -151 25 -292l-2 -5q-26 5 -96 5q-52 0 -84 -5q-12 0 -12 5l-7 99h-3 q-107 -114 -227 -114q-104 0 -162 64q-51 55 -49 142l3 190q1 130 -12 272z" />
<glyph unicode="&#xe15d;" horiz-adv-x="771" d="M49 383q23 -5 103 -5q93 0 111 5q98 -307 175 -491h5q49 110 183 491q13 -5 68 -5q59 0 70 5q-194 -412 -295 -663q-13 5 -63 5q-72 0 -84 -5q-157 413 -273 663z" />
<glyph unicode="&#xe15e;" horiz-adv-x="1274" d="M49 380q34 -2 111 -2q69 0 96 2q100 -315 192 -518h14q64 137 136 325l-87 196q23 -5 101 -5q88 0 106 5q100 -318 174 -491h13q48 111 183 491q13 -5 68 -5q58 0 70 5q-194 -412 -295 -663q-13 5 -63 5q-72 0 -84 -5l-140 353q-96 -201 -150 -353q-12 5 -91 5 q-66 0 -79 -5q-142 369 -275 660z" />
<glyph unicode="&#xe160;" horiz-adv-x="830" d="M68 383q18 -5 99 -5q75 0 91 5q44 -135 180 -462q87 196 174 462q11 -5 76 -5q49 0 62 5q-327 -666 -421 -973q-30 8 -71 8q-49 0 -78 -8q92 153 162 318l-2 9q-102 266 -272 646z" />
<glyph unicode="&#xe161;" horiz-adv-x="729" d="M52 -263q21 21 32 37l348 516q-168 -5 -322 -18l-4 5q4 23 4 52l-4 49l4 5q29 -5 84 -5h354q33 0 76 5l47 6q7 0 7 -11q-12 -14 -44 -64l-339 -499q155 2 371 18l2 -5q-2 -33 -2 -54l2 -49l-2 -2q-46 2 -86 2h-344h-35.5t-67 -1t-79.5 -1z" />
<glyph unicode="&#xe358;" horiz-adv-x="0" d="M-720 1588q73 71 187 110l297 -206q37 -26 37 -52q0 -14 -11.5 -25.5t-25.5 -11.5q-34 0 -106 30z" />
<glyph unicode="&#xe359;" horiz-adv-x="0" d="M-727 1440q0 14 7 25.5t30 26.5l304 211q105 -49 152 -127l-353 -143q-71 -30 -103 -30q-10 0 -19 5t-13.5 13.5t-4.5 18.5z" />
<glyph unicode="&#xf638;" d="M96 710q0 142 26 267.5t71 219.5t105 163t130.5 104t143.5 35q124 0 209 -65l57 137l76 -28l-69 -169q23 -26 43.5 -56.5t43 -72t40.5 -91.5t32 -109t22 -132t8 -153q0 -120 -16 -224.5t-44 -183t-66.5 -142.5t-81 -107t-89.5 -72t-91 -42t-86 -13q-145 0 -252 97 l-67 -164l-79 30l85 204q-74 100 -112.5 248t-38.5 319zM307 706q0 -196 30 -346l391 944q-21 39 -48 60q-44 39 -108 39q-265 0 -265 -697zM374 233q66 -162 189 -162q16 0 34.5 4t45.5 18t51 37.5t48 67.5t39 102q25 90 33.5 195t8.5 284q0 259 -50 420z" />
<glyph unicode="&#xf6ae;" horiz-adv-x="736" d="M108 798q0 144 40 285t111 263t164.5 226.5t205.5 186.5l56 -37q-25 -24 -46 -46t-61.5 -72.5t-73 -102t-70 -130t-63 -160.5t-42.5 -190.5t-17 -222.5t17 -222.5t42 -190t63 -161t69.5 -130t73 -102.5t62 -73.5t46.5 -48.5l-56 -36q-105 78 -189.5 169t-137.5 171.5 t-92.5 169.5t-58 154t-29.5 134.5t-12.5 101.5t-1.5 64z" />
<glyph unicode="&#xf6af;" horiz-adv-x="736" d="M52 -126q24 24 45.5 46t62 72.5t73 102t70 130t63 160.5t42.5 190.5t17 222.5t-17 222.5t-42 190t-63 161t-69.5 130t-73 102.5t-62 73.5t-46.5 48.5l56 36q105 -78 189.5 -169t137.5 -171.5t92 -169.5t58 -154t29.5 -134.5t12.5 -101.5t2 -64q0 -144 -40 -285t-111 -263 t-164.5 -226.5t-205.5 -186.5z" />
<glyph unicode="&#xf6b0;" horiz-adv-x="886" d="M270 -143v1891h529v-62q-66 -4 -112.5 -8.5t-86 -12t-64 -15.5t-44 -22.5t-29 -28.5t-16 -39t-8 -49t-1.5 -63v-1291q0 -38 1.5 -62t7.5 -49t15.5 -39t29 -29t44 -22.5t64 -15.5t86.5 -12.5t113 -9.5v-61h-529z" />
<glyph unicode="&#xf6b1;" horiz-adv-x="886" d="M89 -79q66 4 112.5 8.5t86 12t64 15t44 22t29 28.5t16 39t8 49t1.5 62v1291q0 31 -1 51t-4.5 42t-8.5 35.5t-15.5 28.5t-23.5 23.5t-34.5 17.5t-46 14.5t-60 11t-75 9t-92.5 6.5v61h528v-1891h-528v64z" />
<glyph unicode="&#xf6b2;" horiz-adv-x="680" d="M19.5 784q-0.5 11 15.5 26q65 5 113.5 27.5t75 56.5t39 71.5t12.5 79.5l-15 389q-3 87 23 150.5t78 100.5t119.5 54.5t153.5 17.5q10 -10 10 -25.5t-10 -25.5q-25 -6 -42 -11t-40 -15.5t-38.5 -23.5t-32.5 -34t-26.5 -47t-14 -63.5t-2.5 -82.5l19 -350 q4 -69 -11.5 -118.5t-52 -82t-81.5 -52.5t-113 -36v-9q66 -24 113 -51t82.5 -64.5t51 -88t11.5 -114.5l-19 -314q-8 -128 51 -205.5t145 -77.5q10 -10 10 -25.5t-10 -25.5q-78 0 -136 9.5t-106 33t-77 62t-43.5 98.5t-11.5 142l15 358q8 215 -240 242q-15 13 -15.5 24z" />
<glyph unicode="&#xf6b3;" horiz-adv-x="680" d="M26 -162q0 15 11 25q36 9 59 17t53.5 28t48 47.5t28.5 75t8 109.5l-20 351q-4 69 11.5 118.5t52 82.5t81.5 53t113 36v9q-66 23 -113 50t-82.5 64.5t-51 88t-11.5 113.5l20 315q4 64 -11 118.5t-43 90t-65 55t-78 19.5q-11 10 -11 25.5t11 24.5q78 0 136 -9t106 -32.5 t77 -62t43.5 -98t10.5 -141.5l-14 -360q-8 -215 240 -241q15 -13 15.5 -24.5t-15.5 -25.5q-66 -6 -114 -28t-74.5 -56t-39 -71.5t-12.5 -80.5l14 -388q4 -88 -22.5 -151.5t-78 -100.5t-119 -54t-153.5 -17q-11 10 -11 25z" />
<glyph unicode="&#xf6b6;" horiz-adv-x="1334" d="M182 698v29q103 91 205.5 192t248.5 258q20 -2 38 -15.5t22 -31.5q-160 -244 -313 -417q153 -173 313 -418q-4 -18 -22 -31.5t-38 -15.5q-99 106 -175 184.5t-142.5 141.5t-136.5 124zM624 698v29q105 92 208 193.5t247 256.5q20 -2 37 -15.5t22 -31.5 q-164 -249 -312 -417q148 -168 312 -418q-5 -18 -22 -31.5t-37 -15.5q-144 155 -247 257t-208 193z" />
<glyph unicode="&#xf6b7;" horiz-adv-x="1334" d="M180 295q163 250 312 418q-149 168 -312 417q4 18 21.5 31.5t37.5 15.5q97 -105 175 -184t143.5 -141.5t136.5 -124.5v-29q-105 -91 -208 -193t-247 -257q-20 2 -37.5 15.5t-21.5 31.5zM622 295q163 250 312 418q-149 168 -312 417q4 18 21 31.5t37 15.5 q145 -155 248 -256.5t207 -193.5v-29q-104 -91 -207 -193t-248 -257q-20 2 -37 15.5t-21 31.5z" />
<glyph unicode="&#xf6b8;" horiz-adv-x="891" d="M182 694v28q103 91 205.5 192.5t248.5 257.5q10 0 20 -4.5t18 -10.5t14 -14.5t8 -16.5q-160 -245 -313 -418q153 -173 313 -418q-4 -17 -22 -31t-38 -15q-99 106 -175 184t-142.5 141.5t-136.5 124.5z" />
<glyph unicode="&#xf6b9;" horiz-adv-x="891" d="M180 286q163 249 312 417q-149 168 -312 418q4 18 21.5 31.5t37.5 15.5q97 -105 175 -184.5t143.5 -142t136.5 -123.5v-30q-201 -177 -455 -449q-13 1 -25.5 7.5t-21.5 17t-12 22.5z" />
<glyph unicode="&#xf6ba;" horiz-adv-x="817" d="M82 769q0 31 19.5 61t41.5 30h563q16 0 24.5 -13t8.5 -31q0 -23 -21.5 -56t-44.5 -33h-555q-16 0 -26 12.5t-10 29.5z" />
<glyph unicode="&#xfb06;" horiz-adv-x="1736" d="M82 42l40 206l38 3q55 -78 131 -128t159 -50q66 0 116.5 23.5t80 70t29.5 110.5q0 30 -8 54t-25.5 42.5t-37 33t-50.5 27.5t-59 22t-69 20q-41 12 -73 23.5t-68 29.5t-61.5 40.5t-47.5 52t-33 69.5t-11 88q0 59 21 109t57 84.5t83.5 59t100.5 36t109 11.5h6 q-69 63 -96.5 132t-27.5 161q0 66 32 128t90.5 110t148 77t196.5 29q114 0 200.5 -29t143 -85t87.5 -134.5t36 -179.5l12 -233h115q25 0 57 1t67 2t49 2l12 -18q-21 -54 -30 -101q-43 5 -176 5h-94v-310q0 -83 -3.5 -191t-3.5 -135q0 -68 8 -110t25.5 -64.5t46.5 -27.5 q96 -15 195 19l30 -61q-77 -49 -142.5 -69.5t-143.5 -20.5q-91 0 -153.5 61t-62.5 174q0 28 3.5 171.5t3.5 227.5v336q-118 0 -174 -5l-12 18q33 51 54 101q22 -5 57 -5q23 0 42 5t32.5 13t24.5 22t18 26t12 31.5t7 33t3.5 35.5t1.5 33.5v33.5q0 168 -94.5 263t-278.5 95 q-75 0 -142.5 -21.5t-116 -57.5t-77 -84t-28.5 -99q0 -50 11 -93t35.5 -84.5t66.5 -78.5t101 -70q96 -22 157 -52l5 -9l-49 -181l-34 -2q-3 3 -8 9q-23 28 -37 43t-41.5 40t-51 39t-57 24.5t-68.5 10.5q-53 0 -95 -17t-67 -52.5t-25 -84.5q0 -136 228 -192 q57 -14 102.5 -30.5t90.5 -43t75 -60t48.5 -81.5t18.5 -107q0 -45 -10.5 -87.5t-39.5 -89t-73.5 -80.5t-120.5 -56.5t-174 -22.5q-182 0 -370 66z" />
</font>
</defs>
</svg>
