<?xml version="1.0" standalone="no"?>
<!DOCTYPE svg PUBLIC "-//W3C//DTD SVG 1.1//EN" "http://www.w3.org/Graphics/SVG/1.1/DTD/svg11.dtd" >
<svg xmlns="http://www.w3.org/2000/svg" xmlns:xlink="http://www.w3.org/1999/xlink" version="1.1">
<metadata></metadata>
<defs>
<font id="linux_biolinum_obold" horiz-adv-x="1262" >
<font-face units-per-em="2048" ascent="1638" descent="-410" />
<missing-glyph horiz-adv-x="614" />
<glyph unicode="&#x2e;&#x2e;&#x2e;" horiz-adv-x="1839" d="M133 118v13q25 63 63 101t106 66h10q68 -25 106.5 -62.5t62.5 -104.5v-13q-26 -76 -64 -113.5t-105 -53.5h-10q-75 16 -111.5 52.5t-57.5 114.5zM784 118v13q16 42 37.5 71.5t53.5 53t79 42.5h10q68 -25 106 -62.5t63 -104.5v-13q-26 -76 -64.5 -113.5t-104.5 -53.5h-10 q-75 16 -112.5 52.5t-57.5 114.5zM1433 118v13q25 63 63 101t106 66h10q46 -17 77.5 -38.5t54 -52.5t38.5 -76v-13q-26 -76 -64.5 -113.5t-105.5 -53.5h-10q-51 11 -83 30.5t-52 51.5t-34 85z" />
<glyph unicode="&#x21;&#x21;" horiz-adv-x="1009" d="M152 118v13q25 63 63 101t107 66h9q69 -25 107.5 -63t63.5 -104v-13q-18 -51 -40.5 -84t-54 -52.5t-76.5 -30.5h-9q-76 16 -112.5 52.5t-57.5 114.5zM155 1438q0 47 17.5 83.5t45 56.5t55 30t51.5 10q29 0 59 -11.5t57 -32.5t44.5 -57t17.5 -79q0 -70 -11.5 -139.5 t-31 -161.5t-29.5 -173q-16 -117 -25 -220.5t-12 -161t-4 -66.5q-2 -20 -22.5 -34.5t-42.5 -14.5q-7 0 -14.5 1.5t-14 3.5t-12.5 5.5t-10 7t-7 7.5t-3 7q-1 9 -7.5 93t-16 185t-18.5 187q-10 84 -27 172.5t-28 157.5t-11 144zM605 122v14q25 63 63 101t106 65h10 q68 -24 107 -62t63 -104v-14q-18 -50 -40.5 -83t-53.5 -52.5t-76 -30.5h-10q-75 16 -111.5 52.5t-57.5 113.5zM607 1442q0 47 18 84t45 57t54.5 29.5t51.5 9.5q29 0 59 -11t57 -32t44.5 -57t17.5 -80q0 -69 -11.5 -138.5t-30.5 -161.5t-30 -174q-12 -90 -20.5 -175.5 t-12 -135t-6 -88.5t-3.5 -48q-2 -20 -22 -34.5t-41.5 -14.5t-40.5 10.5t-21 21.5q-1 13 -5.5 67.5t-9 112.5t-12 138t-15.5 146q-9 85 -26.5 173.5t-28.5 157.5t-11 143z" />
<glyph unicode="&#x3f;&#x3f;" horiz-adv-x="1918" d="M106 1457l7 11q57 48 187.5 100t250.5 52q212 0 319 -60q84 -47 126.5 -130t42.5 -182q0 -38 -10 -75.5t-23.5 -66.5t-39 -61t-45.5 -52.5t-53.5 -48.5t-52 -41.5t-51.5 -38.5q-13 -9 -19 -13q-29 -22 -43 -33.5t-38 -38.5t-35.5 -53.5t-21 -69.5t-9.5 -96v-96 q0 -11 -32.5 -24t-49.5 -13t-49.5 13t-32.5 24v101q0 224 190 396q35 33 57 67.5t30.5 74t11 66t2.5 69.5q0 23 -7 50.5t-18.5 56.5t-30 56.5t-39.5 49.5t-47.5 35t-54.5 13q-49 0 -95.5 -20t-84.5 -55t-67 -72.5t-55 -83.5l-81 3zM326 118v13q25 62 63.5 100.5t107.5 66.5 h9q69 -25 107 -62.5t63 -104.5v-13q-26 -76 -64.5 -113.5t-105.5 -53.5h-9q-76 16 -113 52.5t-58 114.5zM1030 1457l7 11q57 48 187.5 100t250.5 52q212 0 319 -60q84 -47 126.5 -130t42.5 -182q0 -38 -10 -75.5t-23.5 -66.5t-39 -61t-45.5 -52.5t-53.5 -48.5t-52 -41.5 t-51.5 -38.5q-13 -9 -19 -13q-21 -16 -30.5 -23.5t-29 -25t-29 -31t-23 -36.5t-19.5 -47t-11 -57t-5 -71v-96q0 -11 -32.5 -24t-49.5 -13q-10 0 -29 5.5t-35 15t-16 16.5v101q0 225 188 396q35 33 57 67.5t30.5 74t11 66t2.5 69.5q0 35 -15 79t-40 85t-63 69t-79 28 q-40 0 -78.5 -13.5t-69.5 -35.5t-60.5 -53t-51.5 -62t-42 -67l-81 3zM1250 118v13q17 42 38.5 71.5t53.5 53t79 42.5h9q69 -25 107 -62.5t63 -104.5v-13q-26 -76 -64.5 -113.5t-105.5 -53.5h-9q-51 11 -83.5 30.5t-53 51.5t-34.5 85z" />
<glyph unicode="&#x3f;&#x21;" horiz-adv-x="1459" d="M106 1457l7 11q57 48 187.5 100t250.5 52q212 0 319 -60q84 -47 126.5 -130t42.5 -182q0 -38 -10 -75.5t-23.5 -66.5t-39 -61t-45.5 -52.5t-53.5 -48.5t-52 -41.5t-51.5 -38.5q-13 -9 -19 -13q-29 -22 -43 -33.5t-38 -38.5t-35.5 -53.5t-21 -69.5t-9.5 -96v-96 q0 -11 -32.5 -24t-49.5 -13t-49.5 13t-32.5 24v101q0 224 190 396q35 33 57 67.5t30.5 74t11 66t2.5 69.5q0 23 -7 50.5t-18.5 56.5t-30 56.5t-39.5 49.5t-47.5 35t-54.5 13q-49 0 -95.5 -20t-84.5 -55t-67 -72.5t-55 -83.5l-81 3zM326 118v13q25 62 63.5 100.5t107.5 66.5 h9q69 -25 107 -62.5t63 -104.5v-13q-26 -76 -64.5 -113.5t-105.5 -53.5h-9q-76 16 -113 52.5t-58 114.5zM1055 122v14q25 63 63 101t106 65h10q68 -24 106 -62t63 -104v-14q-26 -75 -64.5 -112.5t-104.5 -53.5h-10q-75 16 -111.5 52.5t-57.5 113.5zM1057 1442q0 47 18 84 t45 57t54.5 29.5t51.5 9.5q29 0 59 -11t57 -32t44 -57t17 -80q0 -69 -11 -138.5t-30 -162t-30 -173.5q-12 -90 -20.5 -175.5t-12 -135t-6 -88.5t-3.5 -48q-2 -20 -22 -34.5t-42 -14.5q-14 0 -28 5t-23 12.5t-10 14.5q-1 13 -5.5 67.5t-9 112.5t-12 138t-15.5 146 q-9 85 -26.5 173.5t-28.5 157.5t-11 143z" />
<glyph unicode="&#x21;&#x3f;" horiz-adv-x="1442" d="M152 118v13q25 63 63 101t107 66h9q69 -25 107.5 -63t63.5 -104v-13q-18 -51 -40.5 -84t-54 -52.5t-76.5 -30.5h-9q-76 16 -112.5 52.5t-57.5 114.5zM155 1438q0 47 17.5 83.5t45 56.5t55 30t51.5 10q29 0 59 -11.5t57 -32.5t44.5 -57t17.5 -79q0 -70 -11.5 -139.5 t-31 -161.5t-29.5 -173q-16 -117 -25 -220.5t-12 -161t-4 -66.5q-2 -20 -22.5 -34.5t-42.5 -14.5q-7 0 -14.5 1.5t-14 3.5t-12.5 5.5t-10 7t-7 7.5t-3 7q-1 9 -7.5 93t-16 185t-18.5 187q-10 84 -27 172.5t-28 157.5t-11 144zM553 1452l7 11q34 28 99 61.5t160.5 62 t177.5 28.5q214 0 321 -60q83 -47 126 -130t43 -182q0 -38 -10 -75t-24 -66t-39.5 -61t-45 -52.5t-53 -48.5t-52 -41.5t-52.5 -38.5q-4 -3 -6.5 -4.5t-6 -4.5t-6.5 -5q-30 -22 -44 -33.5t-38 -38.5t-35.5 -53.5t-21 -69.5t-9.5 -95v-96q0 -8 -16 -17t-35 -15t-29 -6 q-18 0 -50 13t-32 25v100q0 224 190 396q28 27 48 56.5t30 54.5t15.5 58t6 54t0.5 55t-14.5 78t-39.5 85t-63.5 69t-78.5 28q-170 0 -303 -230l-80 2zM774 113v12q17 42 38 71.5t53 53.5t78 43h11q46 -16 77.5 -38.5t53.5 -53.5t38 -76v-12q-26 -76 -64 -113.5t-105 -53.5 h-11q-75 16 -111.5 52.5t-57.5 114.5z" />
<glyph unicode="ft" horiz-adv-x="1695" d="M54 946v60q0 11 4.5 21t18 19t33.5 9h118v73q0 110 49.5 220.5t132.5 197.5q78 81 202.5 125.5t271.5 44.5q36 0 79 -7t57 -16l2 -7q-12 -21 -22 -67t-19 -102t-15 -79l-74 -3q-15 26 -23.5 39.5t-25.5 33t-37.5 29t-45.5 9.5q-50 0 -91 -17t-69 -47.5t-43.5 -73 t-15.5 -93.5q0 -26 6 -115t6 -121v-24h359q1 1 1.5 3.5t0.5 3.5q60 -7 132 -7q0 162 11 247l5 8q34 8 79 24t80 30.5t76 32.5t57 24q22 0 22 -25q-12 -146 -12 -341h116q80 0 171 7l12 -20q-23 -59 -29 -116q-43 5 -177 5h-93l-4 -263q-4 -221 -4 -346q0 -54 8.5 -96.5 t30 -71t52.5 -28.5q37 0 55 1.5t39.5 7.5t48.5 20q20 -12 31 -37.5t11 -56.5q-141 -85 -361 -85q-57 0 -103.5 21t-75.5 56t-44.5 77t-15.5 86q0 131 7 426l7 289q-118 0 -174 -5l-3 5h-316v-439q0 -329 19 -492l-4 -7q-86 7 -170 7q-38 0 -84 -2t-73 -3l-27 -2l-3 7 q17 125 17 492v439h-162q-7 0 -9.5 3t-2.5 12z" />
<glyph unicode="tt" horiz-adv-x="1695" d="M28 966q0 13 4.5 28.5t12 29t17 22.5t17.5 9h135q0 64 -0.5 89.5t-2 59.5t-5 58.5t-9.5 64.5l5 7q66 5 175 34.5t167 52.5q21 0 21 -25q-1 -14 -3 -47.5t-2.5 -41.5t-2 -32.5t-2 -34.5t-1 -32.5t-0.5 -42.5t-0.5 -47.5t-0.5 -62.5h345q0 1 0.5 3.5t1.5 3.5q60 -7 132 -7 q0 172 10 247l4 8q44 10 100 31t118.5 48t74.5 32q23 0 23 -25q-13 -160 -13 -341h116q81 0 172 7l12 -20q-23 -59 -29 -116q-43 5 -178 5h-93l-5 -263q-2 -147 -2 -346q0 -54 8.5 -96.5t29.5 -71t53 -28.5q52 0 78.5 4.5t64.5 24.5q20 -12 31 -37.5t11 -56.5 q-142 -85 -362 -85q-56 0 -102.5 21t-75.5 56t-44.5 77t-15.5 86q0 131 7 426l7 289q-118 0 -174 -5l-4 5h-301v-263q0 -83 -3.5 -201t-3.5 -145q0 -41 3.5 -71t12 -55t24.5 -38t40 -13q36 0 58.5 3t50 12.5t59.5 29.5q46 -28 46 -87q-66 -60 -184.5 -93.5t-210.5 -33.5 q-56 0 -103 21t-75.5 56t-44.5 77t-16 86q0 27 4 185t4 241v289h-155q-5 0 -9 1.5t-7.5 4t-6.5 6t-4.5 7t-2.5 8t-1 8.5z" />
<glyph unicode="Qu" horiz-adv-x="3408" d="M127 762q0 179 63 336.5t173.5 272t269.5 181t343 66.5q194 0 354.5 -58.5t272 -163.5t172.5 -255.5t61 -331.5q0 -249 -108 -439.5t-304 -292.5q91 -53 208.5 -105t256 -100.5t299.5 -87.5t316 -59v-15q-39 -21 -85.5 -64.5t-88 -89t-57.5 -58.5q-310 86 -567.5 207 t-519.5 289q-89 -18 -208 -18q-181 0 -338.5 58.5t-270 161t-177.5 249.5t-65 317zM523 804q0 -173 37 -306.5t104.5 -217.5t159 -127t203.5 -43q140 0 231.5 71.5t136.5 215.5t45 365q0 257 -52.5 415t-161 231.5t-283.5 73.5q-420 0 -420 -678zM2101 1055l5 7 q88 -7 172 -7q38 0 84 1.5t73 3.5l27 2l3 -7q-13 -140 -19 -443l-5 -221q-2 -58 5.5 -100.5t20 -66.5t32 -38t38 -18t43.5 -4q42 0 90 19.5t89.5 52t69 80.5t27.5 99v197q0 109 -1 171t-5 133.5t-12 138.5l6 7q83 -7 167 -7q38 0 85 1.5t75 3.5l28 2l4 -7q-15 -90 -19 -185 t-4 -258v-140q0 -241 42 -472l-5 -7q-48 7 -181 7q-76 0 -140 -7q-23 0 -23 7l-12 157h-5q-40 -42 -86.5 -75t-89.5 -52.5t-88 -32t-80.5 -17t-68.5 -4.5q-71 0 -127.5 18.5t-93.5 50t-62 75t-35 90.5t-9 100l4 302q3 226 -19 443z" />
<glyph unicode="&#xfb00;" horiz-adv-x="1687" d="M54 956v50q0 11 4.5 21t18 19t33.5 9h118v73q0 57 8 103t20 79t37 69t45.5 60t59.5 65q76 78 221 132.5t265 54.5q76 0 111 -22l2 -8q-8 -13 -16 -36.5t-15 -52.5t-13.5 -55.5t-13 -57t-10.5 -45.5l-27 -3q-62 111 -142 111q-98 0 -151 -63.5t-53 -168.5q0 -26 6 -102.5 t6 -108.5v-24h312h51h66v73q0 113 45 223t126 195q76 80 206.5 125t279.5 45q33 0 64 -6.5t46 -16.5l4 -7q-10 -16 -19 -50t-14.5 -66.5t-12.5 -72t-12 -59.5l-49 -3q-15 26 -23.5 39.5t-25.5 33t-37.5 29t-45.5 9.5q-65 0 -111.5 -29.5t-69.5 -81t-23 -120.5q0 -26 6 -115 t6 -121v-24h265q20 0 20 -16v-66q0 -15 -18.5 -23.5t-37.5 -8.5h-229v-449q0 -121 0.5 -185t5 -153t13.5 -154l-5 -7q-100 7 -183 7q-39 0 -85 -2t-73 -3l-27 -2l-3 7q17 125 17 492v449h-103h-59h-267v-449q0 -319 25 -492l-6 -7q-105 7 -189 7q-38 0 -86 -2t-77 -3l-29 -2 l-2 7q24 155 24 492v449h-162q-7 0 -9.5 3t-2.5 12z" />
<glyph horiz-adv-x="0" />
<glyph horiz-adv-x="682" />
<glyph unicode=" "  horiz-adv-x="614" />
<glyph unicode="&#x09;" horiz-adv-x="614" />
<glyph unicode="&#xa0;" horiz-adv-x="614" />
<glyph unicode="!" horiz-adv-x="662" d="M152 118v13q25 63 63 101t107 66h9q69 -25 107.5 -63t63.5 -104v-13q-18 -51 -40.5 -84t-54 -52.5t-76.5 -30.5h-9q-76 16 -112.5 52.5t-57.5 114.5zM155 1438q0 47 17.5 83.5t45 56.5t55 30t51.5 10q29 0 59 -11.5t57 -32.5t44.5 -57t17.5 -79q0 -70 -11.5 -139.5 t-31 -161.5t-29.5 -173q-16 -117 -25 -220.5t-12 -161t-4 -66.5q-2 -20 -22.5 -34.5t-42.5 -14.5q-7 0 -14.5 1.5t-14 3.5t-12.5 5.5t-10 7t-7 7.5t-3 7q-1 9 -7.5 93t-16 185t-18.5 187q-10 84 -27 172.5t-28 157.5t-11 144z" />
<glyph unicode="&#x22;" horiz-adv-x="921" d="M150 1452q0 48 43 90.5t117 42.5q36 0 60 -7.5t34 -22t13 -28t3 -33.5q0 -17 -23 -128t-45 -214l-23 -103l-64 -15l-37 10q-78 394 -78 408zM502 1454q0 49 43 91.5t116 42.5q37 0 60.5 -7.5t34 -22.5t13.5 -28t3 -34q0 -16 -23 -127t-46 -214l-23 -103l-63 -15l-37 9 q-78 394 -78 408z" />
<glyph unicode="#" d="M70 460l22 162h246q38 236 41 262h-245l22 162h246q10 60 22.5 136.5t25.5 153.5t23 136h138l-75 -426h239q12 72 34.5 213.5t34.5 212.5h128l-66 -426h287l-22 -162h-290l-42 -262h290l-19 -162h-293q-8 -49 -31 -196.5t-37 -228.5h-131l71 425h-235 q-13 -69 -36.5 -209.5t-38.5 -215.5h-134l68 425h-243zM473 622h236l42 262h-231q-8 -45 -24 -131t-23 -131z" />
<glyph unicode="$" d="M110 82q30 119 47 267l45 3q52 -79 154 -152.5t197 -97.5l41 558q-69 28 -124.5 56t-118.5 70t-105 86.5t-70 105t-28 126.5q0 61 19 115.5t53 97.5t81.5 77.5t104 57.5t120.5 35t130 12l15 195q32 12 101 12l-17 -212q60 -6 118.5 -18.5t99 -25.5t73 -25.5t47.5 -20.5 l16 -8l5 -8q-28 -97 -47 -262l-70 -3q-40 77 -107.5 147.5t-143.5 99.5l-37 -492q46 -17 86 -34t88.5 -42.5t87.5 -52t77.5 -63t64 -75.5t41.5 -88t16 -103q0 -67 -22 -130t-66 -117.5t-106.5 -96.5t-147.5 -68t-185 -31l-15 -206q-20 -12 -100 -12l16 218q-70 4 -140 15 t-119.5 25t-89.5 27.5t-60 22.5l-20 9zM434 1165q0 -51 15.5 -93t43 -71t56 -49t64.5 -36l35 469q-87 -7 -150.5 -72t-63.5 -148zM652 95q93 9 149.5 72.5t56.5 172.5q0 198 -167 280z" />
<glyph unicode="%" horiz-adv-x="1564" d="M125 1001q0 74 24 144t68 124.5t111 88t146 33.5q112 0 168 -54q44 -2 98 -17t95.5 -29.5t58.5 -14.5q255 0 370 122l115 -52l-1011 -1386l-132 30l899 1232q-137 -57 -265 -57q-39 0 -86.5 13t-85.5 33q3 -27 3 -43q0 -122 -41 -221.5t-116.5 -158t-170.5 -58.5 q-133 0 -191 74q-57 73 -57 197zM354 907q0 -81 49 -81q37 0 71.5 26.5t60.5 71.5q30 51 46.5 116t16.5 123q0 139 -96 139q-36 0 -68.5 -35.5t-50.5 -91.5q-29 -88 -29 -268zM910 223q0 75 24 144.5t68 125t111 88.5t146 33q225 0 225 -223q0 -121 -40.5 -221 t-115.5 -158.5t-170 -58.5q-135 0 -192 75q-56 72 -56 195zM1138 131q0 -82 49 -82q37 0 72 27t61 72q20 33 34 75.5t20.5 83.5t6.5 79q0 140 -96 140q-18 0 -35.5 -10t-32.5 -27t-27.5 -40t-21.5 -51q-30 -91 -30 -267z" />
<glyph unicode="&#x26;" horiz-adv-x="1790" d="M96 368q0 57 13.5 105t45.5 97.5t87 99t135 105t193 119.5q-78 120 -115 211.5t-37 174.5q0 57 29.5 114t82.5 105t138 78t185 30q170 0 261 -73.5t91 -213.5q0 -92 -101.5 -203t-263.5 -203q79 -137 269 -400q101 157 148.5 288.5t62.5 259.5q24 -7 132 -7q116 0 140 7 q-36 -63 -195 -347.5t-190 -331.5q10 -15 29.5 -48.5t31.5 -52t30.5 -47t33 -45t31.5 -33.5t33 -24.5t32 -7.5q55 0 92.5 29t81.5 114l79 -57q-34 -61 -67 -104.5t-62 -68.5t-62 -39t-61 -18.5t-65 -4.5q-60 0 -104.5 17t-92 64t-107.5 135q-46 -50 -88 -86t-97 -67 t-122 -47t-146 -16q-89 0 -165.5 14t-140.5 44t-109.5 75.5t-70.5 111t-25 147.5zM386 418q0 -79 20.5 -144.5t54.5 -108t77.5 -66t90.5 -23.5q50 0 93.5 12t85.5 39t82 69.5t83 103.5q-96 127 -203.5 277t-147.5 214q-134 -85 -185 -169.5t-51 -203.5zM664 1285 q0 -41 27.5 -113.5t72.5 -139.5q37 29 53.5 43t47.5 40.5t46 44.5t32.5 42t25 47t7.5 46q0 100 -38.5 155.5t-109.5 55.5q-32 0 -60.5 -13t-52 -39t-37.5 -69.5t-14 -99.5z" />
<glyph unicode="'" horiz-adv-x="528" d="M125 1452q0 48 43.5 90.5t117.5 42.5q36 0 60 -7.5t34 -22t13 -28t3 -33.5q0 -17 -23 -128t-45 -214l-23 -103l-64 -15l-37 10q-79 394 -79 408z" />
<glyph unicode="(" horiz-adv-x="830" d="M108 619q0 102 21.5 210.5t60.5 210t92 201t116.5 188.5t133.5 167t144 142l79 -69q-23 -25 -44 -51.5t-55 -80.5t-62.5 -112t-60 -144.5t-53.5 -180t-36 -217.5t-14 -257t14 -257.5t35.5 -219t52.5 -182.5t60 -148t63 -115t55.5 -84t44.5 -54l-79 -68 q-155 147 -267.5 297.5t-177 292.5t-94 272t-29.5 259z" />
<glyph unicode=")" horiz-adv-x="830" d="M76 -430q22 26 43 52.5t55.5 80t63 111.5t60 144.5t53 180t36 217t14.5 256.5q0 117 -10.5 227t-29.5 199.5t-41.5 168.5t-51 144t-54 116t-54 93.5t-47 67t-37.5 46.5l79 66q124 -118 221.5 -239.5t162 -234t106 -226.5t59.5 -216.5t18 -204.5q0 -151 -47 -314 t-127 -308.5t-181 -273t-212 -222.5z" />
<glyph unicode="*" horiz-adv-x="1063" d="M185 1494q0 31 20 55t60 24q20 0 39.5 -6.5t35 -16.5t34 -23.5t35.5 -27.5t41 -28.5t49 -25.5q-4 41 -22.5 84.5t-35 78.5t-16.5 61q0 38 29.5 66.5t63.5 28.5q38 0 68.5 -22t30.5 -63q0 -34 -29.5 -116.5t-31.5 -117.5q36 15 68.5 40t51.5 44.5t44.5 34t53.5 14.5 q50 0 73 -28.5t23 -55.5q0 -26 -14 -46t-38.5 -31t-53.5 -16t-63 -5q-89 0 -133 -8q22 -23 53.5 -43t56.5 -33t48.5 -30t36.5 -42t13 -60q0 -16 -7 -30t-18.5 -22.5t-25 -13.5t-27.5 -5q-34 0 -57.5 16t-38 44t-25 58t-24.5 67t-30 62q-13 -24 -23.5 -56t-16 -57.5 t-15 -51.5t-21.5 -43t-36.5 -28t-58.5 -11q-21 0 -37.5 9t-25.5 25t-9 34q0 38 12.5 64t35.5 42.5t48 29.5t55.5 33t52.5 45q-9 1 -32.5 6t-33.5 6t-35 0q-37 -7 -63.5 -9t-53.5 1t-43.5 13.5t-27 32t-10.5 53.5z" />
<glyph unicode="+" horiz-adv-x="1276" d="M148 497v147h417v420h148v-420h417v-147h-417v-418h-148v418h-417z" />
<glyph unicode="," horiz-adv-x="603" d="M103 -374q-3 34 5 57q58 16 105.5 46t75.5 63.5t43 66t15 57.5q0 52 -15 68t-49 16q-41 8 -65 16t-46 23.5t-35 40t-22 63.5v14q21 62 59.5 100.5t108.5 66.5h15q44 -16 77.5 -39.5t61.5 -61t42.5 -94t14.5 -129.5q0 -79 -32 -152.5t-85 -127t-119.5 -90.5t-137.5 -50 q-14 12 -17 46z" />
<glyph unicode="-" horiz-adv-x="844" d="M94 598q0 20 8.5 49t23.5 52t29 23h563q16 0 25 -18.5t9 -37.5q0 -8 -3.5 -23t-10.5 -32t-15 -32t-18.5 -25t-19.5 -10h-554q-15 0 -26 18t-11 36z" />
<glyph unicode="." horiz-adv-x="603" d="M133 118v13q25 63 63 101t106 66h10q68 -25 106.5 -62.5t62.5 -104.5v-13q-26 -76 -64 -113.5t-105 -53.5h-10q-75 16 -111.5 52.5t-57.5 114.5z" />
<glyph unicode="/" horiz-adv-x="840" d="M37 -145l582 1733h148l-582 -1733h-148z" />
<glyph unicode="0" d="M73 732q0 180 44 326.5t120.5 242t179 147t221.5 51.5q56 0 109 -10.5t108.5 -36t103.5 -64t91 -98t73.5 -134.5t48 -177.5t17.5 -223.5q0 -107 -14 -201t-39.5 -167.5t-60 -135t-76.5 -105.5t-87.5 -77.5t-94.5 -53.5t-96.5 -29.5t-94.5 -9.5q-87 0 -165 28t-138 78.5 t-107.5 120.5t-78.5 154t-47.5 179t-16.5 196zM425 698q0 -55 0.5 -87.5t2.5 -96t7.5 -105t14.5 -97.5t24.5 -92t36 -70.5t51 -51t67.5 -16.5q22 0 42.5 8.5t42.5 31t40 58t34 92.5t27.5 130.5t18 176t6.5 225.5q0 80 -4.5 150t-13.5 125t-21 101t-26.5 79.5t-30.5 58.5 t-34 40.5t-35.5 22.5t-36.5 7q-23 0 -42.5 -6t-42 -24.5t-40.5 -49.5t-35 -83t-28.5 -122t-18 -171.5t-6.5 -225.5v-8z" />
<glyph unicode="1" d="M251 1315q311 71 661 184q5 0 7 -0.5t5 -1.5t4 -3.5t1 -6.5q0 -2 -3.5 -23t-6 -38t-6 -53t-5.5 -73.5t-4 -94t-2 -119.5v-622q0 -267 29 -464l-5 -7q-105 7 -194 7q-41 0 -88 -2t-74 -3l-26 -2l-3 7q27 169 27 464v600q0 82 -8 121t-37 39q-159 0 -267 -14z" />
<glyph unicode="2" d="M94 0q0 108 65.5 213t248.5 291l182 179q43 43 72 87.5t44.5 82t23.5 86.5t10 84.5t2 92.5q0 109 -57.5 180t-128.5 71q-90 0 -157 -49.5t-129 -159.5l-108 2l-52 194l8 10q50 45 191.5 90t265.5 45q89 0 169.5 -14.5t150 -45t120 -75.5t79.5 -109t29 -141 q0 -28 -4 -54.5t-9 -48t-17 -45.5l-20.5 -41t-27 -40t-30 -37t-35 -38t-36 -36t-40.5 -38.5t-41 -39.5l-246 -239q-42 -40 -91.5 -111.5t-49.5 -99.5h202q70 0 126.5 1t101 3.5t76.5 5t76 6t77 6.5q-5 -23 -9.5 -79t-4.5 -83q0 -51 14 -116q-246 10 -427 10q-83 0 -178 -1.5 t-221.5 -4t-212.5 -4.5z" />
<glyph unicode="3" d="M89 122l54 195l108 2q14 -24 30.5 -58t27 -54t25.5 -44t30.5 -37.5t38 -26.5t52 -18t68.5 -5q29 0 60 9.5t66 35t62 64t45 103.5t18 146q0 288 -277 288q-91 0 -121 -4v98q190 13 289 95t99 234q0 63 -30 122t-77 94t-94 35q-35 0 -64.5 -6t-51.5 -15t-43 -27t-35.5 -34 t-32 -45.5t-29 -51.5t-30.5 -61l-108 2l-51 193l7 11q55 49 183.5 93t275.5 44q116 0 204.5 -17t154 -53.5t99.5 -97.5t34 -147q0 -147 -86.5 -242.5t-229.5 -132.5v-7q56 -6 110 -21.5t105 -44.5t88.5 -69t60.5 -98t23 -126q0 -110 -48.5 -200t-133.5 -148.5t-199.5 -90.5 t-247.5 -32q-81 0 -152 13.5t-122 36t-84.5 43.5t-61.5 45z" />
<glyph unicode="4" d="M42 516q0 3 3 9t7.5 13t6.5 10q286 433 635 951q102 -10 252 0l6 -5l-6 -980h241q37 0 37 -40q0 -24 -23 -50t-48 -26h-207q3 -208 27 -398l-5 -7q-98 7 -177 7q-36 0 -79 -2t-68 -3l-25 -2l-2 7q25 180 25 398h-436q-41 0 -56 3.5t-25 13.5l-36 45q-5 9 -13.5 18.5 t-15.5 16t-12.5 12.5t-5.5 9zM187 514h455v710q-167 -226 -455 -710z" />
<glyph unicode="5" d="M115 98l52 195l84 2q62 -110 127 -154.5t173 -44.5q43 0 85 20t79 59.5t59.5 108t22.5 154.5q0 120 -25 198t-84 120q-68 48 -153 48t-138.5 -22.5t-120.5 -78.5l-59 18q8 19 15.5 65t13.5 108t10.5 133.5t7 143.5t2.5 135.5t-3.5 112.5t-9.5 70l5 7q288 -24 349 -24 q226 0 484 27l15 -7l-37 -236q-164 -15 -337 -15q-155 0 -334 20l-18 -361q95 34 293 34q85 0 170 -28t146 -77q45 -36 80 -86t55.5 -111.5t20.5 -125.5q0 -116 -44.5 -216.5t-119.5 -168.5t-175.5 -106.5t-210.5 -38.5q-183 0 -291 24t-182 86z" />
<glyph unicode="6" d="M108 605q0 123 26.5 239t87.5 227.5t151 189.5q143 123 302 176.5t416 61.5q13 -17 17.5 -48t-2.5 -53q-61 -3 -111.5 -10t-112 -22t-120.5 -44.5t-110 -71.5q-87 -70 -146 -188t-73 -250q63 34 134 57t118 29q83 -2 153.5 -19t119.5 -42.5t87.5 -60.5t62 -70.5 t38.5 -74.5t20.5 -70t5.5 -59q0 -48 -8.5 -98t-28.5 -101.5t-49 -99t-72 -89t-95.5 -72t-122.5 -48.5t-149 -18q-57 0 -108.5 7t-107 26t-101.5 49t-88 79t-71 113t-46 154.5t-17 200.5zM418 595q0 -70 4.5 -130.5t13.5 -108t21.5 -87t27.5 -68.5t33 -52t36.5 -37.5 t39.5 -24t40.5 -13t41.5 -3.5q71 0 118.5 98.5t47.5 287.5q0 75 -29 147t-85.5 121t-125.5 49q-39 0 -78 -12t-104 -52q-2 -27 -2 -115z" />
<glyph unicode="7" d="M194 1182q4 28 8 91.5t4 90.5q0 39 -12 132q78 -10 294.5 -17t491.5 -7q83 0 158 20l34 -50q-198 -483 -321.5 -809.5t-233.5 -654.5l-291 -10l-7 18q51 115 134.5 278t157 301t161 318.5t150.5 335.5q-66 0 -168 -5t-279 -15.5t-281 -16.5z" />
<glyph unicode="8" d="M101 359q0 69 23 128t69 110t105.5 93.5t141.5 85.5l-44 26q-44 24 -79 52.5t-61.5 61t-44 68t-26.5 74t-9 80.5q0 44 11 85t33 76.5t52.5 66.5t71 55.5t88.5 42t105 26.5t119 9q130 0 231.5 -37.5t159 -108.5t57.5 -164q0 -114 -71 -190.5t-219 -138.5l145 -86 q93 -65 154.5 -169.5t61.5 -208.5q0 -220 -185 -342q-59 -38 -165 -58t-206 -20q-77 0 -151 15.5t-140.5 47.5t-117 76.5t-80 107.5t-29.5 136zM408 359q0 -65 19 -120.5t50 -90.5t69.5 -55t77.5 -20q34 0 61.5 4.5t56 14.5t49 30t37.5 49.5t26 74t9 101.5 q0 106 -40.5 175.5t-146.5 138.5l-106 57q-43 -32 -73.5 -69t-47.5 -71t-26.5 -74.5t-12 -72t-2.5 -72.5zM455 1196q0 -59 42 -125.5t115 -109.5l71 -42q26 21 39.5 33t37.5 38t37 49t23 58t10 73q0 44 -10 83.5t-31.5 73.5t-59 53.5t-87.5 19.5q-61 0 -104.5 -27.5t-63 -73 t-19.5 -103.5z" />
<glyph unicode="9" d="M110 973q0 48 9 97.5t29 101.5t48.5 99t72 89t96 72.5t122 48.5t149.5 18q57 0 108.5 -7t107 -26t101.5 -49t88 -79t71 -113t46 -154.5t17 -200.5q0 -123 -26.5 -239t-87.5 -227.5t-151 -189.5q-143 -123 -302 -176.5t-416 -61.5q-14 17 -18 47.5t2 52.5q61 3 112 9.5 t112.5 22t120 44.5t110.5 71q87 71 146 189.5t73 249.5q-63 -33 -134 -56t-118 -29q-83 2 -153.5 18.5t-119.5 42.5t-87.5 61t-62 70.5t-38.5 74t-21 70t-6 59.5zM440 1018q0 -56 18 -112t48.5 -101.5t76.5 -74.5t97 -29q40 0 79 12t104 51q2 28 2 116q0 123 -15.5 217.5 t-40 151t-59 92.5t-69 49t-74.5 13q-71 0 -119 -98.5t-48 -286.5z" />
<glyph unicode=":" horiz-adv-x="621" d="M150 167v13q17 42 38 71.5t53 53t78 42.5h10q68 -25 107 -62.5t63 -104.5v-13q-26 -75 -64.5 -113t-105.5 -54h-10q-51 11 -83 30.5t-52 51.5t-34 85zM150 882v12q25 63 63 102t106 66h10q68 -24 107 -62.5t63 -105.5v-12q-17 -51 -40 -83.5t-54 -52.5t-76 -31h-10 q-75 16 -111.5 52.5t-57.5 114.5z" />
<glyph unicode=";" horiz-adv-x="621" d="M136 -374q-3 34 4 57q58 16 105.5 46t75 63.5t42.5 66t15 57.5q0 52 -15 68t-49 16q-32 6 -53 12.5t-40.5 16.5t-32.5 24.5t-23 36.5t-17 53v14q21 62 59 100.5t107 66.5h15q44 -16 77.5 -39.5t61.5 -61t43 -94t15 -129.5q0 -79 -32 -152.5t-85 -127t-119.5 -90.5 t-137.5 -50q-13 12 -16 46zM150 884v14q17 42 38 71.5t53 53t78 41.5h10q68 -24 107 -62t63 -104v-14q-26 -75 -64.5 -112.5t-105.5 -53.5h-10q-75 16 -111.5 52.5t-57.5 113.5z" />
<glyph unicode="&#x3c;" horiz-adv-x="1257" d="M103 511v157l1055 384v-201l-782 -261l782 -261v-202z" />
<glyph unicode="=" horiz-adv-x="1353" d="M145 302v172h1067v-172h-1067zM145 666v172h1067v-172h-1067z" />
<glyph unicode="&#x3e;" horiz-adv-x="1257" d="M103 127v202l781 261l-781 261v201l1055 -384v-157z" />
<glyph unicode="?" horiz-adv-x="1140" d="M106 1457l7 11q57 48 187.5 100t250.5 52q212 0 319 -60q84 -47 126.5 -130t42.5 -182q0 -38 -10 -75.5t-23.5 -66.5t-39 -61t-45.5 -52.5t-53.5 -48.5t-52 -41.5t-51.5 -38.5q-13 -9 -19 -13q-29 -22 -43 -33.5t-38 -38.5t-35.5 -53.5t-21 -69.5t-9.5 -96v-96 q0 -11 -32.5 -24t-49.5 -13t-49.5 13t-32.5 24v101q0 224 190 396q35 33 57 67.5t30.5 74t11 66t2.5 69.5q0 23 -7 50.5t-18.5 56.5t-30 56.5t-39.5 49.5t-47.5 35t-54.5 13q-49 0 -95.5 -20t-84.5 -55t-67 -72.5t-55 -83.5l-81 3zM326 118v13q25 62 63.5 100.5t107.5 66.5 h9q69 -25 107 -62.5t63 -104.5v-13q-26 -76 -64.5 -113.5t-105.5 -53.5h-9q-76 16 -113 52.5t-58 114.5z" />
<glyph unicode="@" horiz-adv-x="2624" d="M226 544q0 125 41 250.5t114 236.5t178.5 207t229.5 165t271.5 108t299.5 39q136 0 268 -30.5t244.5 -85t207.5 -132.5t162 -170.5t104.5 -202t37.5 -223.5q0 -85 -26.5 -169t-73 -155.5t-111 -134t-138 -106.5t-156 -69t-163.5 -25q-61 0 -106 14t-67.5 37t-33 45 t-10.5 44q-29 -26 -68 -47t-76 -33.5t-76 -20t-66 -10.5t-48 -3q-59 0 -108.5 12.5t-83.5 32.5t-60.5 48t-42 56.5t-25.5 60t-13.5 57t-3.5 49.5q0 103 35.5 201.5t96.5 175t138.5 134.5t165 89t171.5 31q90 0 182 -27.5t123 -66.5l91 82l66 -28l-145 -633 q-31 -138 -31 -162q0 -23 9.5 -29t33.5 -6q16 0 36.5 6t46 19t52 31.5t54 44.5t53 57t47.5 70.5t38.5 83.5t25.5 98t9 111q0 112 -28.5 213t-77 176.5t-114 139t-138 106.5t-149.5 72.5t-148 43t-134 13.5q-96 0 -194 -25.5t-190.5 -74.5t-173.5 -125t-142 -170t-96 -218 t-35 -262q0 -79 16.5 -161.5t52 -167t86 -161.5t123.5 -144.5t159.5 -117t198.5 -78t237 -28.5q156 0 331.5 48.5t282.5 136.5q20 -6 33.5 -35.5t18.5 -60.5q-124 -94 -309.5 -151.5t-403.5 -57.5q-144 0 -284 33t-262 92t-225.5 146t-177.5 192t-115.5 233t-41.5 266z M1116 403q0 -47 5.5 -82.5t19.5 -67t42 -47.5t70 -16q29 0 63 15t71 46.5t71.5 89.5t58.5 133q71 241 71 312q0 42 -17.5 74.5t-44.5 49t-58 16.5q-69 0 -127.5 -30.5t-99 -81.5t-69.5 -118.5t-42.5 -142t-13.5 -150.5z" />
<glyph unicode="A" horiz-adv-x="1722" d="M49 -7q14 30 91 198t96.5 211t86.5 190.5t95.5 210t85.5 190t94 211t85 192t91 208.5h221q169 -432 378 -933t296 -678q-42 7 -224 7q-157 0 -199 -7q-59 213 -183 547q-241 4 -245 4q-139 0 -326 -5q-143 -351 -194 -546q-30 7 -111 7q-108 0 -138 -7zM550 678 q102 -5 256 -5q66 0 206 3q-131 339 -218 538h-15z" />
<glyph unicode="B" horiz-adv-x="1658" d="M223 0q30 208 30 492v601q0 273 -30 492l5 7q123 -7 206 -7q67 0 148 2t149 3.5t102 1.5q95 0 176 -12.5t139.5 -34t105 -51.5t76 -63.5t49 -71.5t27.5 -74t8 -73q0 -96 -76 -187t-178 -141q84 -24 153 -60.5t125.5 -88.5t88 -124.5t31.5 -158.5q0 -66 -22.5 -129 t-74 -123.5t-126.5 -106t-191 -73t-257 -27.5q-92 0 -168 1.5t-144 3.5t-141 2q-38 0 -90 -2t-85 -3l-33 -2zM602 239q0 -32 9.5 -53t33.5 -36t65.5 -21.5t105.5 -6.5q54 0 98.5 4.5t78 12t59.5 20t44 26t30.5 34t19.5 38.5t11 45t5 49t1 55q0 41 -3.5 76.5t-12.5 76t-24 73 t-41 63t-60 51t-83 33t-109 12.5h-228v-552zM602 922h192q77 0 126 14.5t77 48.5t38.5 80t10.5 117q0 79 -14.5 134t-44 87t-69 46t-92.5 14q-51 0 -86.5 -2.5t-60.5 -8.5t-40 -14t-23 -21.5t-11 -28.5t-3 -37v-429z" />
<glyph unicode="C" horiz-adv-x="1734" d="M127 762q0 204 80 382.5t225 290.5q114 89 265.5 136t320.5 47q61 0 124.5 -6.5t116 -16t102.5 -21.5t87 -24t65.5 -22t42.5 -16l15 -6l5 -7q-22 -93 -32.5 -160t-17.5 -159l-74 -3q-78 156 -184 230.5t-267 74.5q-45 0 -90 -11t-92 -35.5t-89 -61t-79.5 -91.5 t-64.5 -122.5t-42.5 -157.5t-15.5 -194q0 -154 36 -283.5t98.5 -217.5t148.5 -137t186 -49q177 0 295.5 45.5t253.5 174.5l58 -84q-75 -78 -160 -134t-171.5 -87.5t-169.5 -46t-169 -14.5q-157 0 -275 33.5t-229 108.5q-143 96 -223 271t-80 373z" />
<glyph unicode="D" horiz-adv-x="1869" d="M218 0q30 208 30 492v601q0 273 -30 492l5 7q123 -7 207 -7q87 0 222.5 3.5t222.5 3.5q140 0 270.5 -37.5t238.5 -109.5t188.5 -169.5t125 -225t44.5 -269.5q0 -126 -27.5 -233.5t-74.5 -186.5t-112.5 -142.5t-138.5 -104.5t-155 -68.5t-159.5 -39t-155.5 -11.5 q-109 0 -253 2.5t-236 2.5q-39 0 -91 -2t-85 -3l-33 -2zM602 248q0 -41 20.5 -67t74.5 -41t145.5 -15t158.5 9.5t126 34.5t98 68t67.5 109.5t41 159t12.5 216.5q0 95 -3 161.5t-16 150t-36 140.5t-65 115.5t-100.5 93.5t-146 57.5t-198.5 22.5q-91 0 -135 -30t-44 -94v-1091 z" />
<glyph unicode="E" horiz-adv-x="1459" d="M206 0q30 208 30 492v601q0 273 -30 492l5 7q123 -7 207 -7h747q88 0 148 7l5 -7q-5 -69 -5 -86q0 -63 5 -101l-5 -10q-375 30 -703 30q-6 -20 -10.5 -67.5t-6 -102.5t-2.5 -93t-1 -62v-179q292 0 582 24l8 -7q-8 -32 -8 -91q0 -60 8 -92l-8 -9q-115 12 -294.5 18.5 t-287.5 6.5v-272q0 -36 1.5 -88t6 -124.5t12.5 -99.5q146 0 327.5 13.5t290.5 26.5l109 14l5 -11q-5 -38 -5 -134q0 -46 5 -89l-5 -7q-60 7 -148 7h-771q-39 0 -91 -2t-85 -3l-33 -2z" />
<glyph unicode="F" horiz-adv-x="1360" d="M211 0q30 208 30 492v601q0 273 -30 492l5 7q123 -7 206 -7h728q95 0 154 7l6 -7q0 -11 -1.5 -25t-2 -24t-1.5 -20.5t-1 -16.5q0 -77 6 -125l-6 -10q-40 6 -109 15t-251.5 24t-329.5 15q-7 -26 -12 -102.5t-6 -131t-1 -91.5v-204q135 0 254.5 4.5t170.5 8.5t157 12l7 -7 q-7 -32 -7 -91q0 -61 7 -94l-7 -7q-114 12 -292 18t-290 6v-247q0 -317 24 -492l-5 -7q-108 7 -192 7q-38 0 -90 -2t-85 -3l-33 -2z" />
<glyph unicode="G" horiz-adv-x="1850" d="M127 755q0 206 77 377t216 282q132 106 264.5 155t310.5 49q84 0 175.5 -11.5t162 -28t129 -33t89.5 -28.5l32 -11l5 -7q-22 -93 -32.5 -160t-17.5 -159l-73 -3q-48 98 -132 167.5t-178.5 102.5t-193.5 33q-97 0 -172.5 -33t-125 -91t-81.5 -143.5t-45.5 -185.5 t-13.5 -223q0 -99 18.5 -196.5t58.5 -187.5t97 -158.5t139 -110t179 -41.5q110 0 180.5 19t129.5 75v84q0 283 -25 467l4 7q118 -7 202 -7q38 0 83 1.5t71 3.5l26 2l2 -7q-9 -67 -14.5 -127t-8 -128.5t-2.5 -162.5q0 -102 25 -133v-7q-123 -104 -318 -162.5t-411 -58.5 q-150 0 -260.5 33t-222.5 109q-160 107 -254.5 278.5t-94.5 358.5z" />
<glyph unicode="H" horiz-adv-x="1876" d="M199 0q29 200 29 492v601q0 282 -29 492l5 7q118 -7 202 -7q38 0 89 2t83 4l32 1l2 -7q-30 -204 -30 -492v-201h713v201q0 282 -29 492l5 7q118 -7 201 -7q39 0 90 2t83 4l31 1l3 -7q-30 -204 -30 -492v-601q0 -273 30 -492l-5 -7q-118 7 -202 7q-38 0 -89 -2t-83 -3 l-32 -2l-2 7q29 200 29 492v272h-713v-272q0 -273 30 -492l-5 -7q-118 7 -201 7q-39 0 -90 -2t-83 -3l-31 -2z" />
<glyph unicode="I" horiz-adv-x="810" d="M199 0q29 200 29 492v601q0 282 -29 492l5 7q118 -7 202 -7q38 0 89 2t83 4l32 1l2 -7q-30 -204 -30 -492v-601q0 -273 30 -492l-5 -7q-118 7 -201 7q-39 0 -90 -2t-83 -3l-31 -2z" />
<glyph unicode="J" horiz-adv-x="921" d="M-125 -464q21 34 43.5 138.5t22.5 158.5l71 15q26 -47 87 -94t124 -47q40 0 69.5 38t43 90t13.5 106q0 95 -2.5 246.5t-2.5 192.5v713q0 308 -25 492l5 7q118 -7 202 -7q38 0 86.5 2t78.5 4l29 1l2 -7q-9 -61 -14 -149t-6.5 -154.5t-3.5 -188.5q-3 -257 -3 -458t3 -347 q1 -24 1 -46q0 -175 -35 -288q-38 -128 -120 -224q-96 -111 -226.5 -167.5t-256.5 -56.5q-40 0 -105 7t-78 15z" />
<glyph unicode="K" horiz-adv-x="1749" d="M199 0q29 200 29 492v601q0 282 -29 492l5 7q118 -7 202 -7q38 0 89 2t83 4l32 1l2 -7q-30 -204 -30 -492v-223h2q11 0 29.5 5.5t30.5 16.5q52 45 110.5 102.5t104 105t112.5 122t104 117.5t112.5 130t107.5 123q32 -7 194 -7q184 0 223 7q-11 -9 -34 -30 q-94 -82 -149.5 -131t-157 -140.5t-169.5 -155.5t-142 -138t-119 -127v-5l797 -872q-47 7 -251 7q-184 0 -226 -7q-77 96 -226.5 286t-251.5 316.5t-147 171.5q-9 8 -27 12.5t-27 4.5v-292q0 -273 30 -492l-5 -7q-118 7 -201 7q-39 0 -90 -2t-83 -3l-31 -2z" />
<glyph unicode="L" horiz-adv-x="1444" d="M226 1585l6 7q109 -7 193 -7q38 0 89 2t83 4l32 1l2 -7q-24 -163 -24 -492v-577q0 -36 1 -89t6 -127t12 -101q147 0 322.5 13.5t278.5 27.5l103 13l4 -9q-4 -39 -4 -141q0 -33 4 -103l-4 -7q-60 7 -148 7h-748q-37 0 -87.5 -2t-82.5 -3l-32 -2l-4 7q25 175 25 492v601 q0 290 -27 492z" />
<glyph unicode="M" horiz-adv-x="2263" d="M71 -7q212 943 325 1611h251q126 -337 237 -604.5t244 -537.5h10l614 1142h218q99 -933 195 -1611q-37 7 -179 7q-155 0 -192 -7q-66 774 -113 1163h-7q-190 -347 -327 -613t-259 -543h-157q-207 582 -467 1153l-7 3q-31 -190 -60.5 -411t-50 -423.5t-24.5 -328.5 q-28 7 -137 7q-87 0 -114 -7z" />
<glyph unicode="N" horiz-adv-x="1837" d="M197 0q25 175 39 492l12 601q1 46 1 92q0 209 -26 400l5 7q90 -7 148 -7q19 0 49.5 2t50.5 4l21 1q202 -266 453 -559.5t485 -540.5h7v601q-8 326 -31 492l5 7q63 -7 122 -7q25 0 55 2t48 4l17 1l5 -7q-24 -163 -24 -492l-14 -1100q-60 7 -119 7q-55 0 -137 -7 q-344 441 -937 1125h-14l-10 -626q-2 -73 -2 -145q0 -61 2 -121q2 -132 14 -226l-4 -7q-49 7 -108 7q-25 0 -52.5 -2t-42.5 -3l-16 -2z" />
<glyph unicode="O" horiz-adv-x="1963" d="M127 762q0 179 63 336.5t173.5 272t269.5 181t343 66.5q194 0 354.5 -58.5t272 -163.5t172.5 -255.5t61 -331.5q0 -147 -38.5 -275.5t-112.5 -230.5t-177.5 -175.5t-238.5 -112.5t-291 -39q-181 0 -338.5 58.5t-270 161t-177.5 249.5t-65 317zM523 804q0 -173 37 -306.5 t104.5 -217.5t159 -127t203.5 -43q140 0 231.5 71.5t136.5 215.5t45 365q0 257 -52.5 415t-161 231.5t-283.5 73.5q-420 0 -420 -678z" />
<glyph unicode="P" horiz-adv-x="1468" d="M199 0q29 200 29 492v601q0 282 -29 492l5 7q118 -7 202 -7q37 0 220 8.5t214 8.5q277 0 396 -83q49 -34 84.5 -78t54 -88t26.5 -83t8 -76q0 -79 -20 -151.5t-66.5 -141t-115 -118.5t-173.5 -80t-235 -30q-141 0 -222 25v-206q0 -273 30 -492l-5 -7q-113 7 -196 7 q-39 0 -90 -2t-83 -3l-31 -2zM577 823q22 -11 81.5 -17.5t113.5 -6.5q55 0 101.5 20.5t84 61.5t58.5 109.5t21 159.5q0 85 -14 146.5t-36.5 97.5t-58 56.5t-71 27t-83.5 6.5q-44 0 -76 -2.5t-53.5 -9.5t-35 -15t-20.5 -21.5t-9.5 -26.5t-2.5 -33v-553z" />
<glyph unicode="Q" horiz-adv-x="1963" d="M127 762q0 179 63 336.5t173.5 272t269.5 181t343 66.5q194 0 354.5 -58.5t272 -163.5t172.5 -255.5t61 -331.5q0 -239 -100.5 -425.5t-284.5 -292.5q6 -3 41 -24t46 -27.5t45.5 -26.5t51 -29t51 -27.5t57 -29t56.5 -27t62 -28t62.5 -24.5t67.5 -24v-16 q-229 -120 -281 -162q-86 49 -154 95.5t-105.5 77t-108.5 77t-166 97.5q-97 -17 -198 -17q-181 0 -338.5 58.5t-270 161t-177.5 249.5t-65 317zM523 804q0 -173 37 -306.5t104.5 -217.5t159 -127t203.5 -43q140 0 231.5 71.5t136.5 215.5t45 365q0 257 -52.5 415t-161 231.5 t-283.5 73.5q-420 0 -420 -678z" />
<glyph unicode="R" horiz-adv-x="1687" d="M223 0q30 208 30 492v601q0 273 -30 492l5 7q123 -7 206 -7q38 0 221 8.5t213 8.5q94 0 162.5 -5t146 -24t131.5 -54q160 -104 160 -332q0 -319 -376 -414q65 -87 266 -391t269 -382l-5 -7q-49 7 -229 7q-145 0 -192 -7q-20 61 -91 181.5t-167 257.5q-22 31 -92 140 t-109 158q-96 -3 -140 -3v-235q0 -317 24 -492l-4 -7q-113 7 -197 7q-39 0 -88.5 -2t-80.5 -3l-30 -2zM602 865h132q61 0 96 1.5t78 8t66 19.5t48 35.5t37 57t19.5 83.5t7.5 114q0 61 -7.5 108t-18 78t-32 52.5t-39.5 32.5t-50.5 17t-55 7t-62.5 1q-64 0 -107.5 -8.5 t-67.5 -25.5t-34 -37.5t-10 -48.5v-495z" />
<glyph unicode="S" horiz-adv-x="1332" d="M66 94q29 108 49 300l65 2q44 -67 118 -133.5t163 -113t161 -46.5q229 0 229 253q0 72 -61.5 141.5t-153.5 116.5q-7 4 -21 11q-56 29 -87.5 45.5t-87.5 49.5t-93.5 60.5t-80.5 66.5t-74 79q-77 99 -77 266q0 94 44 175.5t118 135.5t170 84.5t200 30.5q84 0 166.5 -11.5 t140 -28t103 -33t68.5 -28.5l22 -11l6 -7q-27 -93 -49 -294l-74 -4q-26 49 -63 97.5t-83.5 94.5t-102 74.5t-108.5 28.5q-65 0 -117 -34t-79 -88t-27 -115q0 -38 7.5 -70.5t18.5 -57.5t31 -48t38.5 -38.5t48 -33t51 -28.5t56.5 -27q55 -25 90.5 -42.5t91.5 -49t93.5 -59 t81 -68t69 -81t43 -92t17.5 -107.5q0 -94 -41.5 -181t-116 -153.5t-186 -106.5t-243.5 -40q-84 0 -169.5 11.5t-147.5 27.5t-111.5 32.5t-75.5 27.5l-25 11z" />
<glyph unicode="T" horiz-adv-x="1478" d="M37 1349q4 28 4 106.5t-4 129.5l5 7q59 -7 148 -7h1100q88 0 148 7l4 -7q-3 -51 -3 -129.5t3 -106.5l-4 -10q-4 1 -11 3t-31.5 7.5t-52 11t-72 11.5t-92 10.5t-112 7.5t-131.5 3q-6 -20 -10 -67t-6 -101.5t-2.5 -92t-0.5 -60.5v-580q0 -317 24 -492l-5 -7q-113 7 -197 7 q-24 0 -53.5 -0.5t-54 -2t-45.5 -2.5t-33 -1l-12 -1l-2 7q24 166 24 492v580q0 23 -1 60.5t-2.5 92t-6 101.5t-9.5 67q-92 0 -178 -5.5t-142 -13.5t-99 -16t-63 -13l-20 -6z" />
<glyph unicode="U" horiz-adv-x="1766" d="M187 1585l5 7q107 -7 191 -7q38 0 89 2t83 4l32 1l3 -7q-25 -171 -25 -492v-432q0 -45 3 -87.5t13 -97t25.5 -100.5t43.5 -91.5t65.5 -77.5t93 -51.5t122.5 -19.5q75 0 135.5 16t102.5 43t74 68.5t51 86.5t30.5 102.5t15.5 111t4 116.5v413q0 317 -24 492l5 7 q65 -7 125 -7q11 0 24 0.5t25 1t23.5 1.5t21 1.5t17 1.5t11.5 1h4l2 -7q-25 -171 -25 -492v-368q0 -141 -23 -255t-74 -207t-129 -156t-190.5 -97t-256.5 -34q-60 0 -118.5 7t-126 25.5t-127 47t-115 76t-95 108.5t-63.5 148.5t-24 191.5v513q0 317 -24 492z" />
<glyph unicode="V" horiz-adv-x="1651" d="M40 1592q42 -7 248 -7q144 0 186 7q134 -472 421 -1153q82 190 134.5 313t122.5 294.5t118.5 307.5t75.5 238q30 -7 143 -7q88 0 118 7q-33 -71 -121 -264t-127.5 -279t-116 -254t-125.5 -278.5t-113.5 -256t-121.5 -277.5h-169q-76 182 -235.5 572.5t-271.5 658.5 t-166 378z" />
<glyph unicode="W" horiz-adv-x="2563" d="M40 1592q42 -7 248 -7q132 0 174 7q16 -55 64.5 -190t163 -424t258.5 -622q206 478 274 644q-177 451 -246 592q42 -7 199 -7q194 0 236 7q1 -1 18 -65.5t32.5 -120t50 -166.5t72.5 -220.5t97 -264.5t126 -316q111 253 181 419t152.5 383.5t117.5 350.5q30 -7 126 -7 q105 0 135 7q-33 -71 -121 -264t-127.5 -279t-116 -254t-125.5 -278.5t-113.5 -256t-121.5 -277.5h-169q-113 269 -313 783l-353 -783h-222q-542 1293 -697 1609z" />
<glyph unicode="X" horiz-adv-x="1651" d="M28 -7q225 298 595 779q-219 322 -586 820q47 -7 268 -7q152 0 201 7q92 -170 332 -518q9 -12 12.5 -16.5t8.5 -8t8.5 -2t8.5 6.5q132 171 203 274.5t169 263.5q30 -7 163 -7q112 0 142 7q-36 -44 -134.5 -163.5t-209.5 -257.5t-215 -273q52 -76 166 -238t234.5 -335 t230.5 -332q-49 7 -216 7q-213 0 -262 -7q-210 359 -381 623q-9 17 -20 4q-237 -330 -417 -627q-30 7 -130 7q-141 0 -171 -7z" />
<glyph unicode="Y" horiz-adv-x="1604" d="M40 1592q42 -7 240 -7q150 0 192 7q43 -86 98 -185t94 -165.5t110 -186.5t104 -177q244 387 402 714q30 -7 143 -7q83 0 115 7q-63 -96 -148.5 -226.5t-132 -201t-100.5 -155t-91.5 -146t-67.5 -115.5q1 -207 6.5 -437.5t13.5 -317.5q-40 7 -204 7q-162 0 -202 -7 q17 159 17 683q-62 106 -275.5 436t-313.5 480z" />
<glyph unicode="Z" horiz-adv-x="1584" d="M5 2q16 21 37.5 53.5t25.5 38.5l963 1338l-883 -53l-5 7q5 38 5 106q0 24 -5 93l5 7q59 -7 150 -7h896q59 0 169.5 5t140.5 10q15 0 15 -15q0 -19 -16.5 -47t-57.5 -86q-270 -373 -598 -827q-250 -345 -293 -405t-43 -65q66 0 155.5 2.5t180.5 7.5t185.5 10.5t176 11 t146.5 10t102 7.5l37 2l5 -7q-5 -38 -5 -105q0 -24 5 -94l-5 -7q-59 7 -174 7h-942l-366 -7z" />
<glyph unicode="[" horiz-adv-x="1004" d="M270 -472v2200h647v-96q-67 -5 -114.5 -10t-90.5 -13.5t-70.5 -18t-51 -25.5t-36.5 -34t-22.5 -45t-12.5 -57.5t-3 -72.5v-1457q0 -56 5.5 -93t23.5 -67.5t43.5 -48t74 -31.5t106 -22t148.5 -15v-94h-647z" />
<glyph unicode="\" horiz-adv-x="769" d="M28 1716h171l565 -1834h-171z" />
<glyph unicode="]" horiz-adv-x="1004" d="M89 -376q89 7 147 14t106 21t74 31.5t44 48t24 67.5t6 93v1457q0 56 -6 93t-23.5 67.5t-43.5 48.5t-74 32t-106 22t-148 15v94h645v-2200h-645v96z" />
<glyph unicode="^" horiz-adv-x="1272" d="M251 851l312 746h152l310 -746h-190l-199 547l-198 -547h-187z" />
<glyph unicode="_" horiz-adv-x="1194" d="M12 -253h1172v-150h-1172v150z" />
<glyph unicode="`" horiz-adv-x="962" d="M228 1625l6 26q20 22 82.5 50.5t121.5 28.5q30 0 49 -4l169 -305q22 -38 22 -65q0 -15 -20.5 -26.5t-38.5 -11.5q-38 0 -93 49z" />
<glyph unicode="a" horiz-adv-x="1267" d="M84 241q0 124 99.5 215.5t278.5 133.5l288 76q14 5 14 30q0 137 -42 193.5t-127 56.5q-82 0 -160.5 -50.5t-141.5 -143.5l-82 3l-49 183l7 11q48 42 198 86t275 44q98 0 193 -25t150 -74q52 -46 75.5 -117.5t23.5 -182.5q0 -8 -5 -225t-5 -258q0 -24 6.5 -40.5t17.5 -26 t31.5 -14.5t41 -6.5t53.5 -1.5q18 -15 24 -52q-52 -39 -132.5 -59.5t-159 -20.5t-123.5 33t-71 109h-5q-76 -76 -164.5 -109t-172.5 -33q-88 0 -163.5 30t-124 92t-48.5 143zM413 263q0 -52 37.5 -96.5t90.5 -44.5q97 0 181 84q14 14 26 50t12 61l4 229l-196 -52 q-45 -11 -76.5 -36.5t-48 -58.5t-23.5 -66.5t-7 -69.5z" />
<glyph unicode="b" horiz-adv-x="1440" d="M182 1627l5 7q69 5 187 33.5t170 48.5q21 0 21 -25q-30 -236 -30 -462v-286q106 79 181 107.5t159 28.5q101 0 183.5 -29t153.5 -94q66 -60 100 -154.5t34 -206.5q0 -158 -56 -283.5t-150 -205.5q-151 -130 -368 -130q-192 0 -237 19q-28 12 -73 22.5t-66 10.5 q-20 0 -93.5 -27t-84.5 -29q-10 3 -26 14q8 38 13.5 150.5t5.5 192.5v836q0 306 -29 462zM535 265q0 -54 9.5 -85.5t33.5 -47.5q52 -34 179 -34q130 0 186 117q54 109 54 331q0 179 -59 272.5t-171 93.5q-47 0 -96 -21.5t-136 -84.5v-541z" />
<glyph unicode="c" horiz-adv-x="1159" d="M103 497q0 113 31.5 208.5t87 163.5t131.5 116t166 71t189 23q59 0 131.5 -12.5t134.5 -31t100 -38.5l5 -7l-59 -238l-68 -2q-83 206 -222 206q-66 0 -124 -31t-94 -87q-60 -96 -60 -278q0 -103 20 -188.5t54 -139.5q21 -35 58 -66t79 -49.5t76 -18.5q82 0 161 29.5 t127 88.5l40 -12q0 -50 12 -96q-84 -71 -175.5 -101.5t-230.5 -30.5q-137 0 -253.5 42.5t-183.5 114.5q-133 145 -133 364z" />
<glyph unicode="d" horiz-adv-x="1452" d="M108 499q0 142 51.5 264.5t159.5 201.5q87 63 166.5 88.5t199.5 25.5q36 0 80.5 -13.5t87 -39.5t64.5 -58v197q0 299 -30 462l5 7q46 4 120 19.5t136.5 32.5t94.5 30q12 0 20 -6.5t8 -18.5q-30 -236 -30 -462v-757q0 -215 47 -472l-5 -7q-49 7 -171 7q-91 0 -156 -7 q-22 0 -22 7l-12 133h-5q-91 -157 -352 -157q-134 0 -238.5 67.5t-161.5 186.5t-57 269zM457 544q0 -426 221 -426q52 0 93 19t79 66t67 123v419q-13 63 -46.5 111t-82 74t-105.5 26q-27 0 -50.5 -5t-46.5 -18.5t-42 -34.5t-35.5 -53t-27.5 -74.5t-17.5 -100t-6.5 -126.5z " />
<glyph unicode="e" horiz-adv-x="1248" d="M86 506q0 284 201 450q47 40 110.5 68t131.5 41.5t137 13.5q110 0 193 -29t134 -77t82.5 -120.5t43 -150.5t11.5 -176l-14 -15q-210 5 -456 5h-245q0 -169 82 -258q89 -96 267 -96q47 0 82.5 3t81 12.5t89.5 31t85 54.5q16 0 27 -24.5t11 -51.5q-183 -211 -486 -211 q-291 0 -413 127q-75 78 -115 185t-40 218zM425 626h384q0 160 -42 245t-118 85q-93 0 -149 -74q-63 -87 -75 -256z" />
<glyph unicode="f" horiz-adv-x="898" d="M42 943q32 51 54 119q60 -7 132 -7v73q0 113 45 223t125 195q163 170 437 170q53 0 110.5 -12t74.5 -23l2 -7q-15 -36 -32.5 -115.5t-23.5 -132.5l-74 -3q-15 53 -59.5 88t-98.5 35q-97 0 -151.5 -63.5t-54.5 -167.5q0 -26 9 -115t9 -121v-24h115q81 0 172 7l13 -20 q-25 -63 -30 -116q-43 5 -178 5h-92l7 -439q1 -29 2.5 -128.5t2.5 -139.5t4.5 -107t9.5 -117l-4 -7q-86 7 -170 7q-38 0 -84 -2t-73 -3l-27 -2l-3 7q17 125 17 492v439q-118 0 -174 -5z" />
<glyph unicode="g" horiz-adv-x="1377" d="M79 -305q0 123 54 192q28 17 103.5 51.5t103.5 51.5q-195 29 -195 192q0 59 64.5 121t149.5 91l5 12q-62 19 -98 44q-27 19 -48 39.5t-41.5 50t-32 70.5t-11.5 91q0 115 66 202t175 131.5t243 44.5q41 0 93 -6t84 -16q67 4 228.5 10t227.5 12l9 -7q-9 -38 -9 -71 q0 -30 9 -67l-9 -8q-30 3 -118.5 12t-129.5 10q56 -38 91 -105t35 -133q0 -112 -64 -195t-175.5 -125.5t-254.5 -42.5q-121 0 -185 26q-19 -28 -24 -51.5t-5 -58.5q0 -20 3 -36t9.5 -27.5t14.5 -20.5t19 -14.5t21.5 -9.5t24 -6t25.5 -3t26 -1q5 0 9 1t13.5 2t24.5 2 q94 12 154 12q53 0 101.5 -3.5t104 -13t101.5 -24.5t90 -41t74.5 -59.5t48.5 -81.5t18 -106q0 -95 -71 -183t-183 -143q-186 -91 -495 -91q-69 0 -133.5 8t-127.5 28.5t-109.5 51.5t-75 80t-28.5 111zM371 -256q0 -40 12.5 -73.5t34 -57t47.5 -41t54.5 -27t54 -14.5t48.5 -5 q159 0 260 69.5t101 181.5q0 31 -7 56.5t-21.5 43.5t-31.5 32t-41 22.5t-46.5 14t-52 8t-52.5 3.5t-53 1q-12 0 -71.5 -1t-100.5 -1q-25 0 -56 4q-45 -46 -62 -97.5t-17 -118.5zM460 713q0 -48 2.5 -82.5t9 -66.5t19 -52.5t31.5 -36.5t46.5 -23t65.5 -7q87 0 127.5 65.5 t40.5 197.5q0 74 -7 121t-25.5 83.5t-53.5 52t-90 15.5q-46 0 -79 -18.5t-52 -54.5t-27 -83.5t-8 -110.5z" />
<glyph unicode="h" horiz-adv-x="1489" d="M182 0q29 186 29 443v722q0 306 -29 462l5 7q69 5 184 33t168 49q21 0 21 -25q-25 -199 -25 -462v-153l-9 -213l9 -5q54 69 131 120.5t151.5 76t138.5 24.5q161 0 239 -96t78 -268v-272q0 -157 4.5 -251t19.5 -192l-5 -7q-66 7 -150 7q-38 0 -89.5 -2t-84.5 -3l-32 -2 l-2 7q15 142 15 443v218q0 228 -128 228q-66 0 -140.5 -51.5t-145.5 -143.5v-251q0 -260 16 -443l-5 -7q-82 7 -166 7q-38 0 -87 -2t-79 -3l-29 -2z" />
<glyph unicode="i" horiz-adv-x="765" d="M197 0q24 166 24 443v134q0 343 -24 475l7 10q86 -7 174 -7q86 0 170 12q22 0 22 -25q-24 -227 -24 -437v-162q0 -268 24 -443l-5 -7q-68 7 -182 7q-121 0 -181 -7zM209 1492q0 46 22.5 84.5t62.5 61.5t89 23q73 0 124 -49.5t51 -120t-51 -120t-124.5 -49.5t-123.5 49.5 t-50 120.5z" />
<glyph unicode="j" horiz-adv-x="859" d="M-86 -544q13 49 13 279l66 17q20 -38 65.5 -72t91.5 -34q22 0 41 10.5t33.5 32t26.5 46t20.5 63t14.5 71t10 81.5t6.5 83.5t4 87.5t2 83.5t1.5 81.5l2 291v46q0 296 -24 429l7 10q17 0 49 -2t64.5 -3.5t60.5 -1.5q53 0 169 12q23 0 23 -25l-4 -48t-3.5 -47.5t-3 -43 t-3.5 -46t-2.5 -43t-2.5 -48.5t-2 -48t-1 -55.5t-1 -57.5l-4 -534q-2 -293 -120 -460q-39 -55 -109 -97.5t-147 -63t-150 -20.5q-39 0 -109.5 6.5t-82.5 12.5zM300 1491.5q0 70.5 50.5 120t124 49.5t124 -49.5t50.5 -120t-50.5 -120t-124 -49.5t-124 49.5t-50.5 120z" />
<glyph unicode="k" horiz-adv-x="1429" d="M182 0q29 186 29 492v673q0 306 -29 462l5 7q69 5 184 33t168 49q26 0 26 -25q-30 -236 -30 -462v-616q29 3 61.5 13t50.5 23q70 54 159 167t165 239q338 0 385 7l6 -7q-73 -55 -149 -117t-141 -119.5t-119 -109.5t-88 -90q160 -194 273 -320.5t276 -298.5l-5 -7 q-33 7 -256 7q-141 0 -197 -7q-68 122 -118 202t-105.5 152.5t-132.5 158.5q-19 17 -65 22v-36q0 -286 30 -492l-5 -7q-103 7 -187 7q-38 0 -85 -2t-75 -3l-28 -2z" />
<glyph unicode="l" horiz-adv-x="746" d="M182 0q29 186 29 492v673q0 306 -29 462l5 7q69 5 184 33t168 49q26 0 26 -25q-30 -236 -30 -462v-737q0 -286 30 -492l-5 -7q-103 7 -187 7q-38 0 -85 -2t-75 -3l-28 -2z" />
<glyph unicode="m" horiz-adv-x="2191" d="M167 0q30 208 30 443v134q0 328 -28 478l5 7q80 -3 143 -3q113 0 175 10q11 0 15.5 -5.5t6.5 -19.5q7 -41 7 -179l9 -7q73 93 176.5 157t191.5 64q65 0 115 -9t84 -24.5t60.5 -41.5t43.5 -54t33 -68q187 197 391 197q78 0 138 -17.5t100.5 -49.5t65.5 -81t36 -108 t11 -135v-245q0 -232 29 -443l-5 -7q-95 7 -178 7q-25 0 -54 -0.5t-53.5 -2t-45 -2.5t-32.5 -1l-12 -1l-3 7q29 200 29 443v228q0 218 -134 218q-74 0 -128.5 -30.5t-140.5 -126.5q2 -30 2 -73v-216q0 -224 30 -443l-4 -7q-97 7 -180 7q-39 0 -88 -2t-78 -3l-30 -2l-2 7 q28 200 28 443v247q0 61 -9 100.5t-28.5 61t-44.5 29.5t-63 8q-95 0 -260 -199v-247q0 -259 25 -443l-5 -7q-98 7 -182 7q-39 0 -86 -2t-76 -3l-28 -2z" />
<glyph unicode="n" horiz-adv-x="1473" d="M169 0q28 179 28 443v134q0 328 -28 478l5 7q80 -3 143 -3q113 0 175 10q11 0 15.5 -5.5t6.5 -19.5q7 -41 7 -179l9 -7q83 106 186.5 163.5t200.5 57.5q170 0 256 -87.5t86 -276.5v-272q0 -148 5.5 -245t20.5 -198l-5 -7q-108 7 -192 7q-38 0 -79 -2t-63 -3l-22 -2l-5 7 q7 62 10.5 137.5t4 132t0.5 173.5v218q0 228 -128 228q-44 0 -92.5 -23.5t-97 -67t-95.5 -104.5v-251q0 -275 14 -443l-7 -7q-69 7 -152 7q-25 0 -54.5 -0.5t-54.5 -2t-46.5 -2.5t-34.5 -1l-12 -1z" />
<glyph unicode="o" horiz-adv-x="1390" d="M101 504q0 112 28.5 205.5t81 161.5t127 115t166 70t197.5 23q122 0 220.5 -28t166.5 -77.5t114 -119.5t67 -152t21 -176q0 -257 -157 -403.5t-437 -146.5q-275 0 -435 142t-160 386zM450 560q0 -35 1 -65.5t5 -68.5t10 -70t16.5 -66.5t25 -61.5t36 -52t47.5 -41.5 t61.5 -26.5t77.5 -10q35 0 64.5 10.5t57 36t47 65.5t31 103.5t11.5 146.5q0 89 -4.5 155.5t-16 124.5t-30.5 96.5t-47.5 66.5t-68 40.5t-91.5 12.5q-44 0 -79.5 -11t-59.5 -29.5t-41.5 -48.5t-27.5 -61t-15.5 -74t-7.5 -81.5t-2 -90.5z" />
<glyph unicode="p" horiz-adv-x="1437" d="M169 1055l5 7q80 -3 143 -3q113 0 175 10q11 0 15.5 -5.5t6.5 -19.5q7 -41 7 -157l9 -7q43 58 94.5 99.5t103 62t96 29t88.5 8.5q157 0 250 -79q172 -150 172 -423q0 -128 -42.5 -240t-116 -191t-175.5 -124.5t-216 -45.5q-155 0 -263 68v-123q0 -318 25 -491l-5 -7 q-101 7 -185 7q-24 0 -51.5 -0.5t-50 -2t-41 -2.5t-29.5 -1l-10 -1l-2 7q25 163 25 491v656q0 328 -28 478zM521 187q43 -36 84 -56.5t70.5 -26.5t63.5 -6q107 0 176.5 111t69.5 302q0 95 -8.5 163.5t-29 123t-58 82t-92.5 27.5q-43 0 -96 -25t-104 -75.5t-76 -112.5v-507z " />
<glyph unicode="q" horiz-adv-x="1461" d="M133 509q0 121 41 225.5t115 181t181.5 120t235.5 43.5q82 0 286 -15q77 -5 161 -5q65 0 135 3l4 -7q-26 -144 -26 -478v-656q0 -326 24 -491l-5 -7q-95 7 -179 7q-38 0 -85 -2t-74 -3l-28 -2l-2 7q24 155 24 491v173q-140 -118 -297 -118q-130 0 -215.5 27t-151.5 98 t-105 176.5t-39 231.5zM481 546q0 -103 14.5 -180t38.5 -123t60 -74.5t73 -38.5t83 -10q60 0 191 101v681q-52 33 -103.5 43.5t-134.5 10.5q-62 0 -106.5 -30.5t-69 -88t-35.5 -128.5t-11 -163z" />
<glyph unicode="r" horiz-adv-x="1034" d="M192 1055l5 7q79 -3 142 -3q112 0 175 10q11 0 15 -5.5t6 -19.5q7 -41 7 -179l11 -7q20 30 44.5 59.5t55 59.5t62 52t67.5 36t69 14q66 0 125 -17l9 -10l-49 -253l-44 -5q-59 46 -142 46q-15 0 -36 -4t-52.5 -18t-56.5 -36.5t-43 -64.5t-18 -95v-179q0 -267 24 -443 l-5 -7q-118 7 -202 7q-38 0 -79 -2t-63 -3l-22 -2l-3 7q24 167 24 443v134q0 334 -26 478z" />
<glyph unicode="s" horiz-adv-x="1029" d="M94 42l39 235l73 3q52 -101 122 -148.5t141 -47.5q24 0 39.5 0.5t35 3t32 7.5t25.5 13.5t20.5 21t12 31.5t4.5 43q0 72 -46.5 118.5t-185.5 122.5q-48 26 -82 48.5t-70 53.5t-58 64t-36.5 76.5t-14.5 93.5q0 92 58.5 161t151.5 103t205 34q90 0 184 -18t143 -46l5 -7 l-46 -222l-67 -2q-15 31 -33 58.5t-45.5 58.5t-65 49t-79.5 18q-35 0 -59.5 -8.5t-37.5 -25.5t-19 -37.5t-6 -48.5t11 -52t34 -44.5t45.5 -35t57.5 -33.5q17 -9 51.5 -27t52 -27.5t48 -27.5t47 -30t41 -31.5t37.5 -36t29 -40t24 -47.5t13.5 -53.5t5.5 -62.5q0 -43 -11.5 -83 t-35 -76.5t-61 -66t-87 -52t-116 -34.5t-144.5 -12q-79 0 -185 16t-197 50z" />
<glyph unicode="t" horiz-adv-x="868" d="M35 943q32 51 54 119q60 -7 132 -7q0 162 11 247l4 8q34 8 79.5 24t80 30.5t75.5 32.5t57 24q23 0 23 -25q-12 -146 -12 -341h115q80 0 172 7l12 -20q-24 -59 -29 -116q-43 5 -178 5h-92l-6 -263q-3 -147 -3 -346q0 -54 9 -96.5t30 -71t53 -28.5q52 0 78 4.5t64 24.5 q21 -12 31.5 -37.5t10.5 -56.5q-141 -85 -361 -85q-56 0 -103 21t-75.5 56t-44.5 77t-16 86q0 131 8 426l7 289q-118 0 -174 -5z" />
<glyph unicode="u" horiz-adv-x="1452" d="M160 1055l4 7q89 -7 173 -7q39 0 84.5 1.5t72.5 3.5l27 2l2 -7q-13 -140 -19 -443l-5 -221v-14q0 -49 6 -87q7 -42 19.5 -66t32 -38t38.5 -18t43 -4q42 0 90 19.5t89.5 52t69 80.5t27.5 99v197q0 117 -0.5 173t-4 130t-11.5 140l4 7q83 -7 167 -7q39 0 86 1.5t76 3.5 l28 2l2 -7q-10 -63 -15 -136t-6.5 -135t-1.5 -172v-140q0 -241 42 -472l-4 -7q-49 7 -182 7q-75 0 -140 -7q-23 0 -23 7l-12 157h-5q-49 -52 -107 -90t-114 -56.5t-102.5 -26.5t-88.5 -8q-71 0 -128 18.5t-94 50t-61.5 75t-34.5 90.5q-10 43 -10 91v9l6 302v50 q0 191 -20 393z" />
<glyph unicode="v" horiz-adv-x="1351" d="M49 1062q40 -7 214 -7q150 0 182 7q125 -394 277 -760l16 -1q78 139 164.5 351t154.5 410q22 -7 106 -7q117 0 139 7q-358 -678 -538 -1069q-30 7 -103 7q-94 0 -135 -7q-94 244 -207 493.5t-270 575.5z" />
<glyph unicode="w" horiz-adv-x="1992" d="M44 1060q35 -8 216 -8q128 0 158 8q119 -412 274 -815h15q122 263 225 539q-66 159 -118 278q52 -7 204 -7q124 0 169 7q89 -397 216 -792h11q80 172 162.5 384.5t144.5 407.5q19 -7 108 -7q101 0 120 7q-218 -472 -474 -1069q-19 7 -108 7q-107 0 -129 -7 q-112 318 -229 603q-171 -373 -272 -606q-19 8 -113 8q-108 0 -130 -8q-147 390 -450 1070z" />
<glyph unicode="x" horiz-adv-x="1311" d="M49 1062q40 -7 239 -7q137 0 179 7q89 -148 228 -340q155 203 251 340q27 -7 163 -7q83 0 110 7l-404 -468l36 -46q156 -224 413 -555q-38 7 -173 7q-198 0 -235 -7q-86 134 -262 380q-210 -294 -268 -380q-24 7 -132 7q-111 0 -135 -7l402 506l7 10l-11 14z" />
<glyph unicode="y" horiz-adv-x="1323" d="M49 1062q35 -7 216 -7q123 0 155 7q129 -397 290 -755l22 -2q149 332 283 757q24 -7 141 -7q96 0 120 7q-65 -131 -207 -431t-315 -687.5t-215 -525.5q-16 5 -57.5 8.5t-63.5 3.5q-27 0 -84.5 -3.5t-73.5 -8.5q200 330 298 558l-29 44q-101 268 -480 1042z" />
<glyph unicode="z" horiz-adv-x="1189" d="M52 17q32 32 51 62l563 831q-122 -3 -252.5 -9.5t-199.5 -12.5l-69 -6l-5 7q5 39 5 87q0 14 -5 78l5 8q56 -7 138 -8h619q32 0 78.5 4t82 7.5t39.5 3.5q12 0 12 -15q-18 -21 -75 -102l-547 -807q131 1 281 7.5t234 13.5l84 6l5 -8q-5 -38 -5 -85q0 -14 5 -79l-5 -7 q-56 7 -137 7h-556l-342 -7z" />
<glyph unicode="{" horiz-adv-x="753" d="M19.5 606q-0.5 24 15.5 41q66 6 114 30.5t74.5 62t39 79.5t12.5 91l-15 452q-2 80 22.5 145t67.5 107t102.5 70.5t123 41t132.5 12.5q11 -11 11 -29.5t-11 -29.5q-25 -8 -41.5 -13.5t-40 -18t-39 -27.5t-33 -39.5t-26.5 -54.5t-14 -73.5t-3 -96.5l19 -407q2 -32 0.5 -61 t-7 -53.5t-13 -45.5t-18.5 -39t-24 -33.5t-30 -28.5t-35 -23.5t-39.5 -20t-43.5 -17.5t-48 -15v-10q66 -27 113 -58.5t82.5 -75t51 -102t11.5 -132.5l-19 -367q-4 -75 11 -138t43 -104t65 -64t78 -23q11 -11 11 -29.5t-11 -29.5q-79 0 -143.5 11t-124 38.5t-99.5 72 t-62 115.5t-19 164l15 418q4 117 -52.5 185.5t-187.5 84.5q-15 14 -15.5 38z" />
<glyph unicode="|" horiz-adv-x="589" d="M197 -570v2286h197v-2286h-197z" />
<glyph unicode="}" horiz-adv-x="753" d="M36 -493.5q0 18.5 11 29.5q25 7 41 13t40 18.5t39.5 27t32.5 38.5t26.5 54.5t14.5 74t3 95.5l-21 408q-3 65 7.5 115t31 85t55 61.5t73 43.5t91.5 32v10q-66 28 -112.5 59t-82 74.5t-51.5 102t-12 132.5l21 366q7 149 -52 239.5t-145 90.5q-11 11 -11 29.5t11 29.5 q65 0 120.5 -7.5t108.5 -25t93 -48t70 -74t44 -106t11 -140.5l-15 -417q-4 -118 53 -186.5t188 -83.5q15 -15 15.5 -39t-15.5 -40q-66 -6 -114.5 -30.5t-75 -62t-39 -80t-12.5 -90.5l15 -453q3 -80 -21.5 -145t-67.5 -107t-102.5 -70.5t-123 -40.5t-132.5 -12 q-11 11 -11 29.5z" />
<glyph unicode="~" horiz-adv-x="1102" d="M64 502q12 60 42 123.5t70.5 116.5t94 87t107.5 34q26 0 60.5 -13.5t56.5 -26t65 -39.5q31 -20 48 -30.5t43 -24t47.5 -20t40.5 -6.5t35 2.5t34.5 7.5t35 15.5t32.5 26t31.5 38.5t28.5 53l89 -40q-22 -74 -54.5 -133t-65 -93t-68 -56t-61.5 -29.5t-46 -7.5 q-30 0 -64 12.5t-59.5 28t-60.5 40.5q-56 38 -98.5 58.5t-83.5 20.5q-64 0 -121 -47.5t-100 -130.5z" />
<glyph unicode="&#xa2;" horiz-adv-x="1179" d="M172 673q0 118 37 213.5t102.5 159t152 101.5t188.5 47v227h108v-226q76 -6 158 -26.5t127 -44.5l5 -7l-54 -215l-61 -1q-68 168 -175 184v-771q69 3 135.5 30t107.5 77l35 -12q0 -31 12 -85q-65 -55 -132 -83t-158 -35v-236h-108v235q-115 6 -211 43t-151 98 q-118 130 -118 327zM486 731q0 -93 18 -170.5t48 -126.5q33 -54 100 -91v729q-73 -28 -112 -92q-54 -87 -54 -249z" />
<glyph unicode="&#xa3;" horiz-adv-x="1240" d="M40 40q0 35 40.5 67.5t113.5 66.5q32 23 56.5 52.5t41 60t28.5 70.5t18.5 75.5t10 85t4.5 88.5t1 95v41h-172q-10 0 -14 3t-4 12v54q0 20 17 36t51 16h122v31q0 104 24 182.5t68.5 138t121.5 127.5q102 88 219.5 122.5t254.5 34.5q67 0 116 -22l2 -7q-8 -13 -15 -30.5 t-12.5 -42.5t-8.5 -41.5t-8 -49t-7 -42.5l-54 -3q-2 4 -7 10q-14 22 -23 33t-24.5 26.5t-35 22.5t-43.5 7q-46 0 -88.5 -11.5t-81.5 -37.5t-66.5 -64.5t-42 -96.5t-9.5 -130l10 -157h299q21 0 21 -15v-74q0 -15 -20.5 -23.5t-45.5 -8.5h-254q0 -86 -15 -158.5t-34.5 -119.5 t-53 -92.5t-56 -67.5t-58.5 -53h13q87 0 149.5 -12t96.5 -29t62 -34t65 -28.5t87 -11.5q201 0 284 100l50 -44q-51 -98 -151.5 -157t-231.5 -59q-69 0 -122.5 16t-89 39.5t-71.5 46.5t-87.5 39t-116.5 16q-34 0 -57 -6.5t-32.5 -18.5t-13 -22.5t-3.5 -24.5q0 -46 -33.5 -72 t-86.5 -26q-42 0 -70 21.5t-28 55.5z" />
<glyph unicode="&#xa5;" d="M22 1414q46 -9 154 -9q141 0 188 9q62 -146 99.5 -229.5t98.5 -200t128 -224.5q37 55 70.5 112t71 134.5t57 118.5t67 148.5t62.5 140.5q32 -9 122 -9q66 0 101 9q-36 -58 -70 -112.5t-65.5 -106.5t-55.5 -92.5t-53 -89.5t-45.5 -77t-43.5 -75.5t-36.5 -64t-37 -64.5 t-31.5 -56h337q8 0 14 -4t6 -11v-66q0 -15 -19.5 -23.5t-42.5 -8.5h-300q0 -102 1 -155h341q5 0 9.5 -1.5t7.5 -5t3 -7.5v-65q0 -15 -19.5 -24.5t-42.5 -9.5h-296q3 -206 12 -302q-38 7 -148 7q-160 0 -197 -7q10 81 15 302h-327q-10 0 -12 2.5t-2 12.5v49q0 11 4.5 21.5 t18.5 19t36 8.5h283q0 27 0.5 78.5t0.5 76.5h-329q-10 0 -12 2.5t-2 11.5v49q0 12 4.5 22t18.5 19t36 9h246q-31 52 -204 357t-222 381z" />
<glyph unicode="&#xa8;" horiz-adv-x="980" d="M56 1482q0 68 46 115t112 47q68 0 115 -47t47 -115q0 -65 -47.5 -112.5t-114.5 -47.5q-65 0 -111.5 47.5t-46.5 112.5zM570 1482q0 68 47 115t115 47q65 0 111 -47t46 -115q0 -43 -21 -79.5t-57.5 -58.5t-78.5 -22q-45 0 -82 22t-58.5 58.5t-21.5 79.5z" />
<glyph unicode="&#xa9;" horiz-adv-x="1555" d="M84 752q0 141 55 269.5t148.5 221t222 147.5t269.5 55t269.5 -55t221 -147.5t147.5 -221t55 -269.5q0 -94 -24.5 -184t-69.5 -166t-109 -140t-140 -108.5t-166 -69.5t-184 -25q-142 0 -271 55t-222 148.5t-147.5 221.5t-54.5 268zM192 752q0 -95 29.5 -184t83.5 -161 t126 -126.5t162 -84t186 -29.5q118 0 226.5 46t187 124.5t125 187t46.5 228t-46 227.5t-124.5 186.5t-187 124.5t-227.5 46q-120 0 -229 -46t-187.5 -124.5t-124.5 -186.5t-46 -228zM406 739q0 90 34 164.5t91.5 121.5t131.5 72.5t155 25.5q59 0 100.5 -5.5t59.5 -12.5 t39.5 -13t44.5 -6l34 -192l-50 -10q-32 87 -83 122.5t-154 35.5q-33 0 -59 -5.5t-54 -23t-46.5 -47t-30.5 -81t-12 -121.5q0 -142 54 -218.5t174 -76.5q84 0 140 30t82 69l47 -38q-42 -64 -119 -110.5t-171 -46.5q-84 0 -156.5 22t-129.5 65.5t-89.5 115t-32.5 163.5z" />
<glyph unicode="&#xab;" horiz-adv-x="1363" d="M182 509v39q75 67 98 88t80.5 75t90 88t82.5 88t101 114q19 -6 41 -22.5t31 -32.5q-145 -277 -256 -418q111 -141 256 -418q-9 -16 -31 -32t-41 -22q-63 75 -116 132.5t-117.5 119t-97 91.5t-121.5 110zM644 509v39q89 80 121.5 110t97 91.5t117.5 119.5t116 132 q19 -6 41 -22.5t31 -32.5q-145 -277 -256 -418q111 -141 256 -418q-9 -16 -31 -32t-41 -22q-51 60 -101 114.5t-82.5 88t-90 87.5t-80.5 75t-98 88z" />
<glyph unicode="&#xad;" horiz-adv-x="844" d="M94 598q0 20 8.5 49t23.5 52t29 23h563q16 0 25 -18.5t9 -37.5q0 -8 -3.5 -23t-10.5 -32t-15 -32t-18.5 -25t-19.5 -10h-554q-15 0 -26 18t-11 36z" />
<glyph unicode="&#xae;" horiz-adv-x="1555" d="M84 752q0 141 55 269.5t148.5 221t222 147.5t269.5 55t269.5 -55t221 -147.5t147.5 -221t55 -269.5q0 -94 -24.5 -184t-69.5 -166t-109 -140t-140 -108.5t-166 -69.5t-184 -25q-142 0 -271 55t-222 148.5t-147.5 221.5t-54.5 268zM192 752q0 -95 29.5 -184t83.5 -161 t126 -126.5t162 -84t186 -29.5q118 0 226.5 46t187 124.5t125 187t46.5 228t-46 227.5t-124.5 186.5t-187 124.5t-227.5 46q-120 0 -229 -46t-187.5 -124.5t-124.5 -186.5t-46 -228zM476 410v35q0 15 28 15h29h7.5t6 1.5t4 3.5t2 5.5t0.5 8.5v536q0 27 -9 27l-40 -3 q-25 0 -25 16v31q86 12 327 12q53 0 95 -12t67.5 -31t42 -44.5t22.5 -49t6 -47.5q0 -35 -14 -67.5t-34.5 -53.5t-41 -36.5t-35.5 -22.5l-14 -7l118 -201q24 -41 46.5 -58.5t51.5 -17.5v-32q-32 -10 -56 -10q-56 0 -101.5 24t-66.5 70l-118 192q-14 7 -66 7v-225 q0 -7 0.5 -9.5t4.5 -4.5t12 -2h30q26 0 26 -15v-35q-132 5 -167 5zM708 760q21 0 34 0.5t34 3.5t34.5 8.5t29.5 17t25 27.5t15.5 41t6.5 56q0 67 -25 101t-86 34q-50 0 -68 -7v-282z" />
<glyph unicode="&#xb2;" horiz-adv-x="835" d="M82 889v5q0 61 42 120t159 166l118 100q19 18 34 36.5t24.5 33t16 35.5t10 33t5 36.5t1.5 34v37.5q0 32 -11 60.5t-28.5 47.5t-39 30.5t-42.5 11.5q-19 0 -36 -6.5t-28.5 -14.5t-26 -26t-22 -30t-23.5 -38.5t-24 -38.5l-68 2l-35 160l5 4q45 27 119 51.5t151 24.5 q145 0 238.5 -65t93.5 -175q0 -51 -16.5 -92t-44 -72t-77.5 -72l-159 -135q-27 -21 -58 -62t-31 -57h131q71 0 112.5 2t80.5 5.5t69 4.5q-3 -11 -6 -44t-3 -48q0 -31 9 -65q-120 5 -246 5q-85 0 -394 -5z" />
<glyph unicode="&#xb3;" horiz-adv-x="835" d="M56 964l38 134l68 4q10 -16 22.5 -39t20 -36t20.5 -29t27 -24t36 -14t52 -6q19 0 38 3.5t42.5 15.5t40.5 31.5t29 54.5t12 81q0 48 -15 80.5t-42 48.5t-56 22t-67 6q-45 0 -64 -2v77q236 11 236 183q0 54 -41.5 95t-88.5 41q-24 0 -43 -3.5t-34.5 -12t-26 -16t-22.5 -23 t-18.5 -25.5t-19.5 -32t-20 -33h-70l-34 135l6 5q36 28 118.5 53t177.5 25q318 0 318 -186q0 -86 -47.5 -143.5t-132.5 -83.5v-5q46 -3 85 -16.5t71.5 -37t51 -61.5t18.5 -86q0 -62 -31.5 -112.5t-86 -84t-128 -51t-159.5 -17.5q-172 0 -273 76z" />
<glyph unicode="&#xb4;" horiz-adv-x="837" d="M187 1268q0 30 19 59l204 322q15 5 40 5q51 0 99.5 -19.5t64.5 -39.5l24 -57l-294 -265q-23 -20 -53 -29.5t-52 -9.5q-7 0 -16 3t-17 8.5t-13.5 11.5t-5.5 11z" />
<glyph unicode="&#xb8;" horiz-adv-x="1328" d="M509 -474q0 46 32 77q56 -20 82.5 -27t60.5 -7q58 0 86.5 19.5t28.5 67.5q0 22 -9.5 39.5t-28 28.5t-38 18.5t-48 11.5t-48 6t-47.5 4l-15 15l125 238h84l-49 -118q39 -8 67 -16t60.5 -23.5t53 -35t34 -50t13.5 -69.5q0 -94 -82 -160t-201 -66q-55 0 -90 11.5t-71 35.5z " />
<glyph unicode="&#xb9;" horiz-adv-x="835" d="M136 1672q240 48 427 103q12 0 12 -7q0 -2 -4 -22.5t-7 -42t-5.5 -64.5t-2.5 -93v-396q0 -147 19 -256l-3 -5q-68 5 -124 5q-27 0 -57.5 -1t-48.5 -3l-18 -1l-2 5q18 94 18 256v346q0 43 -5.5 65t-22.5 24.5t-80 2.5t-94 2z" />
<glyph unicode="&#xbb;" horiz-adv-x="1363" d="M194 110q145 277 256 418q-111 141 -256 418q9 17 31 33t40 22q78 -92 154 -170.5t125 -124t145 -132.5q6 -5 9.5 -8.5t9 -8.5t10.5 -9v-39q-10 -9 -29 -26q-96 -86 -145 -132t-125 -124.5t-154 -170.5q-12 4 -25.5 12t-26.5 19.5t-19 22.5zM656 110q145 277 256 418 q-111 141 -256 418q9 17 31 33t40 22q78 -92 154 -170.5t125 -124t145 -132.5q19 -17 29 -26v-39q-10 -9 -29 -26q-96 -86 -145 -132t-125 -124.5t-154 -170.5q-19 6 -40.5 22t-30.5 32z" />
<glyph unicode="&#xbc;" horiz-adv-x="1719" d="M127 1550q244 50 429 104q12 0 12 -8q-1 -2 -4.5 -22t-6.5 -41t-6 -64t-3 -93v-396q0 -147 20 -256l-3 -5q-68 5 -125 5q-26 0 -57 -1t-48 -3l-18 -1l-3 5q17 88 17 256v346q0 44 -5 65.5t-21 23.5q-17 3 -80.5 3t-93.5 2zM241 -157l1128 1609l101 -43l-1126 -1611z M898 -37q61 90 230 308t209 273h123q29 0 29 -26v-481h148l-7 -103h-141v-5q0 -147 19 -255l-2 -5q-64 5 -120 5q-26 0 -55 -1.5t-44 -2.5l-16 -1l-3 5q17 88 17 255v5h-359zM1052 37h233v311z" />
<glyph unicode="&#xbd;" horiz-adv-x="1719" d="M133 1550q240 49 427 104q12 0 12 -8q0 -2 -3.5 -22t-6.5 -41t-6 -64t-3 -93v-396q0 -147 19 -256l-2 -5q-69 5 -125 5q-26 0 -57 -1t-49 -3l-17 -1l-3 5q18 95 18 256v346q0 43 -5.5 65t-22 24.5t-80 2.5t-93.5 2zM182 -108l1126 1609l103 -44l-1128 -1609zM961 -194 q0 60 42.5 119.5t159.5 165.5l117 101q23 20 39.5 40t26 42.5t15.5 37.5t8 42.5t2.5 39.5t0.5 44q0 31 -11 59.5t-28.5 47.5t-39 30.5t-43.5 11.5q-19 0 -36 -6.5t-28.5 -15t-25.5 -26.5t-22 -30t-23.5 -38t-23.5 -39l-69 2l-34 161l4 5q46 27 120.5 51.5t151.5 24.5 q145 0 238 -65.5t93 -176.5q0 -74 -31.5 -123.5t-106.5 -111.5l-160 -135q-17 -14 -37.5 -38t-35 -47t-14.5 -33h129q72 0 113.5 2t80.5 5t69 5q-3 -12 -6.5 -45.5t-3.5 -48.5q0 -30 10 -63q-120 5 -246 5q-85 0 -395 -5v5z" />
<glyph unicode="&#xbe;" horiz-adv-x="1719" d="M52 838l37 135l68 3q10 -16 22.5 -39t20 -36t20.5 -29t27 -24t36.5 -14t51.5 -6q19 0 38.5 3.5t42.5 16t40 32t29 54.5t12 81q0 48 -14.5 80.5t-42 48.5t-56.5 22t-67 6q-45 0 -64 -2v76q78 3 130.5 25t79.5 62t27 97q0 54 -42 95t-89 41q-24 0 -43 -3t-34.5 -12t-26 -16 t-23 -23.5t-19 -26t-19.5 -31.5t-20 -33h-68l-35 134l5 5q36 28 119 53.5t178 25.5q100 0 169.5 -19t108.5 -61.5t39 -106.5q0 -86 -47 -143t-132 -83v-4q46 -4 85.5 -17.5t71.5 -37t50.5 -61.5t18.5 -86q0 -82 -54.5 -143t-145.5 -91.5t-206 -30.5q-172 0 -272 75z M253 -108l1128 1609l101 -44l-1126 -1609zM907 -32q62 90 231 308t208 272h124q29 0 29 -25v-481h147l-7 -103h-140v-5q0 -140 20 -256l-2 -4q-65 4 -121 4q-27 0 -55.5 -1t-44.5 -2l-16 -1l-2 4q17 89 17 256v5h-359zM1062 42h233v311z" />
<glyph unicode="&#xc0;" horiz-adv-x="1722" d="M49 -7q14 30 91 198t96.5 211t86.5 190.5t95.5 210t85.5 190t94 211t85 192t91 208.5h221q169 -432 378 -933t296 -678q-42 7 -224 7q-157 0 -199 -7q-59 213 -183 547q-241 4 -245 4q-139 0 -326 -5q-143 -351 -194 -546q-30 7 -111 7q-108 0 -138 -7zM403 1873 q17 56 54.5 110.5t86.5 87.5l348 -242q37 -26 37 -59q0 -18 -13 -40t-27 -22q-16 0 -95 22l-374 108zM550 678q102 -5 256 -5q66 0 206 3q-131 339 -218 538h-15z" />
<glyph unicode="&#xc2;" horiz-adv-x="1722" d="M49 -7q14 30 91 198t96.5 211t86.5 190.5t95.5 210t85.5 190t94 211t85 192t91 208.5h221q169 -432 378 -933t296 -678q-42 7 -224 7q-157 0 -199 -7q-59 213 -183 547q-241 4 -245 4q-139 0 -326 -5q-143 -351 -194 -546q-30 7 -111 7q-108 0 -138 -7zM502 1757 q208 168 331 290h74q115 -121 329 -290l-40 -76q-160 63 -326 145q-107 -57 -329 -145zM550 678q102 -5 256 -5q66 0 206 3q-131 339 -218 538h-15z" />
<glyph unicode="&#xc4;" horiz-adv-x="1722" d="M49 -7q14 30 91 198t96.5 211t86.5 190.5t95.5 210t85.5 190t94 211t85 192t91 208.5h221q169 -432 378 -933t296 -678q-42 7 -224 7q-157 0 -199 -7q-59 213 -183 547q-241 4 -245 4q-139 0 -326 -5q-143 -351 -194 -546q-30 7 -111 7q-108 0 -138 -7zM340 1728 q0 29 11.5 55t30.5 44.5t45 29t54 10.5q60 0 100.5 -40t40.5 -99q0 -57 -41 -97.5t-100 -40.5q-57 0 -99 41t-42 97zM550 678q102 -5 256 -5q66 0 206 3q-131 339 -218 538h-15zM1072 1728q0 59 40 99t100 40q58 0 100 -40t42 -99q0 -56 -42.5 -97t-99.5 -41 q-59 0 -99.5 40.5t-40.5 97.5z" />
<glyph unicode="&#xc6;" horiz-adv-x="2068" d="M-2 -7q441 845 879 1598l87 -6h117h94h600q88 0 147 7l5 -7q-5 -69 -5 -101q0 -50 5 -88l-5 -10q-315 25 -573 25h-76q3 -154 7 -494q237 2 502 24l7 -7q-7 -33 -7 -81q0 -73 7 -105l-7 -9q-180 19 -499 24q6 -364 18 -589q111 4 272.5 16.5t266.5 22.5l106 10l5 -9 q-5 -39 -5 -106q0 -38 5 -108l-5 -7q-59 7 -147 7h-484h-29h-205q-93 0 -135 -7q0 19 2 535h-88q-205 0 -356 -4q-158 -322 -239 -531q-30 7 -110 7q-127 0 -157 -7zM575 665q259 -4 273 -4q15 0 48 0.5t52 0.5q2 432 2 650h-30q-171 -304 -345 -647z" />
<glyph unicode="&#xc7;" horiz-adv-x="1734" d="M127 762q0 204 80 382.5t225 290.5q114 89 265.5 136t320.5 47q61 0 124.5 -6.5t116 -16t102.5 -21.5t87 -24t65.5 -22t42.5 -16l15 -6l5 -7q-22 -93 -32.5 -160t-17.5 -159l-74 -3q-78 156 -184 230.5t-267 74.5q-45 0 -90 -11t-92 -35.5t-89 -61t-79.5 -91.5 t-64.5 -122.5t-42.5 -157.5t-15.5 -194q0 -154 36 -283.5t98.5 -217.5t148.5 -137t186 -49q177 0 295.5 45.5t253.5 174.5l58 -84q-75 -78 -160 -134t-171.5 -87.5t-169.5 -46t-169 -14.5h-14l-36 -86q27 -6 48.5 -11.5t46 -14t43 -18.5t36.5 -25t29.5 -32.5t19 -41.5 t7.5 -52q0 -93 -83 -159t-202 -66q-55 0 -89.5 11.5t-71.5 34.5q0 46 33 77q33 -12 44.5 -16t31.5 -10t34 -7.5t33 -1.5q57 0 86 20t29 68q0 19 -8 34.5t-20 26.5t-31 19t-36.5 12.5t-42 8t-41.5 5t-41 2.5l-14 14l110 212q-79 6 -148 22.5t-132 45t-125 70.5 q-143 96 -223 271t-80 373z" />
<glyph unicode="&#xc8;" horiz-adv-x="1459" d="M206 0q30 208 30 492v601q0 273 -30 492l5 7q123 -7 207 -7h747q88 0 148 7l5 -7q-5 -69 -5 -86q0 -63 5 -101l-5 -10q-375 30 -703 30q-6 -20 -10.5 -67.5t-6 -102.5t-2.5 -93t-1 -62v-179q292 0 582 24l8 -7q-8 -32 -8 -91q0 -60 8 -92l-8 -9q-115 12 -294.5 18.5 t-287.5 6.5v-272q0 -36 1.5 -88t6 -124.5t12.5 -99.5q146 0 327.5 13.5t290.5 26.5l109 14l5 -11q-5 -38 -5 -134q0 -46 5 -89l-5 -7q-60 7 -148 7h-771q-39 0 -91 -2t-85 -3l-33 -2zM403 1873q17 56 54.5 110.5t86.5 87.5l348 -242q37 -26 37 -59q0 -18 -13 -40t-27 -22 q-16 0 -95 22l-374 108z" />
<glyph unicode="&#xc9;" horiz-adv-x="1459" d="M206 0q30 208 30 492v601q0 273 -30 492l5 7q123 -7 207 -7h747q88 0 148 7l5 -7q-5 -69 -5 -86q0 -63 5 -101l-5 -10q-375 30 -703 30q-6 -20 -10.5 -67.5t-6 -102.5t-2.5 -93t-1 -62v-179q292 0 582 24l8 -7q-8 -32 -8 -91q0 -60 8 -92l-8 -9q-115 12 -294.5 18.5 t-287.5 6.5v-272q0 -36 1.5 -88t6 -124.5t12.5 -99.5q146 0 327.5 13.5t290.5 26.5l109 14l5 -11q-5 -38 -5 -134q0 -46 5 -89l-5 -7q-60 7 -148 7h-771q-39 0 -91 -2t-85 -3l-33 -2zM469 1770q0 33 37 59l350 242q48 -32 85 -86.5t54 -111.5l-17 -35l-373 -108 q-79 -22 -96 -22q-14 0 -27 22t-13 40z" />
<glyph unicode="&#xca;" horiz-adv-x="1459" d="M206 0q30 208 30 492v601q0 273 -30 492l5 7q123 -7 207 -7h747q88 0 148 7l5 -7q-5 -69 -5 -86q0 -63 5 -101l-5 -10q-375 30 -703 30q-6 -20 -10.5 -67.5t-6 -102.5t-2.5 -93t-1 -62v-179q292 0 582 24l8 -7q-8 -32 -8 -91q0 -60 8 -92l-8 -9q-115 12 -294.5 18.5 t-287.5 6.5v-272q0 -36 1.5 -88t6 -124.5t12.5 -99.5q146 0 327.5 13.5t290.5 26.5l109 14l5 -11q-5 -38 -5 -134q0 -46 5 -89l-5 -7q-60 7 -148 7h-771q-39 0 -91 -2t-85 -3l-33 -2zM403 1757q209 168 331 290h75q115 -121 329 -290l-40 -76q-160 63 -326 145 q-107 -57 -329 -145z" />
<glyph unicode="&#xcb;" horiz-adv-x="1459" d="M206 0q30 208 30 492v601q0 273 -30 492l5 7q123 -7 207 -7h747q88 0 148 7l5 -7q-5 -69 -5 -86q0 -63 5 -101l-5 -10q-375 30 -703 30q-6 -20 -10.5 -67.5t-6 -102.5t-2.5 -93t-1 -62v-179q292 0 582 24l8 -7q-8 -32 -8 -91q0 -60 8 -92l-8 -9q-115 12 -294.5 18.5 t-287.5 6.5v-272q0 -36 1.5 -88t6 -124.5t12.5 -99.5q146 0 327.5 13.5t290.5 26.5l109 14l5 -11q-5 -38 -5 -134q0 -46 5 -89l-5 -7q-60 7 -148 7h-771q-39 0 -91 -2t-85 -3l-33 -2zM312 1937q0 65 45 110t110 45t110 -45t45 -110q0 -63 -45.5 -108t-110 -45t-109.5 45 t-45 108zM853 1937q0 65 45 110t110 45q41 0 77 -20.5t57 -56.5t21 -78q0 -63 -46 -108t-109 -45q-42 0 -78 20.5t-56.5 55.5t-20.5 77z" />
<glyph unicode="&#xce;" horiz-adv-x="810" d="M66 1757q215 172 332 290h74q111 -117 330 -290l-40 -76q-166 66 -328 145q-107 -57 -328 -145zM199 0q29 200 29 492v601q0 282 -29 492l5 7q118 -7 202 -7q38 0 89 2t83 4l32 1l2 -7q-30 -204 -30 -492v-601q0 -273 30 -492l-5 -7q-118 7 -201 7q-39 0 -90 -2t-83 -3 l-31 -2z" />
<glyph unicode="&#xcf;" horiz-adv-x="810" d="M-7 1937q0 65 45 110t109.5 45t109.5 -45t45 -110q0 -63 -45 -108t-109.5 -45t-109.5 45t-45 108zM199 0q29 200 29 492v601q0 282 -29 492l5 7q118 -7 202 -7q38 0 89 2t83 4l32 1l2 -7q-30 -204 -30 -492v-601q0 -273 30 -492l-5 -7q-118 7 -201 7q-39 0 -90 -2t-83 -3 l-31 -2zM533 1937q0 65 45 110t110 45q41 0 76.5 -20.5t56.5 -56.5t21 -78q0 -63 -45.5 -108t-108.5 -45q-32 0 -61 12.5t-49.5 32.5t-32.5 48.5t-12 59.5z" />
<glyph unicode="&#xd4;" horiz-adv-x="1963" d="M127 762q0 179 63 336.5t173.5 272t269.5 181t343 66.5q194 0 354.5 -58.5t272 -163.5t172.5 -255.5t61 -331.5q0 -147 -38.5 -275.5t-112.5 -230.5t-177.5 -175.5t-238.5 -112.5t-291 -39q-181 0 -338.5 58.5t-270 161t-177.5 249.5t-65 317zM523 804q0 -173 37 -306.5 t104.5 -217.5t159 -127t203.5 -43q140 0 231.5 71.5t136.5 215.5t45 365q0 257 -52.5 415t-161 231.5t-283.5 73.5q-420 0 -420 -678zM600 1757q209 168 331 290h75q115 -121 328 -290l-39 -76q-160 63 -327 145q-103 -56 -330 -145z" />
<glyph unicode="&#xd6;" horiz-adv-x="1963" d="M127 762q0 179 63 336.5t173.5 272t269.5 181t343 66.5q194 0 354.5 -58.5t272 -163.5t172.5 -255.5t61 -331.5q0 -147 -38.5 -275.5t-112.5 -230.5t-177.5 -175.5t-238.5 -112.5t-291 -39q-181 0 -338.5 58.5t-270 161t-177.5 249.5t-65 317zM300 1728q0 29 11.5 55 t30.5 44.5t44.5 29t53.5 10.5q40 0 72 -18t51 -50t19 -71q0 -57 -41 -97.5t-101 -40.5q-57 0 -98.5 41t-41.5 97zM523 804q0 -173 37 -306.5t104.5 -217.5t159 -127t203.5 -43q140 0 231.5 71.5t136.5 215.5t45 365q0 257 -52.5 415t-161 231.5t-283.5 73.5 q-420 0 -420 -678zM1386 1728q0 59 41.5 99t101.5 40q57 0 98.5 -40t41.5 -99q0 -56 -41.5 -97t-98.5 -41q-59 0 -101 40.5t-42 97.5z" />
<glyph unicode="&#xd9;" horiz-adv-x="1766" d="M187 1585l5 7q107 -7 191 -7q38 0 89 2t83 4l32 1l3 -7q-25 -171 -25 -492v-432q0 -45 3 -87.5t13 -97t25.5 -100.5t43.5 -91.5t65.5 -77.5t93 -51.5t122.5 -19.5q75 0 135.5 16t102.5 43t74 68.5t51 86.5t30.5 102.5t15.5 111t4 116.5v413q0 317 -24 492l5 7 q65 -7 125 -7q11 0 24 0.5t25 1t23.5 1.5t21 1.5t17 1.5t11.5 1h4l2 -7q-25 -171 -25 -492v-368q0 -141 -23 -255t-74 -207t-129 -156t-190.5 -97t-256.5 -34q-60 0 -118.5 7t-126 25.5t-127 47t-115 76t-95 108.5t-63.5 148.5t-24 191.5v513q0 317 -24 492zM624 1873 q17 56 54.5 110.5t85.5 87.5l350 -242q36 -26 36 -59q0 -18 -12.5 -40t-26.5 -22q-17 0 -96 22l-373 108z" />
<glyph unicode="&#xdb;" horiz-adv-x="1766" d="M187 1585l5 7q107 -7 191 -7q38 0 89 2t83 4l32 1l3 -7q-25 -171 -25 -492v-432q0 -45 3 -87.5t13 -97t25.5 -100.5t43.5 -91.5t65.5 -77.5t93 -51.5t122.5 -19.5q75 0 135.5 16t102.5 43t74 68.5t51 86.5t30.5 102.5t15.5 111t4 116.5v413q0 317 -24 492l5 7 q65 -7 125 -7q11 0 24 0.5t25 1t23.5 1.5t21 1.5t17 1.5t11.5 1h4l2 -7q-25 -171 -25 -492v-368q0 -141 -23 -255t-74 -207t-129 -156t-190.5 -97t-256.5 -34q-60 0 -118.5 7t-126 25.5t-127 47t-115 76t-95 108.5t-63.5 148.5t-24 191.5v513q0 317 -24 492zM575 1757 q214 172 332 290h73q112 -117 330 -290l-39 -76q-166 66 -328 145q-107 -57 -329 -145z" />
<glyph unicode="&#xdc;" horiz-adv-x="1766" d="M187 1585l5 7q107 -7 191 -7q38 0 89 2t83 4l32 1l3 -7q-25 -171 -25 -492v-432q0 -45 3 -87.5t13 -97t25.5 -100.5t43.5 -91.5t65.5 -77.5t93 -51.5t122.5 -19.5q75 0 135.5 16t102.5 43t74 68.5t51 86.5t30.5 102.5t15.5 111t4 116.5v413q0 317 -24 492l5 7 q65 -7 125 -7q11 0 24 0.5t25 1t23.5 1.5t21 1.5t17 1.5t11.5 1h4l2 -7q-25 -171 -25 -492v-368q0 -141 -23 -255t-74 -207t-129 -156t-190.5 -97t-256.5 -34q-60 0 -118.5 7t-126 25.5t-127 47t-115 76t-95 108.5t-63.5 148.5t-24 191.5v513q0 317 -24 492zM580 1752 q0 39 19 71.5t51.5 50.5t69.5 18q59 0 99.5 -40.5t40.5 -99.5q0 -57 -40.5 -97t-99.5 -40q-57 0 -98.5 40.5t-41.5 96.5zM1030 1752q0 59 40.5 99.5t99.5 40.5q57 0 98.5 -40.5t41.5 -99.5q0 -56 -41.5 -96.5t-98.5 -40.5q-59 0 -99.5 40t-40.5 97z" />
<glyph unicode="&#xdf;" horiz-adv-x="1567" d="M79 919v87q0 14 18 28t48 21q54 12 75 39.5t21 77.5q0 58 27 130t79 147.5t120 135.5q53 48 129.5 79t136.5 41.5t113 10.5q98 0 192.5 -14t141.5 -44q69 -43 110.5 -104.5t41.5 -132.5q0 -69 -23 -128.5t-66.5 -107t-94.5 -84.5t-118 -71v-24q52 -34 86 -58t84.5 -63 t84 -72t71 -79.5t60 -91.5t37.5 -101.5t15 -115.5q0 -110 -35 -205t-101 -154q-101 -90 -290 -90q-81 0 -188 27t-129 41l-3 8q13 21 20 44.5t14.5 61.5t12.5 58l52 2q25 -44 62 -74.5t85 -30.5q75 0 108 69t33 201q0 170 -82.5 318.5t-240.5 266.5v52q44 27 77 53t57.5 54 t40.5 56t25.5 63t13 71.5t3.5 82.5q0 93 -49 150t-126 57q-57 0 -103.5 -18.5t-76 -48t-50 -67.5t-29.5 -76t-9 -75q0 -45 2.5 -116t2.5 -120v-594q0 -289 15 -492l-5 -7q-64 7 -148 7q-38 0 -89 -2t-83 -3l-32 -2l-2 7q20 159 20 492v361q0 22 -6.5 29.5t-23.5 9.5l-108 13 q-24 3 -24 14z" />
<glyph unicode="&#xe0;" horiz-adv-x="1267" d="M84 241q0 124 99.5 215.5t278.5 133.5l288 76q14 5 14 30q0 137 -42 193.5t-127 56.5q-82 0 -160.5 -50.5t-141.5 -143.5l-82 3l-49 183l7 11q48 42 198 86t275 44q98 0 193 -25t150 -74q52 -46 75.5 -117.5t23.5 -182.5q0 -8 -5 -225t-5 -258q0 -24 6.5 -40.5t17.5 -26 t31.5 -14.5t41 -6.5t53.5 -1.5q18 -15 24 -52q-52 -39 -132.5 -59.5t-159 -20.5t-123.5 33t-71 109h-5q-76 -76 -164.5 -109t-172.5 -33q-88 0 -163.5 30t-124 92t-48.5 143zM272 1555l5 28q20 22 82.5 50t121.5 28q30 0 49 -5l171 -305q21 -38 21 -63q0 -16 -20 -28 t-38 -12q-38 0 -94 49zM413 263q0 -52 37.5 -96.5t90.5 -44.5q97 0 181 84q14 14 26 50t12 61l4 229l-196 -52q-45 -11 -76.5 -36.5t-48 -58.5t-23.5 -66.5t-7 -69.5z" />
<glyph unicode="&#xe2;" horiz-adv-x="1267" d="M84 241q0 124 99.5 215.5t278.5 133.5l288 76q14 5 14 30q0 137 -42 193.5t-127 56.5q-82 0 -160.5 -50.5t-141.5 -143.5l-82 3l-49 183l7 11q48 42 198 86t275 44q98 0 193 -25t150 -74q52 -46 75.5 -117.5t23.5 -182.5q0 -8 -5 -225t-5 -258q0 -24 6.5 -40.5t17.5 -26 t31.5 -14.5t41 -6.5t53.5 -1.5q18 -15 24 -52q-52 -39 -132.5 -59.5t-159 -20.5t-123.5 33t-71 109h-5q-76 -76 -164.5 -109t-172.5 -33q-88 0 -163.5 30t-124 92t-48.5 143zM280 1283q83 84 167.5 187.5t147.5 196.5h83q154 -226 312 -384l-66 -59q-43 21 -81 44 t-73.5 50.5t-67 55t-68.5 64.5q-85 -79 -148.5 -127.5t-138.5 -86.5zM413 263q0 -52 37.5 -96.5t90.5 -44.5q97 0 181 84q14 14 26 50t12 61l4 229l-196 -52q-45 -11 -76.5 -36.5t-48 -58.5t-23.5 -66.5t-7 -69.5z" />
<glyph unicode="&#xe4;" horiz-adv-x="1267" d="M84 241q0 124 99.5 215.5t278.5 133.5l288 76q14 5 14 30q0 137 -42 193.5t-127 56.5q-82 0 -160.5 -50.5t-141.5 -143.5l-82 3l-49 183l7 11q48 42 198 86t275 44q98 0 193 -25t150 -74q52 -46 75.5 -117.5t23.5 -182.5q0 -8 -5 -225t-5 -258q0 -24 6.5 -40.5t17.5 -26 t31.5 -14.5t41 -6.5t53.5 -1.5q18 -15 24 -52q-52 -39 -132.5 -59.5t-159 -20.5t-123.5 33t-71 109h-5q-76 -76 -164.5 -109t-172.5 -33q-88 0 -163.5 30t-124 92t-48.5 143zM190 1482q0 68 46 115t111 47q68 0 115 -47t47 -115q0 -65 -47 -112.5t-115 -47.5q-43 0 -79 22 t-57 58.5t-21 79.5zM413 263q0 -52 37.5 -96.5t90.5 -44.5q97 0 181 84q14 14 26 50t12 61l4 229l-196 -52q-45 -11 -76.5 -36.5t-48 -58.5t-23.5 -66.5t-7 -69.5zM703 1482q0 68 47 115t115 47q43 0 79 -21.5t57 -58.5t21 -82q0 -65 -46 -112.5t-111 -47.5q-44 0 -81.5 22 t-59 58.5t-21.5 79.5z" />
<glyph unicode="&#xe6;" horiz-adv-x="1894" d="M56 248q0 183 214 278q183 80 494 100q0 54 -2.5 92.5t-8.5 76.5t-16.5 63.5t-27 48t-40.5 35t-56 19.5t-74 7q-35 0 -72 -14.5t-69 -38.5t-64.5 -57t-57.5 -65.5t-48 -67.5l-73 2l-42 190l7 9q29 22 71 45.5t100 49t130.5 42t141.5 16.5q28 0 59.5 -3t75 -10t83.5 -21.5 t77.5 -35.5t66 -54.5t41.5 -74.5q62 91 173.5 145t229.5 54q202 0 305 -71q39 -27 70.5 -63t49 -71t26.5 -64.5t9 -49.5q0 -144 -49 -202q-34 -17 -99.5 -25.5t-133 -10t-201.5 -4t-242 -7.5q0 -93 28 -169.5t73.5 -123t100 -71.5t110.5 -25q196 0 329 141q40 -14 66 -57 q-60 -101 -180.5 -165.5t-254.5 -64.5q-50 0 -97 6.5t-82.5 16.5t-69 24.5t-56.5 29t-45 32.5t-35.5 31.5t-26.5 28.5q-34 -41 -91 -74.5t-121 -53.5t-128.5 -30.5t-121.5 -10.5q-212 0 -329 73t-117 199zM373 260q0 -78 40.5 -120t97.5 -42q77 0 143.5 39.5t93.5 108.5 q6 16 9.5 41.5t5 67t1.5 71.5v90q-75 -6 -134 -17t-100 -24.5t-70 -32.5t-46 -37.5t-26 -44t-12 -48t-3 -52.5zM1106 634q57 2 114 3.5t92 1.5t70.5 1t55 1.5t38 6t26.5 12t14.5 20t8 30t1.5 42.5q0 25 -6.5 53t-21 57.5t-35 53t-52.5 38t-69 14.5q-56 0 -101 -30t-73 -79.5 t-43.5 -107t-18.5 -117.5z" />
<glyph unicode="&#xe7;" horiz-adv-x="1159" d="M103 497q0 113 31.5 208.5t87 163.5t131.5 116t166 71t189 23q59 0 131.5 -12.5t134.5 -31t100 -38.5l5 -7l-59 -238l-68 -2q-83 206 -222 206q-66 0 -124 -31t-94 -87q-60 -96 -60 -278q0 -103 20 -188.5t54 -139.5q21 -35 58 -66t79 -49.5t76 -18.5q82 0 161 29.5 t127 88.5l40 -12q0 -50 12 -96q-84 -71 -175.5 -101.5t-230.5 -30.5h-26l-33 -77q27 -5 48 -10.5t46 -14.5t43.5 -19t36.5 -24.5t29 -32t18 -41.5t7 -52q0 -94 -82 -160t-201 -66q-38 0 -68 6.5t-49.5 15.5t-43.5 25q0 46 33 77q55 -20 81.5 -27t61.5 -7q57 0 85.5 19.5 t28.5 67.5q0 22 -9.5 39.5t-28 28.5t-38 18.5t-48 11.5t-48 6t-47.5 4l-14 15l107 204q-103 15 -188 54t-138 96q-133 145 -133 364z" />
<glyph unicode="&#xe8;" horiz-adv-x="1248" d="M86 506q0 284 201 450q47 40 110.5 68t131.5 41.5t137 13.5q110 0 193 -29t134 -77t82.5 -120.5t43 -150.5t11.5 -176l-14 -15q-210 5 -456 5h-245q0 -169 82 -258q89 -96 267 -96q47 0 82.5 3t81 12.5t89.5 31t85 54.5q16 0 27 -24.5t11 -51.5q-183 -211 -486 -211 q-291 0 -413 127q-75 78 -115 185t-40 218zM376 1646l4 28q11 12 41 29.5t76.5 33t86.5 15.5q30 0 50 -5l170 -305q22 -37 22 -63q0 -15 -20.5 -27.5t-38.5 -12.5q-38 0 -94 49zM425 626h384q0 160 -42 245t-118 85q-93 0 -149 -74q-63 -87 -75 -256z" />
<glyph unicode="&#xe9;" horiz-adv-x="1248" d="M86 506q0 284 201 450q47 40 110.5 68t131.5 41.5t137 13.5q110 0 193 -29t134 -77t82.5 -120.5t43 -150.5t11.5 -176l-14 -15q-210 5 -456 5h-245q0 -169 82 -258q89 -96 267 -96q47 0 82.5 3t81 12.5t89.5 31t85 54.5q16 0 27 -24.5t11 -51.5q-183 -211 -486 -211 q-291 0 -413 127q-75 78 -115 185t-40 218zM415 1280q0 30 19 59l204 322q18 6 40 6q51 0 99.5 -20t64.5 -40l26 -57l-296 -265q-23 -20 -53 -29.5t-52 -9.5q-10 0 -22 5.5t-21 14t-9 14.5zM425 626h384q0 160 -42 245t-118 85q-93 0 -149 -74q-63 -87 -75 -256z" />
<glyph unicode="&#xea;" horiz-adv-x="1248" d="M86 506q0 284 201 450q47 40 110.5 68t131.5 41.5t137 13.5q110 0 193 -29t134 -77t82.5 -120.5t43 -150.5t11.5 -176l-14 -15q-210 5 -456 5h-245q0 -169 82 -258q89 -96 267 -96q47 0 82.5 3t81 12.5t89.5 31t85 54.5q16 0 27 -24.5t11 -51.5q-183 -211 -486 -211 q-291 0 -413 127q-75 78 -115 185t-40 218zM280 1283q83 84 167.5 187.5t147.5 196.5h83q154 -226 312 -384l-66 -59q-43 21 -81 44t-73.5 50.5t-67 55t-68.5 64.5q-85 -79 -148.5 -127.5t-138.5 -86.5zM425 626h384q0 160 -42 245t-118 85q-93 0 -149 -74q-63 -87 -75 -256 z" />
<glyph unicode="&#xeb;" horiz-adv-x="1248" d="M86 506q0 284 201 450q47 40 110.5 68t131.5 41.5t137 13.5q110 0 193 -29t134 -77t82.5 -120.5t43 -150.5t11.5 -176l-14 -15q-210 5 -456 5h-245q0 -169 82 -258q89 -96 267 -96q47 0 82.5 3t81 12.5t89.5 31t85 54.5q16 0 27 -24.5t11 -51.5q-183 -211 -486 -211 q-291 0 -413 127q-75 78 -115 185t-40 218zM226 1482q0 68 46 115t111 47q45 0 82.5 -21.5t59 -58.5t21.5 -82q0 -65 -47.5 -112.5t-115.5 -47.5q-43 0 -79 22t-57 58.5t-21 79.5zM425 626h384q0 160 -42 245t-118 85q-93 0 -149 -74q-63 -87 -75 -256zM739 1482 q0 68 47.5 115t115.5 47q66 0 112 -47t46 -115q0 -43 -21.5 -79.5t-57.5 -58.5t-79 -22q-44 0 -82 22t-59.5 58.5t-21.5 79.5z" />
<glyph unicode="&#xee;" horiz-adv-x="765" d="M35 1283q82 83 166 186.5t148 197.5h83q151 -222 313 -384l-67 -59q-82 39 -146.5 88.5t-142.5 125.5q-84 -78 -148.5 -127t-139.5 -87zM197 0q24 166 24 443v134q0 343 -24 475l7 10q86 -7 174 -7q86 0 170 12q22 0 22 -25q-24 -227 -24 -437v-162q0 -268 24 -443l-5 -7 q-68 7 -182 7q-121 0 -181 -7z" />
<glyph unicode="&#xef;" horiz-adv-x="842" d="M2 1482q0 68 46 115t112 47q68 0 115 -47t47 -115q0 -65 -47.5 -112.5t-114.5 -47.5q-65 0 -111.5 47.5t-46.5 112.5zM226 0q25 175 25 443v134q0 337 -25 475l8 10q86 -7 174 -7q85 0 169 12q23 0 23 -25q-14 -129 -19.5 -219.5t-5.5 -217.5v-162q0 -259 25 -443l-5 -7 q-68 7 -182 7q-121 0 -181 -7zM516 1482q0 68 47 115t115 47q65 0 111 -47t46 -115q0 -43 -21 -79.5t-57.5 -58.5t-78.5 -22q-45 0 -82 22t-58.5 58.5t-21.5 79.5z" />
<glyph unicode="&#xf4;" horiz-adv-x="1390" d="M101 504q0 112 28.5 205.5t81 161.5t127 115t166 70t197.5 23q122 0 220.5 -28t166.5 -77.5t114 -119.5t67 -152t21 -176q0 -257 -157 -403.5t-437 -146.5q-275 0 -435 142t-160 386zM354 1283q82 83 166 186.5t148 197.5h84q154 -226 312 -384l-67 -59 q-82 39 -146.5 88.5t-142.5 125.5q-84 -78 -148 -127t-140 -87zM450 560q0 -35 1 -65.5t5 -68.5t10 -70t16.5 -66.5t25 -61.5t36 -52t47.5 -41.5t61.5 -26.5t77.5 -10q35 0 64.5 10.5t57 36t47 65.5t31 103.5t11.5 146.5q0 89 -4.5 155.5t-16 124.5t-30.5 96.5t-47.5 66.5 t-68 40.5t-91.5 12.5q-44 0 -79.5 -11t-59.5 -29.5t-41.5 -48.5t-27.5 -61t-15.5 -74t-7.5 -81.5t-2 -90.5z" />
<glyph unicode="&#xf6;" horiz-adv-x="1390" d="M101 504q0 112 28.5 205.5t81 161.5t127 115t166 70t197.5 23q122 0 220.5 -28t166.5 -77.5t114 -119.5t67 -152t21 -176q0 -257 -157 -403.5t-437 -146.5q-275 0 -435 142t-160 386zM288 1477q0 68 46 115t111 47q69 0 115.5 -46.5t46.5 -115.5q0 -65 -47 -112t-115 -47 q-64 0 -110.5 47t-46.5 112zM450 560q0 -35 1 -65.5t5 -68.5t10 -70t16.5 -66.5t25 -61.5t36 -52t47.5 -41.5t61.5 -26.5t77.5 -10q35 0 64.5 10.5t57 36t47 65.5t31 103.5t11.5 146.5q0 89 -4.5 155.5t-16 124.5t-30.5 96.5t-47.5 66.5t-68 40.5t-91.5 12.5 q-44 0 -79.5 -11t-59.5 -29.5t-41.5 -48.5t-27.5 -61t-15.5 -74t-7.5 -81.5t-2 -90.5zM802 1477q0 69 46.5 115.5t115.5 46.5q65 0 111 -47t46 -115q0 -65 -46.5 -112t-110.5 -47q-68 0 -115 47t-47 112z" />
<glyph unicode="&#xf9;" horiz-adv-x="1452" d="M160 1055l4 7q89 -7 173 -7q39 0 84.5 1.5t72.5 3.5l27 2l2 -7q-13 -140 -19 -443l-5 -221q-1 -58 6 -100.5t19.5 -66.5t32 -38t38.5 -18t43 -4q42 0 90 19.5t89.5 52t69 80.5t27.5 99v197q0 117 -0.5 173t-4 130t-11.5 140l4 7q83 -7 167 -7q39 0 86 1.5t76 3.5l28 2 l2 -7q-10 -63 -15 -136t-6.5 -135t-1.5 -172v-140q0 -241 42 -472l-4 -7q-49 7 -182 7q-75 0 -140 -7q-23 0 -23 7l-12 157h-5q-49 -52 -107 -90t-114 -56.5t-102.5 -26.5t-88.5 -8q-71 0 -128 18.5t-94 50t-61.5 75t-35 90.5t-9.5 100l6 302q3 215 -20 443zM352 1555l4 28 q20 22 82.5 50t121.5 28q30 0 50 -5l169 -305q23 -40 23 -63q0 -11 -11 -20.5t-24.5 -14.5t-24.5 -5q-37 0 -93 49z" />
<glyph unicode="&#xfb;" horiz-adv-x="1452" d="M160 1055l4 7q89 -7 173 -7q39 0 84.5 1.5t72.5 3.5l27 2l2 -7q-13 -140 -19 -443l-5 -221q-1 -58 6 -100.5t19.5 -66.5t32 -38t38.5 -18t43 -4q42 0 90 19.5t89.5 52t69 80.5t27.5 99v197q0 117 -0.5 173t-4 130t-11.5 140l4 7q83 -7 167 -7q39 0 86 1.5t76 3.5l28 2 l2 -7q-10 -63 -15 -136t-6.5 -135t-1.5 -172v-140q0 -241 42 -472l-4 -7q-49 7 -182 7q-75 0 -140 -7q-23 0 -23 7l-12 157h-5q-49 -52 -107 -90t-114 -56.5t-102.5 -26.5t-88.5 -8q-71 0 -128 18.5t-94 50t-61.5 75t-35 90.5t-9.5 100l6 302q3 215 -20 443zM378 1283 q83 84 167.5 187.5t148.5 196.5h82q154 -226 312 -384l-66 -59q-82 40 -147.5 89t-142.5 125q-85 -79 -148.5 -127.5t-138.5 -86.5z" />
<glyph unicode="&#xfc;" horiz-adv-x="1452" d="M160 1055l4 7q89 -7 173 -7q39 0 84.5 1.5t72.5 3.5l27 2l2 -7q-13 -140 -19 -443l-5 -221q-1 -58 6 -100.5t19.5 -66.5t32 -38t38.5 -18t43 -4q42 0 90 19.5t89.5 52t69 80.5t27.5 99v197q0 117 -0.5 173t-4 130t-11.5 140l4 7q83 -7 167 -7q39 0 86 1.5t76 3.5l28 2 l2 -7q-10 -63 -15 -136t-6.5 -135t-1.5 -172v-140q0 -241 42 -472l-4 -7q-49 7 -182 7q-75 0 -140 -7q-23 0 -23 7l-12 157h-5q-49 -52 -107 -90t-114 -56.5t-102.5 -26.5t-88.5 -8q-71 0 -128 18.5t-94 50t-61.5 75t-35 90.5t-9.5 100l6 302q3 215 -20 443zM314 1477 q0 68 46 115t112 47q68 0 115 -46.5t47 -115.5q0 -65 -47.5 -112t-114.5 -47q-65 0 -111.5 47t-46.5 112zM828 1477q0 69 47 115.5t115 46.5q65 0 111 -47t46 -115q0 -65 -46 -112t-111 -47q-68 0 -115 47t-47 112z" />
<glyph unicode="&#xff;" horiz-adv-x="1323" d="M49 1062q35 -7 216 -7q123 0 155 7q129 -397 290 -755l22 -2q149 332 283 757q24 -7 141 -7q96 0 120 7q-65 -131 -207 -431t-315 -687.5t-215 -525.5q-16 5 -57.5 8.5t-63.5 3.5q-27 0 -84.5 -3.5t-73.5 -8.5q200 330 298 558l-29 44q-101 268 -480 1042zM286 1477 q0 68 46 115t111 47q68 0 115 -46.5t47 -115.5q0 -65 -47 -112t-115 -47q-43 0 -79 21.5t-57 58.5t-21 79zM799 1477q0 69 47 115.5t115 46.5q32 0 61 -12.5t50 -34t33.5 -51.5t12.5 -64q0 -65 -46 -112t-111 -47q-68 0 -115 47t-47 112z" />
<glyph unicode="&#x152;" horiz-adv-x="2368" d="M148 781q0 110 24.5 213.5t70 192.5t113.5 163.5t151 126.5t185.5 81.5t214.5 29.5q130 -2 258 -3h910q87 0 146 7l5 -7q-5 -69 -5 -86q0 -63 5 -101l-5 -10q-350 30 -678 30q-6 -20 -10 -67.5t-6 -102.5t-2.5 -93t-0.5 -62v-179q135 0 249.5 4.5t155.5 7.5t153 12l7 -7 q-7 -32 -7 -91q0 -60 7 -92l-7 -9q-116 12 -285 18.5t-273 6.5v-272q0 -23 0.5 -59.5t2.5 -88.5t6 -98t10 -66q146 0 322 13.5t279 26.5l102 14l5 -11q-5 -38 -5 -134q0 -19 5 -89l-5 -7q-59 7 -147 7h-723l-442 -5q-171 1 -318 62t-249.5 165.5t-160.5 249.5t-58 309z M528 804q0 -148 28 -267.5t75 -198.5t111.5 -132.5t135.5 -76.5t149 -23h33q71 0 97.5 22.5t26.5 75.5v1182q0 38 -12 57.5t-37.5 26.5t-74.5 7h-87q-75 0 -138 -19t-121 -67t-98.5 -122.5t-64 -193t-23.5 -271.5z" />
<glyph unicode="&#x153;" horiz-adv-x="2120" d="M101 504q0 112 28.5 205.5t81 161.5t127 115t166 70t197.5 23q281 0 435 -145q5 3 13 11t13 11q71 59 172.5 91t206.5 32q110 0 193 -29t134 -77t82.5 -120.5t43 -150.5t11.5 -176l-14 -15q-211 5 -456 5h-245q0 -169 82 -258q88 -96 267 -96q46 0 82 3t81.5 12.5 t89.5 31t84 54.5q17 0 28 -24.5t11 -51.5q-184 -211 -486 -211q-291 0 -413 127q-1 1 -2 3q-156 -130 -418 -130q-275 0 -435 142t-160 386zM450 560q0 -35 1 -65.5t5 -68.5t10 -70t16.5 -66.5t25 -61.5t36 -52t47.5 -41.5t61.5 -26.5t77.5 -10q35 0 64.5 10.5t57 36 t47 65.5t31 103.5t11.5 146.5q0 89 -4.5 155.5t-16 124.5t-30.5 96.5t-47.5 66.5t-68 40.5t-91.5 12.5q-44 0 -79.5 -11t-59.5 -29.5t-41.5 -48.5t-27.5 -61t-15.5 -74t-7.5 -81.5t-2 -90.5zM1300 626h384q0 160 -42 245t-118 85q-94 0 -149 -74q-64 -87 -75 -256z" />
<glyph unicode="&#x178;" horiz-adv-x="1604" d="M40 1592q42 -7 240 -7q150 0 192 7q43 -86 98 -185t94 -165.5t110 -186.5t104 -177q244 387 402 714q30 -7 143 -7q83 0 115 7q-63 -96 -148.5 -226.5t-132 -201t-100.5 -155t-91.5 -146t-67.5 -115.5q1 -207 6.5 -437.5t13.5 -317.5q-40 7 -204 7q-162 0 -202 -7 q17 159 17 683q-62 106 -275.5 436t-313.5 480zM434 1895q0 64 45.5 109.5t110.5 45.5t110 -45t45 -110q0 -63 -45 -108t-110 -45q-42 0 -78 20.5t-57 55.5t-21 77zM976 1895q0 42 20.5 78t56 56.5t77.5 20.5t77.5 -20.5t56.5 -56.5t21 -78q0 -63 -45.5 -108t-109.5 -45 q-42 0 -77.5 20.5t-56 55.5t-20.5 77z" />
<glyph unicode="&#x2b0;" horiz-adv-x="1130" d="M182 894q17 108 17 276v450q0 193 -17 287l3 5q110 7 263 49q14 0 14 -15q-14 -120 -14 -288v-92l-8 -136l8 -2q107 138 260 138q241 0 241 -227v-169q0 -181 15 -276l-3 -5q-37 5 -138 5q-61 0 -127 -5l-2 5q9 72 9 276v134q0 119 -79 119q-84 0 -176 -123v-130 q0 -173 7 -276l-3 -5q-43 5 -147 5q-59 0 -120 -5z" />
<glyph unicode="&#x2b2;" horiz-adv-x="628" d="M-54 595q7 25 7 186l40 10q34 -61 93 -61q63 0 83 108q11 55 11 246l2 172q2 196 -15 280l5 7l103 -5q80 0 143 8q12 0 12 -15q-12 -140 -12 -258l-5 -317q0 -173 -71 -271q-115 -108 -281 -108q-46 0 -74.5 3.5t-38.5 9.5zM176 1816q0 47 35 84q36 32 89 32q55 0 91 -32 q34 -36 34 -84q0 -50 -34 -86q-36 -32 -91 -32q-53 0 -89 32q-35 37 -35 86z" />
<glyph unicode="&#x2b3;" horiz-adv-x="776" d="M192 1548l2 5q134 -8 244 5q10 0 12 -17q2 -19 2 -111l8 -4q92 138 184 138q42 0 78 -11l5 -7l-29 -179l-30 -3q-36 29 -86 29q-39 0 -73 -24q-54 -36 -54 -89v-112q0 -166 14 -274l-5 -5q-64 5 -166 5q-60 0 -104 -5v5q15 103 15 274v85q0 208 -17 295z" />
<glyph unicode="&#x2b7;" horiz-adv-x="1287" d="M44 1548q29 -2 160 -2q89 0 113 2l155 -499l118 323l-64 178q19 -4 126 -4q111 0 127 4l133 -444l148 444q11 -4 80 -4q92 0 103 4q-191 -452 -265 -661q-17 3 -98 3q-92 0 -111 -3l-115 316l-124 -318q-11 5 -108 5q-102 0 -115 -5q-32 100 -263 661z" />
<glyph unicode="&#x2b8;" horiz-adv-x="910" d="M68 1550q18 -4 153 -4q92 0 108 4q49 -151 165 -429q79 175 158 429q12 -4 105 -4q73 0 85 4q-367 -751 -434 -973q-22 5 -96 5q-95 0 -118 -5q46 73 148 315l-5 13q-103 270 -269 645z" />
<glyph unicode="&#x2c6;" horiz-adv-x="856" d="M-12 1212q83 84 167 187t147 196h84q152 -222 312 -383l-67 -59q-82 40 -146.5 89t-142.5 125q-84 -78 -148 -127t-140 -87z" />
<glyph unicode="&#x2da;" horiz-adv-x="886" d="M182 1648.5q0 106.5 76.5 180t184.5 73.5q71 0 131 -32.5t96 -91t36 -129.5q0 -104 -76.5 -178.5t-186.5 -74.5q-108 0 -184.5 73t-76.5 179.5zM295 1649q0 -38 19 -74t54.5 -59.5t76.5 -23.5q63 0 106.5 48.5t43.5 108.5q0 65 -43.5 111t-106.5 46q-64 0 -107 -46.5 t-43 -110.5z" />
<glyph unicode="&#x2dc;" horiz-adv-x="717" d="M14 1403q30 124 88.5 196.5t143.5 72.5q41 0 83 -16t72 -35t71.5 -34.5t80.5 -15.5q43 0 70.5 20.5t49.5 82.5l79 -23q-26 -121 -90 -192t-156 -71q-34 0 -74.5 16.5t-72 35.5t-71 35.5t-72.5 16.5q-52 0 -78.5 -24t-41.5 -82z" />
<glyph unicode="&#x2e1;" horiz-adv-x="640" d="M182 894q15 99 15 264v364q2 307 -12 392l2 2q140 7 258 45q15 0 15 -12q-15 -134 -17 -394v-397q0 -158 14 -264l-2 -5q-50 5 -136 5t-134 -5z" />
<glyph unicode="&#x2e2;" horiz-adv-x="753" d="M94 917l24 171h51q63 -120 157 -120q56 0 75 10q29 14 29 40q0 44 -29 73q-31 30 -113 77q-163 88 -163 208q0 83 77 136q72 48 225 48q131 0 202 -41l2 -2l-29 -163l-49 -3q-54 117 -131 117q-73 0 -73 -52q0 -53 91 -101q121 -63 150 -89q66 -58 66 -150 q0 -86 -66 -140q-74 -59 -234 -59q-153 0 -262 40z" />
<glyph unicode="&#x2e3;" horiz-adv-x="753" d="M49 1550q54 -7 174 -7q87 0 136 7q47 -77 122 -181q115 159 131 181q34 -7 115 -7q52 0 84 7l-241 -284q88 -122 123.5 -169.5t159.5 -209.5q-52 7 -135 7q-123 0 -170 -7q-43 69 -142 209l-143 -209q-29 7 -96 7q-69 0 -96 -7l243 314z" />
<glyph unicode="&#x2000;" horiz-adv-x="1046" />
<glyph unicode="&#x2001;" horiz-adv-x="2092" />
<glyph unicode="&#x2002;" horiz-adv-x="1046" />
<glyph unicode="&#x2003;" horiz-adv-x="2092" />
<glyph unicode="&#x2004;" horiz-adv-x="697" />
<glyph unicode="&#x2005;" horiz-adv-x="523" />
<glyph unicode="&#x2006;" horiz-adv-x="348" />
<glyph unicode="&#x2007;" horiz-adv-x="348" />
<glyph unicode="&#x2008;" horiz-adv-x="261" />
<glyph unicode="&#x2009;" horiz-adv-x="418" />
<glyph unicode="&#x200a;" horiz-adv-x="116" />
<glyph unicode="&#x2010;" horiz-adv-x="844" d="M94 598q0 20 8.5 49t23.5 52t29 23h563q16 0 25 -18.5t9 -37.5q0 -8 -3.5 -23t-10.5 -32t-15 -32t-18.5 -25t-19.5 -10h-554q-15 0 -26 18t-11 36z" />
<glyph unicode="&#x2011;" horiz-adv-x="844" d="M94 598q0 20 8.5 49t23.5 52t29 23h563q16 0 25 -18.5t9 -37.5q0 -8 -3.5 -23t-10.5 -32t-15 -32t-18.5 -25t-19.5 -10h-554q-15 0 -26 18t-11 36z" />
<glyph unicode="&#x2012;" horiz-adv-x="844" d="M94 598q0 20 8.5 49t23.5 52t29 23h563q16 0 25 -18.5t9 -37.5q0 -8 -3.5 -23t-10.5 -32t-15 -32t-18.5 -25t-19.5 -10h-554q-15 0 -26 18t-11 36z" />
<glyph unicode="&#x2013;" horiz-adv-x="1346" d="M127 617q0 24 22 56.5t43 32.5h992q19 0 27 -16t8 -36q0 -25 -20.5 -58t-42.5 -33h-994q-18 0 -26.5 17.5t-8.5 36.5z" />
<glyph unicode="&#x2014;" horiz-adv-x="1822" d="M71 584v122h1681v-122h-1681z" />
<glyph unicode="&#x2018;" horiz-adv-x="657" d="M103 1480q0 79 32 152t84.5 127t119.5 90.5t137 50.5q14 -12 17.5 -46t-3.5 -58q-58 -15 -105.5 -45t-75.5 -64t-43 -66t-15 -57q0 -53 15 -68.5t48 -15.5q41 -8 65 -16.5t46 -24t34.5 -40t21.5 -62.5v-15q-21 -62 -59 -100.5t-108 -65.5h-14q-35 12 -63 29t-53.5 44 t-43 61t-27.5 82.5t-10 107.5z" />
<glyph unicode="&#x2019;" horiz-adv-x="657" d="M165 1107.5q-4 33.5 4 57.5q58 16 105.5 46t75.5 63.5t43 66t15 57.5q0 52 -15 68t-49 16q-40 8 -64.5 16t-46.5 23.5t-35 40t-22 63.5v14q21 62 60 100.5t108 66.5h15q44 -16 77.5 -39.5t61.5 -61t43 -94t15 -129.5q0 -79 -32 -152.5t-85 -127t-119.5 -90.5t-137.5 -50 q-13 12 -17 45.5z" />
<glyph unicode="&#x201a;" horiz-adv-x="657" d="M165 -374.5q-4 33.5 4 57.5q58 16 105.5 46t75.5 63.5t43 66t15 57.5q0 52 -15 68t-49 16q-40 8 -64.5 16t-46.5 23.5t-35 40t-22 63.5v14q21 62 60 100.5t108 66.5h15q44 -16 77.5 -39.5t61.5 -61t43 -94t15 -129.5q0 -79 -32 -152.5t-85 -127t-119.5 -90.5t-137.5 -50 q-13 12 -17 45.5z" />
<glyph unicode="&#x201c;" horiz-adv-x="921" d="M42 1482q0 64 21 124t57 108.5t83 87.5t101.5 64.5t110.5 35.5q14 -12 17 -46t-5 -57q-57 -16 -104.5 -46t-75.5 -63.5t-42.5 -66t-14.5 -57.5q0 -28 4 -45t13 -25.5t19 -11t27 -2.5q41 -8 65 -16t46 -23.5t34.5 -40t21.5 -63.5v-14q-21 -62 -59 -100.5t-108 -66.5h-14 q-35 13 -63 29.5t-54 43.5t-43 61t-27 82.5t-10 107.5zM427 1482q0 53 15 104.5t41 94t61.5 80t77 65.5t87.5 47.5t93 28.5q13 -12 16 -46t-4 -57q-58 -16 -105.5 -46t-75.5 -63.5t-43 -66t-15 -57.5q0 -28 4 -45t13 -25.5t19.5 -11t26.5 -2.5q41 -8 65.5 -16t46.5 -23.5 t34.5 -40t21.5 -63.5v-14q-20 -62 -59 -100.5t-109 -66.5h-14q-29 10 -53 23.5t-47 33t-40 45t-30 57.5t-20 74t-7 91z" />
<glyph unicode="&#x201d;" horiz-adv-x="921" d="M106 1108q-3 34 4 57q58 16 105.5 46t75.5 63.5t43 66t15 57.5q0 52 -15 68t-48 16q-41 8 -65.5 16t-46.5 23.5t-34.5 40t-21.5 63.5v14q20 62 59 100.5t109 66.5h14q44 -16 77.5 -39.5t61.5 -61t43 -94t15 -129.5q0 -79 -32 -152.5t-85 -127t-120 -90.5t-138 -50 q-13 12 -16 46zM492 1108q-3 34 5 57q57 16 104.5 46t75.5 63.5t42.5 66t14.5 57.5q0 28 -4 45t-13 25.5t-19 11t-27 2.5q-41 8 -65 16t-46 23.5t-34.5 40t-21.5 63.5v14q21 62 59 100.5t108 66.5h14q44 -16 78 -39.5t61.5 -61t42.5 -94t15 -129.5q0 -79 -32 -152.5 t-84.5 -127t-119.5 -90.5t-137 -50q-14 12 -17 46z" />
<glyph unicode="&#x201e;" horiz-adv-x="921" d="M106 -376.5q-3 33.5 4 57.5q47 13 87 35t67.5 47.5t47 53.5t28.5 52.5t9 44.5q0 52 -15 68t-48 16q-41 8 -65.5 16t-46.5 23.5t-34.5 40t-21.5 62.5v15q20 61 59 100t109 67h14q44 -16 77.5 -40t61.5 -61.5t43 -93.5t15 -129q0 -80 -32 -153t-85 -126.5t-120 -90.5 t-138 -50q-13 12 -16 45.5zM492 -376.5q-3 33.5 5 57.5q57 16 104.5 46t75.5 63.5t42.5 65.5t14.5 58q0 52 -14.5 68t-48.5 16q-41 8 -65 16t-46 23.5t-34.5 40t-21.5 62.5v15q21 62 59 100.5t108 66.5h14q44 -16 78 -40t61.5 -61.5t42.5 -93.5t15 -129q0 -80 -32 -153 t-84.5 -126.5t-119.5 -90.5t-137 -50q-14 12 -17 45.5z" />
<glyph unicode="&#x2022;" horiz-adv-x="861" d="M120 575q0 62 26 119t68.5 98t99.5 65.5t116 24.5q81 0 152.5 -41.5t115.5 -114t44 -158.5q0 -58 -22.5 -113t-61.5 -99t-99 -71t-129 -27q-84 0 -155 42t-113 115t-42 160z" />
<glyph unicode="&#x202f;" horiz-adv-x="418" />
<glyph unicode="&#x2039;" horiz-adv-x="872" d="M167 481v96q256 177 541 480v-133q-178 -251 -344 -396q160 -129 344 -392v-134q-296 345 -541 479z" />
<glyph unicode="&#x203a;" horiz-adv-x="872" d="M167 0v133q176 248 344 395q-158 127 -344 394v133q298 -347 541 -480v-96q-259 -179 -541 -479z" />
<glyph unicode="&#x205f;" horiz-adv-x="523" />
<glyph unicode="&#x2070;" horiz-adv-x="835" d="M76 1324q0 107 37.5 204t100.5 158q80 79 196 79q123 0 198 -65q60 -51 95.5 -143.5t35.5 -218.5q0 -139 -45 -244t-117 -160q-69 -54 -174 -54q-130 0 -209 81q-36 38 -62 91t-41 123t-15 149zM299 1188.5q1 -37.5 3 -73t9 -67t18 -55t30.5 -37t46.5 -13.5t47.5 14 t32 38t19 58t9.5 73.5t3 83.5t-1 90v64v37q1 26 0.5 52.5t-1 52.5t-4 50.5t-7.5 46.5t-12.5 40t-19 31t-26.5 20.5t-36 7.5t-36.5 -8.5t-28 -26t-20 -35.5t-13.5 -48t-8 -52t-4 -58t-1 -57t0.5 -57t0.5 -50v-48q-2 -36 -1 -73.5z" />
<glyph unicode="&#x2071;" horiz-adv-x="666" d="M197 894q14 101 14 271v81q0 209 -14 290l5 5q85 -3 129 -3q66 0 129 8q14 0 14 -17q-14 -182 -14 -265v-99q0 -165 14 -271l-2 -5q-61 5 -137 5q-75 0 -136 -5zM206 1816q0 32 16.5 59t44.5 42t62 15q53 0 89.5 -33t36.5 -83q0 -35 -16.5 -62t-45 -41.5t-64.5 -14.5 q-53 0 -88 33.5t-35 84.5z" />
<glyph unicode="&#x2074;" horiz-adv-x="835" d="M42 1189q62 91 231 308.5t208 272.5h124q29 0 29 -25v-481h147l-7 -104h-140v-4q0 -140 20 -256l-2 -6q-65 6 -122 6q-26 0 -54.5 -1.5t-44.5 -2.5l-16 -2l-2 6q17 88 17 256v4h-359zM197 1264h233v310z" />
<glyph unicode="&#x2075;" horiz-adv-x="835" d="M119 983q0 30 26.5 56.5t60.5 26.5q11 0 21 -4t19 -12t15.5 -14.5t16 -17.5t14.5 -16q2 -3 9.5 -11.5t10 -10.5t8.5 -8t10 -7.5t10.5 -4.5t13 -4t14.5 -1q104 0 104 195q0 33 -14 66.5t-48.5 65.5t-85.5 48q-71 21 -139 31l-13 9l51 376h455l-34 -160h-349l-18 -123 q234 -3 323 -70q90 -68 90 -217q0 -78 -42.5 -147t-114.5 -110t-155 -41q-42 0 -78 4t-62 10t-47 14.5t-34 17.5t-22 19.5t-12.5 20t-3.5 19.5z" />
<glyph unicode="&#x2076;" horiz-adv-x="835" d="M98 1241q0 57 14 113t42.5 112.5t76.5 106t111 90t151 67.5t192 35v-53q-82 -15 -147 -49t-107.5 -80.5t-69 -94.5t-42.5 -102q57 22 111 22q83 0 134 -12.5t83 -41.5q24 -22 40.5 -52.5t24 -59.5t10.5 -49t3 -35q0 -26 -7 -55.5t-21.5 -61.5t-39 -60.5t-56 -51 t-76.5 -36t-98 -13.5q-72 0 -126 16.5t-102 55.5q-101 81 -101 289zM300 1235q0 -276 127 -276q29 0 47.5 15t27 44t11.5 58t3 69q0 20 -2 40.5t-9 49t-18.5 49.5t-33 36.5t-50.5 15.5q-33 0 -54.5 -7.5t-48.5 -28.5v-65z" />
<glyph unicode="&#x2077;" horiz-adv-x="835" d="M91 1460q6 36 19.5 98t21 108t8.5 91q7 5 10 5q13 -2 30 -6.5t35.5 -6.5t56.5 -2h261q116 0 189 17l40 -26q-49 -83 -103 -189t-104 -218.5t-95 -229.5t-74 -214l-165 -5q74 193 178 404t166 314h-182q-34 0 -62.5 -5.5t-59 -20t-55 -45t-39.5 -75.5z" />
<glyph unicode="&#x2078;" horiz-adv-x="835" d="M103 1093q0 48 14.5 79t58.5 68t136 94q-5 3 -7 5q-150 78 -150 204q0 60 44 112t113 80.5t143 28.5q66 0 123 -21t93.5 -63t36.5 -95q0 -48 -39.5 -82t-127.5 -77l73 -45q160 -90 160 -218q0 -36 -11.5 -73t-39 -75.5t-66.5 -68t-100 -48t-135 -18.5q-39 0 -80 6 t-84.5 21t-77 38.5t-55.5 61.5t-22 86zM283 1109q0 -42 20.5 -79.5t53.5 -59t68 -21.5q63 0 103 39t40 110q0 50 -27 88.5t-86 69.5q-11 5 -41 17.5t-34 14.5q-35 -29 -66 -78.5t-31 -100.5zM326 1620q0 -33 21.5 -62t72.5 -59q19 -10 61 -34q32 13 52 46.5t20 73.5 q0 49 -28 82t-77 33q-47 0 -84.5 -25.5t-37.5 -54.5z" />
<glyph unicode="&#x2079;" horiz-adv-x="835" d="M101 1487q0 32 9.5 67.5t32.5 73.5t56 67.5t85 49t114 19.5q49 0 88 -7t74 -22.5t66 -41.5q48 -38 74.5 -112t26.5 -178q0 -69 -19 -136t-64 -133.5t-111 -118.5t-167 -88.5t-226 -46.5v51q82 15 147.5 49.5t107.5 81.5t68.5 94.5t42.5 102.5q-66 -23 -110 -23 q-56 0 -102 11.5t-76 29.5t-52.5 43t-34.5 48t-19 48.5t-9 41.5t-2 29zM310 1499q0 -20 1.5 -41t8.5 -49.5t18.5 -49.5t33.5 -36t50 -15q33 0 55 7t49 29v65q0 277 -128 277q-23 0 -39.5 -11t-25.5 -27.5t-14.5 -42.5t-7 -50t-1.5 -56z" />
<glyph unicode="&#x207a;" horiz-adv-x="835" d="M73 1248v98h269v269h132v-269h268v-98h-268v-268h-132v268h-269z" />
<glyph unicode="&#x207c;" horiz-adv-x="835" d="M98 1121v105h639v-105h-639zM98 1344v108h639v-108h-639z" />
<glyph unicode="&#x207d;" horiz-adv-x="549" d="M79 1320q0 127 96.5 263.5t258.5 240.5l42 -44q-74 -79 -115 -152.5t-54.5 -142.5t-13.5 -165q0 -77 6 -128.5t25 -107.5t55.5 -109t96.5 -115l-36 -46q-188 120 -274.5 245t-86.5 261z" />
<glyph unicode="&#x207e;" horiz-adv-x="532" d="M56 863q110 114 147.5 215t37.5 244q0 77 -6 129t-25.5 108t-56 108.5t-97.5 114.5l38 47q188 -120 274.5 -245t86.5 -262q0 -126 -97 -263t-260 -241z" />
<glyph unicode="&#x207f;" horiz-adv-x="1110" d="M167 894q18 103 18 271v81q0 199 -18 292l2 3q147 -6 249 5q10 0 12 -15q2 -19 2 -98l8 -5q103 136 224 136q262 0 262 -234v-165q0 -175 17 -271l-2 -5q-59 5 -135 5q-94 0 -138 -5l-2 5q10 70 10 271v132q0 126 -69 126q-83 0 -175 -121v-137q0 -168 11 -271l-5 -5 q-37 5 -126 5q-79 0 -143 -5z" />
<glyph unicode="&#x2080;" horiz-adv-x="835" d="M76 24q0 108 37.5 205t100.5 157q79 78 196 78q125 0 198 -63q60 -52 95.5 -145t35.5 -219q0 -139 -45 -243t-117 -160q-70 -55 -174 -55q-130 0 -209 81q-54 58 -86 152.5t-32 211.5zM299 -96q0 -20 1 -54t4 -54.5t7.5 -48t12.5 -43.5t19 -31.5t27 -23t36 -7.5 q27 0 47.5 14t32 38.5t19 58t9.5 73t3 83.5t-1 90v65v36q1 26 0.5 52.5t-1 52.5t-4 50.5t-7.5 46.5t-12.5 40t-19 31t-26.5 20.5t-36 7.5q-27 0 -47.5 -16t-32 -42t-19 -61t-9 -73.5t-3 -78t0.5 -74.5v-45q0 -16 -0.5 -51.5t-0.5 -55.5z" />
<glyph unicode="&#x2081;" horiz-adv-x="835" d="M140 368q240 49 428 104q12 0 12 -8q-1 -2 -4.5 -22t-6.5 -41t-6 -64t-3 -93v-396q0 -147 20 -256l-3 -5q-68 5 -125 5q-26 0 -57 -1t-48 -3l-18 -1l-3 5q18 95 18 256v346q0 43 -5.5 65t-22 24.5t-80 2.5t-93.5 2z" />
<glyph unicode="&#x2082;" horiz-adv-x="835" d="M82 -406q0 61 42 120.5t159 165.5l118 101q23 20 39 40t26 42t15.5 37t7.5 42t2.5 39.5t0.5 44.5q0 62 -38.5 106t-82.5 44q-19 0 -36 -7t-28.5 -15t-26 -26t-22 -30t-23.5 -38l-24 -39l-68 2l-35 160l5 6q45 27 119 51t151 24q95 0 170 -28.5t118.5 -83.5t43.5 -129 q0 -51 -16.5 -92t-44 -71t-77.5 -72l-159 -136q-27 -21 -58 -61t-31 -56h131q71 0 112.5 1.5t80.5 5t69 5.5q-2 -8 -4 -28t-3.5 -38.5t-1.5 -27.5q0 -30 9 -63q-120 4 -246 4q-85 0 -394 -4v4z" />
<glyph unicode="&#x2083;" horiz-adv-x="835" d="M56 -337l38 135l68 3q10 -16 22.5 -39t20 -36t20.5 -29t27 -24t36 -14t52 -6q19 0 38 4t42.5 16t40.5 31.5t29 54.5t12 81q0 48 -15 80.5t-42 48.5t-56 22.5t-67 6.5q-45 0 -64 -3v76q116 5 176 51.5t60 133.5q0 26 -11.5 51.5t-30.5 43.5t-42.5 29t-45.5 11 q-21 0 -38.5 -3t-30.5 -7.5t-25.5 -14t-20.5 -17t-18 -22t-16 -24.5t-17 -28t-18 -29h-70l-34 134l6 6q36 28 118.5 53t177.5 25q151 0 234.5 -46t83.5 -141q0 -85 -47.5 -142t-132.5 -83v-5q46 -4 85 -17.5t71.5 -37t51 -61.5t18.5 -86q0 -82 -54 -143t-145 -91.5 t-206 -30.5q-174 0 -273 76z" />
<glyph unicode="&#x2084;" horiz-adv-x="835" d="M42 -110q62 90 230.5 307t208.5 272h124q29 0 29 -24v-482h147l-7 -103h-140v-5q0 -140 20 -256l-2 -5q-65 5 -122 5q-26 0 -54.5 -1t-44.5 -2l-16 -2l-2 5q17 88 17 256v5h-359zM197 -37h233v312z" />
<glyph unicode="&#x2085;" horiz-adv-x="835" d="M96 -316q0 30 27 56.5t61 26.5q11 0 21 -4t19 -11.5t15.5 -14.5t15.5 -17.5t14 -15.5q1 -2 7 -8.5t7.5 -8l6.5 -6.5t6.5 -6t6 -5t7.5 -4.5t7.5 -3t8.5 -3t9.5 -1t11.5 -0.5q103 0 103 194q0 25 -8 50.5t-25 50.5t-46.5 46.5t-68.5 32.5q-62 19 -140 30l-12 11l52 376h454 l-34 -160h-350l-16 -123q232 -3 321 -70q91 -70 91 -217q0 -79 -42 -147.5t-114.5 -109.5t-155.5 -41q-72 0 -125.5 10t-81 26.5t-40.5 33t-13 33.5z" />
<glyph unicode="&#x2086;" horiz-adv-x="835" d="M84 -60q0 69 19.5 136t64 133.5t110.5 119t167.5 89t225.5 46.5v-52q-82 -15 -147 -49t-107.5 -80.5t-69 -94t-42.5 -102.5q57 22 110 22q83 0 134 -12t82 -42q31 -28 50.5 -72.5t24 -73t4.5 -50.5q0 -32 -9.5 -67.5t-32.5 -74t-56 -68.5t-85 -49.5t-114 -19.5 q-49 0 -88 7t-73.5 23t-66.5 42q-101 81 -101 289zM286 0v-65q0 -277 127 -277q28 0 47 15.5t27.5 44.5t11.5 58t3 69q0 20 -2 40.5t-9 49t-18.5 50t-33.5 36.5t-50 15q-33 0 -55 -7t-48 -29z" />
<glyph unicode="&#x2087;" horiz-adv-x="835" d="M101 162q5 33 15 78t16 75.5t11.5 70t6.5 74.5q0 5 5 5q3 -1 5 -1q12 -2 30 -6.5t36.5 -6t56.5 -1.5h261q114 0 188 17l40 -27q-102 -172 -210.5 -414t-165.5 -436l-164 -5q74 193 178 404.5t165 312.5h-181q-34 0 -62.5 -5.5t-59.5 -19.5t-56 -44.5t-40 -75.5z" />
<glyph unicode="&#x2088;" horiz-adv-x="835" d="M89 -206q0 47 14.5 78t58 68.5t136.5 94.5q-5 2 -8 5q-150 78 -150 204q0 60 44.5 111.5t113.5 80t142 28.5q67 0 124 -21t93.5 -62.5t36.5 -94.5q0 -21 -8 -39t-21 -32.5t-35 -30.5t-46 -29t-58 -30l74 -43q160 -90 160 -220q0 -36 -12 -73t-39 -75t-66.5 -67.5 t-100.5 -48t-134 -18.5q-40 0 -80.5 6t-84.5 21.5t-77.5 38.5t-55 61.5t-21.5 86.5zM268 -192q0 -64 44 -112t98 -48q64 0 103.5 39.5t39.5 110.5q0 50 -27 88t-86 70q-13 6 -74 32q-35 -28 -66.5 -78.5t-31.5 -101.5zM312 319q0 -33 21 -61t73 -59q2 -1 61 -35 q31 13 51.5 47t20.5 75q0 48 -29 81.5t-78 33.5q-23 0 -45.5 -7.5t-38.5 -19.5t-26 -26.5t-10 -28.5z" />
<glyph unicode="&#x2089;" horiz-adv-x="835" d="M84 187q0 32 9.5 67.5t32.5 73.5t55.5 68t84.5 49t114 19q74 0 128.5 -16t101.5 -54t73.5 -112.5t26.5 -178.5q0 -69 -19 -136t-64 -133t-111.5 -118.5t-167.5 -89t-226 -46.5v52q82 15 147.5 49t108 80.5t69 94.5t43.5 102q-63 -22 -112 -22q-56 0 -102 12t-75.5 30 t-52 42.5t-34.5 48t-19 49t-9 41t-2 28.5zM293 199q0 -20 2 -41t9 -49.5t18.5 -49.5t33 -36.5t50.5 -15.5q32 0 54 7.5t49 29.5v64q0 76 -10 131.5t-28 86.5t-40.5 45.5t-50.5 14.5t-46.5 -15t-27 -44t-11 -58t-2.5 -70z" />
<glyph unicode="&#x208a;" horiz-adv-x="835" d="M73 -30v98h269v269h132v-269h268v-98h-268v-268h-132v268h-269z" />
<glyph unicode="&#x208c;" horiz-adv-x="835" d="M98 -52h639v-105h-639v105zM98 66v108h639v-108h-639z" />
<glyph unicode="&#x208d;" horiz-adv-x="549" d="M79 19q0 127 96.5 264t258.5 240l42 -44q-74 -78 -115 -151.5t-54.5 -142.5t-13.5 -166q0 -77 6 -128.5t25 -107.5t55.5 -108.5t96.5 -114.5l-36 -47q-188 120 -274.5 245t-86.5 261z" />
<glyph unicode="&#x208e;" horiz-adv-x="532" d="M56 -434q110 114 147.5 214.5t37.5 243.5q0 77 -6 128.5t-25.5 107.5t-56 109t-97.5 115l38 46q188 -120 274.5 -245t86.5 -261q0 -126 -97 -262.5t-260 -240.5z" />
<glyph unicode="&#x2090;" horiz-adv-x="913" d="M84 -108q0 172 258 228l199 44q10 5 10 21q0 120 -129 120q-128 0 -208 -118h-50l-28 142l2 8q90 78 296 78q184 2 276 -59q84 -67 84 -196l-6 -270q0 -34 23 -47q18 -7 69 -7q12 -11 14 -57q-64 -49 -200 -49q-117 0 -146 85h-2q-85 -85 -229 -85q-109 0 -169 42 q-64 47 -64 120zM337 -71q0 -31 22 -56q22 -28 54 -28q60 0 113 49q22 23 22 69l3 101l-121 -32q-93 -24 -93 -103z" />
<glyph unicode="&#x2091;" horiz-adv-x="926" d="M98 44q0 165 104 268q95 108 279 108q203 0 276 -98q59 -68 59 -182q0 -54 -44 -54h-432v-22q-6 -92 43 -148q55 -59 175 -59q126 7 241 79q22 0 22 -46q-110 -162 -329 -162q-183 -11 -293 75q-101 92 -101 241zM347 155h237q3 2 3 32q-22 132 -115 132q-52 0 -81 -42 q-44 -53 -44 -122z" />
<glyph unicode="&#x2092;" horiz-adv-x="1024" d="M101 54q0 168 103 275q96 89 312 89q229 0 324 -99q84 -102 84 -251q0 -78 -24 -139t-72 -105q-95 -92 -314 -92q-221 0 -315 86q-98 85 -98 236zM364 89q0 -256 169 -256q131 0 131 195q0 149 -33 216q-33 70 -125 70q-88 0 -120 -70q-22 -56 -22 -155z" />
<glyph unicode="&#x2093;" horiz-adv-x="901" d="M49 406q54 -8 174 -8q87 0 136 8q51 -85 122 -183q98 135 131 183q34 -8 115 -8q52 0 84 8l-241 -286q27 -38 44 -61t37.5 -51t28.5 -39t33 -43.5t33.5 -44t47.5 -62t59 -77.5q-52 7 -135 7q-123 0 -170 -7q-43 69 -142 209l-143 -209q-29 7 -96 7q-69 0 -96 -7l243 314z " />
<glyph unicode="&#x20ac;" d="M0 558v22l41 76h109q-2 48 -2 71q0 36 1 54h-114l2 25l37 75h87q23 143 82.5 272t136.5 203q64 60 172 101.5t227 41.5q71 0 137.5 -10t109.5 -24.5t76 -29t48 -24.5l15 -11l5 -4q-16 -71 -21.5 -97t-12.5 -73.5t-10 -99.5h-62q-32 66 -48 95.5t-44 68t-55 53t-69 25.5 t-98 11q-48 0 -91 -28.5t-80 -86t-62 -156t-32 -227.5h434l-51 -100h-387v-12q0 -57 4 -113h349l-54 -98h-287q11 -94 31.5 -171.5t53 -142t81.5 -100.5t110 -36q44 0 76.5 4t62.5 14.5t53 27t46 43.5t44 62t45 85l49 -2q4 -77 10.5 -113.5t25.5 -110.5q5 -19 8 -29l-5 -7 q-11 -6 -40 -19.5t-38 -18t-33 -15t-34.5 -13.5t-33 -10.5t-38 -9.5t-40.5 -6t-49 -5.5t-54.5 -2.5t-66.5 -1q-89 0 -196 35.5t-175 96.5q-88 80 -144.5 196.5t-79.5 248.5h-162z" />
<glyph unicode="&#x2122;" horiz-adv-x="1953" d="M32 1428l47 221l59 -19q-1 -3 -2.5 -10.5l-2.5 -12.5t-2 -5h572q-1 0 -2 5l-2.5 12.5t-2.5 10.5l61 19l47 -223l-56 -12q-16 56 -28 81.5t-27 34t-44 8.5h-105q-21 0 -28 -10t-7 -41v-649q0 -30 16.5 -44.5t56.5 -14.5h35q12 0 12 -12v-33l-3 -2q-154 2 -204 2l-201 -2 l-3 2v33q0 12 14 12h33q42 0 59.5 13t17.5 46v651q0 29 -8 39t-27 10h-125q-27 0 -42 -8t-27.5 -34t-26.5 -82zM821 734v21q0 17 44 17h35q11 0 16 18t10 52v4q6 86 15.5 206t19 239t15.5 208v7v6q0 41 -22 41h-40q-42 3 -42 15v20l12 14h220l275 -650q246 608 263 650h201 l7 -14v-20q0 -7 -14 -11t-28 -4h-36q-22 0 -22 -39v-15l56 -653q4 -36 10.5 -55t19.5 -19h35q45 0 45 -17v-21l-14 -14q-108 5 -160 5l-162 -5l-14 14v21q0 17 41 17h35q14 0 14 56v18l-41 484l-243 -598q-8 -24 -40 -24q-9 0 -22.5 6.5t-19.5 17.5q-148 352 -246 586 q-19 -316 -34 -476v-14q0 -56 17 -56h37q10 0 19 -2t16 -6t7 -9v-21l-8 -14q-95 5 -149 5l-116 -5z" />
<glyph unicode="&#x2153;" horiz-adv-x="1621" d="M101 1550q240 49 427 104q13 0 13 -8q0 -2 -4 -21.5t-7 -41t-6 -64.5t-3 -93v-396q0 -140 20 -256l-2 -5q-70 5 -126 5q-26 0 -57 -1t-48 -3l-18 -1l-2 5q17 88 17 256v346q0 43 -5.5 65t-22.5 24.5t-80 2.5t-94 2zM182 -133l1126 1610l103 -20l-1128 -1609zM936 -256 l37 136l69 2q9 -15 22 -38.5t20 -36.5t20.5 -28.5t27 -24t36 -14t51.5 -5.5q20 0 39 3.5t42.5 15.5t40.5 31t28.5 54.5t11.5 81.5q0 38 -10 67t-26.5 46t-41 27.5t-48.5 14t-54 3.5q-35 0 -63 -3v76q116 6 176 52.5t60 132.5q0 53 -41.5 94t-89.5 41q-23 0 -42 -3.5 t-34.5 -12t-26 -16t-22.5 -23.5t-18.5 -26t-19.5 -31.5t-20 -33.5h-70l-34 136l5 5q16 12 44 25t66.5 25.5t88 20.5t99.5 8q151 0 234 -46t83 -141q0 -86 -48 -143t-132 -83v-6q46 -4 85 -17t71.5 -36.5t51 -61t18.5 -85.5q0 -62 -31 -113t-86 -84t-129 -51.5t-159 -18.5 q-172 0 -274 77z" />
<glyph unicode="&#x2154;" horiz-adv-x="1621" d="M82 642v5q0 60 42 119t159 165l118 101q19 18 34 36.5t24.5 33t16 35.5t10 32.5t5 36t1.5 34.5v38q0 62 -38.5 106t-82.5 44q-19 0 -36 -6.5t-28.5 -14.5t-26 -26.5t-22 -30.5t-23.5 -38l-24 -39l-68 3l-35 159l5 5q27 16 63.5 32t95 30.5t111.5 14.5q145 0 238.5 -65.5 t93.5 -175.5q0 -52 -16.5 -93t-44 -71.5t-77.5 -72.5l-159 -134q-18 -14 -38.5 -38t-35.5 -47.5t-15 -33.5h131q71 0 113 2t80 6t69 5q0 -3 -1 -7t-1.5 -9.5t-1.5 -11.5t-1.5 -12.5t-1 -12.5l-1 -12t-1 -11.5t-0.5 -10v-6.5q0 -30 9 -64q-120 5 -246 5q-85 0 -394 -5z M182 -133l1126 1610l103 -20l-1128 -1609zM922 -260l37 135l68 3q10 -16 22.5 -39t20 -36t20.5 -29t27 -24t36.5 -14t51.5 -6q20 0 39 3.5t42 15.5t40 31.5t29 54.5t12 81q0 39 -10.5 67.5t-26.5 45.5t-40.5 27t-48.5 13.5t-54 3.5q-45 0 -64 -2v77q237 11 237 183 q0 35 -20 67t-50.5 50.5t-60.5 18.5q-24 0 -43 -3.5t-34.5 -12t-26 -15.5t-23 -23.5t-19 -26t-19.5 -31.5t-20 -33h-68l-35 135l5 5q36 28 119 53.5t178 25.5q151 0 234 -46t83 -141q0 -86 -47 -143.5t-132 -83.5v-5q46 -3 85.5 -16.5t71.5 -37t50.5 -61.5t18.5 -86 q0 -83 -54.5 -143.5t-145.5 -91t-206 -30.5q-171 0 -272 76z" />
<glyph unicode="&#x2155;" horiz-adv-x="1621" d="M118 1553q244 49 428 103q12 0 12 -7q0 -2 -4 -22t-7 -41.5t-5.5 -64.5t-2.5 -93v-396q0 -147 19 -256l-2 -4q-70 4 -126 4q-27 0 -57.5 -1t-47.5 -2l-18 -1l-2 4q17 89 17 256v347q0 43 -5 64.5t-22 24.5q-13 2 -41.5 2t-67 0.5t-66.5 1.5zM182 -133l1126 1610l103 -20 l-1128 -1609zM959 -239q0 30 26.5 56.5t60.5 26.5q14 0 27 -7t20.5 -14.5t20.5 -22.5t18 -20q1 -1 7 -7.5t7 -8t6.5 -6.5t7 -6t6 -5t7 -4.5t7.5 -3t9 -3t9.5 -1t11.5 -0.5q103 0 103 193q0 33 -13.5 66.5t-48.5 66t-86 47.5q-70 21 -140 31l-12 11l51 374h455l-35 -159h-349 l-17 -124q233 -3 322 -69q91 -70 91 -216q0 -59 -25 -114t-67 -95.5t-100 -64.5t-120 -24q-72 0 -125.5 10t-81.5 26t-40.5 33t-12.5 34z" />
<glyph unicode="&#x2156;" horiz-adv-x="1621" d="M84 772v4q0 61 42 120.5t160 165.5l117 101q23 20 39.5 40t26 42.5t15 37.5t8 42t2.5 39.5v44.5q0 62 -38 105.5t-83 43.5q-19 0 -36 -7t-28.5 -15t-26 -26t-22 -30t-23 -38t-23.5 -39l-69 2l-35 161l5 5q45 27 120 51t151 24q146 0 239 -65t93 -176q0 -74 -31.5 -123.5 t-106.5 -111.5l-160 -136q-27 -21 -58 -61t-31 -56h131q71 0 113 1.5t81 5t69 5.5q-3 -12 -6.5 -45.5t-3.5 -48.5q0 -30 10 -63q-120 4 -246 4q-85 0 -395 -4zM182 -133l1126 1610l103 -20l-1128 -1609zM961 -236q0 29 27 55.5t61 26.5q13 0 26.5 -7t20.5 -14t20.5 -22.5 t17.5 -19.5q1 -2 7 -8.5t7.5 -7.5t6.5 -6.5t6.5 -6.5t6.5 -4.5t7.5 -4.5t7 -3t8.5 -2.5t9.5 -1.5t11.5 -1q103 0 103 193q0 34 -13.5 67.5t-48.5 65.5t-85 47q-70 22 -141 32l-12 10l52 376h455l-35 -161h-349l-17 -123q233 -3 321 -70q92 -70 92 -216q0 -59 -25.5 -114 t-67.5 -95t-99.5 -64.5t-119.5 -24.5q-72 0 -126 10t-81.5 26.5t-40.5 33t-13 34.5z" />
<glyph unicode="&#x2157;" horiz-adv-x="1621" d="M54 713l37 135l69 3q9 -16 22 -39t20 -36t20.5 -29t27 -24t36 -14t51.5 -6q16 0 32 3t35 9.5t35.5 20t30 33t21.5 50.5t8 70q0 48 -14.5 80.5t-41.5 48.5t-56.5 22t-67.5 6q-44 0 -63 -2v77q236 11 236 183q0 54 -41.5 95t-89.5 41q-23 0 -42 -3t-35 -12t-26.5 -16 t-22.5 -23.5t-18.5 -26t-20 -31.5t-20.5 -33h-68l-35 135l6 5q37 28 119.5 53.5t177.5 25.5q151 0 234.5 -46t83.5 -141q0 -85 -48 -142t-132 -83v-6q36 -3 68.5 -12t61.5 -25.5t50 -39t33 -54.5t12 -71q0 -82 -54 -143t-144.5 -91.5t-205.5 -30.5q-172 0 -274 77zM182 -133 l1126 1610l103 -20l-1128 -1609zM954 -236q0 29 27 55.5t61 26.5q13 0 26.5 -7t20.5 -14t20 -22.5t18 -19.5q1 -2 7 -8.5t7.5 -7.5t6.5 -6.5t6.5 -6.5t6 -4.5t7.5 -4.5t7.5 -3t8.5 -2.5t9.5 -1.5t11.5 -1q103 0 103 193q0 34 -13.5 67.5t-48.5 65.5t-86 47q-69 22 -140 32 l-12 10l52 376h454l-34 -161h-350l-16 -123q232 -3 321 -70q91 -70 91 -216q0 -78 -42 -147t-114.5 -110t-155.5 -41q-72 0 -125.5 10t-81 26.5t-40.5 33t-13 34.5z" />
<glyph unicode="&#x2158;" horiz-adv-x="1621" d="M19 1072q62 90 231 306.5t210 272.5h122q30 0 30 -24v-482h148l-8 -103h-140v-5q0 -147 19 -256l-2 -5q-64 5 -120 5q-17 0 -35 -0.5t-31.5 -1t-25 -1.5t-17.5 -1l-6 -1l-3 5q17 88 17 256v5h-359zM174 1145h234v312zM182 -133l1126 1610l103 -20l-1128 -1609zM964 -236 q0 29 26.5 55.5t60.5 26.5q14 0 27 -7t20.5 -14t20.5 -22.5t17 -19.5q2 -2 6 -7q14 -15 21.5 -21.5t20.5 -12t30 -5.5q104 0 104 193q0 34 -14 67.5t-48.5 65.5t-85.5 47q-70 22 -140 32l-12 10l51 376h455l-35 -161h-349l-17 -123q233 -3 322 -70q91 -70 91 -216 q0 -59 -25 -114t-67 -95t-100 -64.5t-120 -24.5q-72 0 -125.5 10t-81.5 26.5t-40.5 33t-12.5 34.5z" />
<glyph unicode="&#x2159;" horiz-adv-x="1621" d="M131 1553q240 49 427 103q12 0 12 -7q0 -2 -4 -22t-7 -41.5t-5.5 -64.5t-2.5 -93v-396q0 -147 19 -256l-2 -4q-69 4 -125 4q-26 0 -57 -1t-49 -2l-18 -1l-2 4q18 95 18 256v347q0 28 -2 45t-8 29.5t-18 14.5q-17 2 -80 2.5t-94 1.5zM182 -133l1126 1610l103 -20 l-1128 -1609zM949 17q0 69 19.5 136t64 133.5t110.5 119t167.5 89t225.5 46.5v-53q-82 -15 -147 -49t-107.5 -80.5t-69 -94.5t-42.5 -102q57 22 110 22q56 0 95 -5t69.5 -16.5t51.5 -31.5q24 -22 41 -52.5t24.5 -59.5t11 -50t3.5 -35q0 -26 -7.5 -55.5t-21.5 -61.5 t-38.5 -60.5t-56 -51t-77 -36t-97.5 -13.5q-73 0 -127 16.5t-102 55.5q-100 80 -100 289zM1150 11q0 -276 128 -276q28 0 47 15t27.5 44t11.5 58t3 69q0 19 -2 40t-9.5 49.5t-19 49.5t-33.5 36.5t-50 15.5q-33 0 -55 -7.5t-48 -28.5v-65z" />
<glyph unicode="&#x215a;" horiz-adv-x="1621" d="M116 864q0 30 27 56.5t61 26.5q11 0 21 -4t19 -11.5t15.5 -14.5t15.5 -18t14 -16q2 -2 9 -10t9 -9.5t7.5 -7t8 -7t8.5 -5t10.5 -4t11 -1.5t13.5 -1q103 0 103 194q0 33 -13.5 66.5t-48.5 66t-85 47.5q-64 19 -140 30l-13 11l52 375h455l-34 -159h-349l-18 -124 q234 -3 323 -69q90 -69 90 -218q0 -58 -25.5 -113t-67.5 -95.5t-99.5 -64.5t-119.5 -24q-72 0 -125.5 10t-81 26t-40.5 33t-13 34zM182 -133l1126 1610l103 -20l-1128 -1609zM946 19q0 69 19 136.5t64 133.5t111.5 118.5t167.5 89.5t226 47v-53q-66 -12 -122 -37.5 t-94.5 -57t-69.5 -72t-49.5 -79t-30.5 -81.5q57 22 110 22q84 0 134.5 -11.5t81.5 -41.5q31 -28 50.5 -72.5t24 -73.5t4.5 -51q0 -32 -9.5 -67.5t-32.5 -73.5t-56 -68t-85 -49.5t-114 -19.5q-73 0 -127 17t-103 55q-100 81 -100 289zM1147 13q0 -276 129 -276q28 0 46.5 15 t27 44t11.5 58t3 69q0 20 -2 41t-9 49t-18.5 49.5t-33.5 36.5t-51 15q-33 0 -54.5 -6.5t-48.5 -28.5v-66z" />
<glyph unicode="&#x215b;" horiz-adv-x="1621" d="M118 1550q244 50 428 104q12 0 12 -8q0 -2 -4 -22t-7 -41t-5.5 -64t-2.5 -93v-396q0 -147 19 -256l-2 -5q-70 5 -126 5q-27 0 -57.5 -1t-47.5 -3l-18 -1l-2 5q17 88 17 256v346q0 44 -5 65.5t-22 23.5q-17 3 -80.5 3t-94.5 2zM182 -133l1126 1610l103 -20l-1128 -1609z M959 -133q0 47 14.5 78t58 68.5t136.5 94.5q-5 2 -8 5q-150 78 -150 204q0 45 26.5 87t68.5 71t96.5 46.5t108.5 17.5q50 0 95.5 -13t80.5 -35.5t56.5 -57t21.5 -74.5q0 -48 -40 -82t-128 -78l74 -44q160 -90 160 -219q0 -35 -12 -72.5t-39 -75.5t-66.5 -67.5t-100.5 -48.5 t-134 -19q-40 0 -80.5 6t-84.5 21.5t-77.5 39t-55 61.5t-21.5 86zM1138 -118q0 -63 44 -111t98 -48q64 0 103.5 39t39.5 111q0 50 -27 88t-86 69q-10 5 -40 17.5t-34 13.5q-35 -28 -66.5 -78t-31.5 -101zM1182 394q0 -22 8.5 -41t29.5 -39.5t56 -41.5q19 -9 61 -33 q21 8 37 26t25.5 42.5t9.5 51.5q0 48 -29 81.5t-78 33.5q-23 0 -45.5 -7.5t-38.5 -19t-26 -26t-10 -27.5z" />
<glyph unicode="&#x215c;" horiz-adv-x="1621" d="M61 710l37 136l69 2q9 -14 19.5 -33.5t17.5 -31.5t16.5 -26.5t20 -23.5t25 -17t34 -11.5t44.5 -3.5q20 0 39 3.5t42.5 15.5t40.5 31t28.5 54.5t11.5 81.5q0 48 -14.5 80.5t-41.5 48.5t-56 22t-68 6q-44 0 -63 -2v76q236 11 236 184q0 53 -41.5 94.5t-89.5 41.5 q-23 0 -42 -3.5t-34.5 -12t-26 -16t-22.5 -23.5t-18.5 -26t-19.5 -31.5t-20 -33.5h-70l-33 136l4 5q37 28 119.5 53.5t177.5 25.5q151 0 234.5 -46t83.5 -141q0 -86 -48 -143.5t-132 -83.5v-5q46 -4 85.5 -17t71.5 -37t51 -61.5t19 -85.5q0 -83 -54.5 -144t-145.5 -91.5 t-206 -30.5q-172 0 -274 77zM182 -133l1126 1610l103 -20l-1128 -1609zM956 -127q0 47 15 78t58.5 67.5t135.5 94.5q-5 2 -7 5q-150 78 -150 204q0 60 44 112t113 81t143 29q66 0 123 -21.5t93 -63.5t36 -95q0 -48 -39.5 -82.5t-127.5 -77.5l75 -44q159 -90 159 -219 q0 -35 -11.5 -72.5t-39 -75.5t-66.5 -68t-100 -48.5t-134 -18.5q-40 0 -81 6t-84.5 21.5t-77 39t-55.5 62t-22 86.5zM1135 -113q0 -63 44.5 -111t98.5 -48q63 0 103 39t40 111q0 50 -27 88t-86 69q-11 5 -41 17.5t-33 13.5q-36 -29 -67.5 -78.5t-31.5 -100.5zM1180 398 q0 -33 21 -61.5t72 -59.5q19 -9 61 -33q32 12 51.5 45.5t19.5 74.5q0 23 -7 43.5t-20 36.5t-33 25.5t-45 9.5q-47 0 -83.5 -26t-36.5 -55z" />
<glyph unicode="&#x215d;" horiz-adv-x="1621" d="M109 864q0 30 26.5 56.5t60.5 26.5q13 0 26.5 -7.5t21 -14t21 -22.5t17.5 -20q2 -2 9 -10t8.5 -9.5t7.5 -7t8.5 -7t8 -5t10.5 -4t11 -1.5t14 -1q103 0 103 194q0 33 -13.5 66.5t-48.5 66t-86 47.5q-62 19 -140 30l-12 11l52 375h454l-34 -159h-348l-18 -124 q234 -3 322 -69q90 -69 90 -218q0 -78 -42 -147t-114.5 -109.5t-155.5 -40.5q-72 0 -125 10t-80.5 26t-40.5 33t-13 34zM182 -133l1126 1610l103 -20l-1128 -1609zM943 -131q0 47 15 78.5t59 68.5t136 94q-7 4 -8 5q-150 78 -150 204q0 60 44 112t113 81t143 29 q49 0 94.5 -12.5t81 -35.5t56.5 -57.5t21 -74.5q0 -48 -39.5 -82t-127.5 -77l73 -45q161 -90 161 -218q0 -36 -11.5 -73t-39 -75.5t-66.5 -68t-100 -48t-134 -18.5q-33 0 -67 4t-71 13.5t-69 26.5t-58 39.5t-41 56t-15 73.5zM1123 -115q0 -64 44.5 -112t98.5 -48 q63 0 103 39.5t40 110.5q0 50 -27.5 88t-86.5 69q-8 4 -22 10t-30 12.5t-21 9.5q-36 -29 -67.5 -78.5t-31.5 -100.5zM1168 396q0 -33 21 -62t72 -59q19 -10 61 -34q32 13 51.5 46.5t19.5 73.5q0 23 -7 44t-20 37t-33 25t-45 9q-23 0 -45.5 -7t-39 -18.5t-26 -26t-9.5 -28.5z " />
<glyph unicode="&#x215e;" horiz-adv-x="1621" d="M94 1342q6 35 19.5 97.5t21 108.5t8.5 91q6 5 9 5q13 -2 30.5 -6.5t36 -6t56.5 -1.5h260q116 0 190 16l39 -26q-102 -172 -210 -414.5t-165 -436.5l-166 -5q39 102 91 217.5t100 212t88 171t66 117.5h-182q-33 0 -61.5 -5.5t-59.5 -20t-56 -45t-40 -74.5zM182 -133 l1126 1610l103 -20l-1128 -1609zM968 -127q0 47 15 78t58.5 67.5t135.5 94.5q-5 2 -7 5q-150 78 -150 204q0 60 44 112t113 81t143 29q66 0 123.5 -21.5t93.5 -63.5t36 -95q0 -48 -39.5 -82.5t-128.5 -77.5l75 -44q159 -90 159 -219q0 -35 -11.5 -72.5t-39 -75.5t-66.5 -68 t-100 -48.5t-134 -18.5q-40 0 -81 6t-84.5 21.5t-77 39t-55.5 62t-22 86.5zM1147 -113q0 -42 21 -79t54 -58.5t68 -21.5q63 0 103 39t40 111q0 50 -27 88t-86 69q-11 5 -41 17.5t-33 13.5q-36 -29 -67.5 -78.5t-31.5 -100.5zM1192 398q0 -33 21 -61.5t72 -59.5q19 -9 61 -33 q32 12 52 45.5t20 74.5q0 31 -11.5 56.5t-36 42t-57.5 16.5q-47 0 -84 -26t-37 -55z" />
<glyph unicode="&#x215f;" horiz-adv-x="864" d="M110 1553q244 49 429 103q12 0 12 -7q-1 -4 -2.5 -13.5t-4 -20.5t-5 -29.5t-4.5 -40t-3.5 -52.5t-1.5 -65v-396q0 -140 21 -256l-3 -4q-69 4 -126 4q-26 0 -56.5 -1t-47.5 -2l-18 -1l-2 4q16 89 16 256v347q0 43 -5 64.5t-21 24.5q-13 2 -41.5 2t-67.5 0.5t-66 1.5z M182 -133l1126 1610l103 -20l-1128 -1609z" />
<glyph unicode="&#x2248;" horiz-adv-x="1294" d="M133 192q13 61 42.5 124t70.5 116.5t94.5 87t107.5 33.5q26 0 60.5 -13.5t54.5 -25.5t66 -40q39 -26 63 -40t58 -27t59 -13q29 0 52.5 5t50.5 19t50.5 43.5t43.5 73.5l87 -38q-18 -63 -43.5 -115t-53.5 -85.5t-56 -58t-55.5 -37.5t-48 -19t-37.5 -6q-43 0 -86.5 21.5 t-98.5 60.5q-56 38 -98 58.5t-84 20.5t-83 -22t-75 -61.5t-63 -93.5zM143 551q12 61 42 124t70.5 116t94 87t107.5 34q26 0 61 -13.5t55 -25.5t65 -40q40 -26 64 -40t57.5 -27.5t58.5 -13.5q29 0 53 5.5t50.5 19.5t50.5 43.5t43 73.5l89 -38q-21 -75 -54 -134t-65.5 -93 t-68 -56t-61.5 -30t-46 -8q-43 0 -87 21.5t-98 60.5q-57 39 -98.5 59t-82.5 20q-43 0 -83.5 -22t-75.5 -61.5t-63 -94.5z" />
<glyph unicode="&#x25fc;" horiz-adv-x="1056" d="M0 0v1057h1057v-1057h-1057z" />
<glyph unicode="&#xe010;" horiz-adv-x="1306" d="M96 732q0 180 43.5 326.5t120 242t179.5 147t222 51.5q55 0 108.5 -10.5t109 -36t103.5 -64t91 -98t73.5 -134.5t48 -177.5t17.5 -223.5q0 -107 -14 -201t-39.5 -167.5t-60 -135t-76.5 -105.5t-87.5 -77.5t-94.5 -53.5t-96.5 -29.5t-94.5 -9.5q-105 0 -195 40t-155 110 t-111.5 165.5t-69 207t-22.5 233.5zM448 698q0 -55 0.5 -87.5t2.5 -96t7.5 -105t14.5 -97.5t24.5 -92t36 -70.5t51 -51t67.5 -16.5q22 0 42.5 8.5t42.5 31t40 58t34 92.5t27.5 130.5t18 176t6.5 225.5q0 80 -5 150t-13.5 125t-20.5 101t-26.5 79.5t-30.5 58.5t-34 40.5 t-36 22.5t-36 7q-23 0 -43 -6t-42 -24.5t-40 -49.5t-35 -83t-28.5 -122t-18 -171.5t-6.5 -225.5v-8z" />
<glyph unicode="&#xe011;" horiz-adv-x="1072" d="M98 1315q311 71 662 184q6 0 8.5 -0.5t5 -3.5t2.5 -8q0 -2 -3 -23t-5.5 -38t-6 -53t-6 -73.5t-4 -94t-1.5 -119.5v-622q0 -267 29 -464l-5 -7q-106 7 -194 7q-41 0 -88 -2t-74 -3l-27 -2l-2 7q26 169 26 464v600q0 82 -8 121t-36 39q-160 0 -268 -14z" />
<glyph unicode="&#xe012;" horiz-adv-x="1213" d="M86 0q0 108 66 213t249 291l181 179q42 43 71.5 87.5t45 82t24 86.5t10 85t1.5 92q0 109 -57.5 180t-128.5 71q-89 0 -156.5 -49.5t-128.5 -159.5l-108 2l-52 194l7 10q32 28 105 59t171 53.5t182 22.5q74 0 142 -10.5t129.5 -30.5t112 -52.5t87.5 -74t57 -97.5t20 -120 q0 -28 -4 -54.5t-9 -48t-17 -45.5t-21 -41t-27 -40t-29.5 -37t-35 -38t-36.5 -36t-40.5 -38.5t-40.5 -39.5l-246 -239q-43 -40 -92 -111.5t-49 -99.5h202q70 0 126.5 1t101 3.5t76 5t76 6t77.5 6.5q-5 -23 -9.5 -79t-4.5 -83q0 -51 14 -116q-246 10 -427 10q-83 0 -178 -1.5 t-221.5 -4t-212.5 -4.5z" />
<glyph unicode="&#xe013;" horiz-adv-x="1243" d="M98 122l54 195l108 2q14 -24 31 -58l27 -54t25.5 -44t31 -37.5t37.5 -26.5t52 -18t69 -5q20 0 41 4.5t46 16.5t48 30t44 46.5t37 64.5t25.5 86.5t9.5 109.5q0 288 -278 288q-90 0 -120 -4v98q190 13 289 95t99 234q0 47 -18 93.5t-46.5 81t-65 55.5t-72.5 21 q-30 0 -56 -4t-48 -13.5t-39 -18.5t-34 -28t-28.5 -33.5t-27 -42t-25 -46.5t-26.5 -54l-108 2l-53 193l9 11q55 49 183.5 93t275.5 44q116 0 204 -17t153.5 -53.5t99.5 -97.5t34 -147q0 -147 -87 -242.5t-230 -132.5v-7q57 -6 111 -21.5t105 -45t89 -69t61 -97.5t23 -126 q0 -110 -49 -200t-134 -148.5t-199.5 -90.5t-247.5 -32q-81 0 -152 13.5t-122.5 36t-85 43.5t-60.5 45z" />
<glyph unicode="&#xe014;" horiz-adv-x="1332" d="M68 516q0 3 3.5 9t8.5 13t6 10q353 533 634 951q103 -10 253 0l5 -5l-5 -980h241q36 0 36 -40q0 -24 -22.5 -50t-47.5 -26h-207q3 -208 28 -398l-6 -7q-98 7 -177 7q-36 0 -79 -2t-67 -3l-25 -2l-3 7q24 171 24 398h-434q-42 0 -57 3.5t-25 13.5l-37 45q-6 11 -18 23.5 t-20.5 20.5t-8.5 12zM214 514h454v710q-167 -226 -454 -710z" />
<glyph unicode="&#xe015;" d="M110 98l52 195l84 2q62 -110 127.5 -154.5t172.5 -44.5q43 0 85 20t78.5 59.5t59 108t22.5 154.5q0 79 -9.5 137t-34 105t-64.5 76q-68 48 -153 48t-138 -22.5t-121 -78.5l-59 18q14 32 26 143t18 235.5t4.5 238.5t-12.5 151l5 7q288 -24 349 -24q227 0 484 27l16 -7 l-38 -236q-163 -15 -337 -15q-155 0 -333 20l-18 -361q94 34 292 34q85 0 170 -28t146 -77q45 -36 80 -86t55.5 -111.5t20.5 -125.5q0 -93 -28.5 -177t-80 -147.5t-120 -110.5t-151 -71t-170.5 -24q-182 0 -290.5 24t-181.5 86z" />
<glyph unicode="&#xe016;" horiz-adv-x="1264" d="M103 605q0 123 26.5 239t87.5 227.5t151 189.5q143 123 302 176.5t416 61.5q14 -17 18 -48t-2 -53q-61 -3 -112 -10t-112.5 -22t-120 -44.5t-110.5 -71.5q-87 -70 -146 -188t-73 -250q43 23 91.5 41.5t89.5 29.5t71 15q83 -2 153.5 -19t119.5 -42.5t87.5 -60.5t62 -70.5 t38.5 -74.5t21 -70t6 -59q0 -48 -9 -98t-29 -101.5t-48.5 -99t-72 -89t-96 -72t-122 -48.5t-149.5 -18q-57 0 -108.5 7t-107 26t-101.5 49t-88 79t-71 113t-46 154.5t-17 200.5zM413 595q0 -70 5 -130.5t13.5 -108t21 -87t27.5 -68.5t33 -52t36.5 -37.5t39.5 -24t40.5 -13 t41.5 -3.5q71 0 119 98.5t48 287.5q0 75 -29.5 147t-86 121t-124.5 49q-40 0 -79 -12t-104 -52q-2 -27 -2 -115z" />
<glyph unicode="&#xe017;" horiz-adv-x="1100" d="M86 1182q4 28 8 91.5t4 90.5q0 39 -12 132q78 -10 294.5 -17t491.5 -7q83 0 158 20l34 -50q-198 -483 -321.5 -809.5t-233.5 -654.5l-291 -10l-7 18q51 115 134.5 278t157 301t161 318.5t150.5 335.5q-66 0 -168 -5t-279 -15.5t-281 -16.5z" />
<glyph unicode="&#xe018;" horiz-adv-x="1240" d="M84 359q0 69 23 128t68.5 110t105 93.5t141.5 85.5l-44 26q-218 121 -218 336q0 157 130.5 259t347.5 102q130 0 231.5 -37.5t159 -108.5t57.5 -164q0 -114 -70.5 -190.5t-218.5 -138.5l144 -86q93 -65 155 -169.5t62 -208.5q0 -220 -185 -342q-40 -26 -106.5 -44 t-133.5 -26t-131 -8q-76 0 -150.5 15.5t-141 47.5t-117 76.5t-80 107.5t-29.5 136zM391 359q0 -65 19.5 -120.5t50.5 -90.5t69 -55t77 -20q34 0 61.5 4.5t56 14.5t49.5 30t37.5 49.5t25.5 74t9 101.5q0 106 -40.5 175.5t-146.5 138.5l-106 57q-42 -32 -73 -69t-48 -71 t-26.5 -74.5t-12 -72t-2.5 -72.5zM438 1196q0 -59 42 -125.5t115 -109.5l71 -42q22 18 33 27.5t32 29.5t32.5 38t25 42.5t19.5 53t6 60.5q0 35 -6.5 67.5t-21 62.5t-36 52t-54 35t-72.5 13q-61 0 -104 -27.5t-62.5 -73t-19.5 -103.5z" />
<glyph unicode="&#xe019;" horiz-adv-x="1297" d="M122 973q0 48 9 97.5t29 101.5t49 99t72.5 89t96 72.5t122.5 48.5t149 18q57 0 108.5 -7t107 -26t101 -49t87.5 -79t71 -113t46 -154.5t17 -200.5q0 -123 -26.5 -239t-87.5 -227.5t-151 -189.5q-143 -123 -302 -176.5t-416 -61.5q-14 17 -17.5 47.5t3.5 52.5 q61 3 111.5 9.5t112 22t120.5 44.5t110 71q87 70 145.5 188.5t72.5 250.5q-63 -33 -134 -56t-118 -29q-83 2 -153.5 18.5t-119.5 42.5t-87.5 61t-62 70.5t-38.5 74t-21 70t-6 59.5zM452 1018q0 -75 30 -147t86.5 -121t125.5 -49q39 0 77.5 12t103.5 51q2 28 2 116 q0 123 -15.5 217.5t-40 151t-59 92.5t-69 49t-74.5 13q-71 0 -119 -98.5t-48 -286.5z" />
<glyph unicode="&#xe01a;" horiz-adv-x="1510" d="M42 533l1 15l36 88h185q0 7 -0.5 22t-0.5 22q0 46 3 89h-158l44 103h128q23 128 78.5 233.5t143.5 174.5q97 79 198 111t246 32q71 0 142.5 -10t122 -24.5t90.5 -29t60 -24.5l20 -10l5 -5q-16 -68 -21.5 -96.5t-12.5 -75t-10 -99.5h-62q-45 92 -91 145t-112 80.5 t-160 27.5q-59 0 -109 -22.5t-93 -71t-72 -133.5t-39 -203h524l-42 -103h-488v-47q0 -43 3 -86h421l-42 -103h-364q17 -88 49 -164.5t75.5 -135t100.5 -92t120 -33.5q67 0 114 9.5t90 35.5t78 72t70 119l49 -2q5 -84 11.5 -121t31.5 -132l-5 -7q-6 -4 -18 -11t-56 -24.5 t-95 -30.5t-134.5 -24t-174.5 -11q-134 0 -230.5 31.5t-187.5 100.5q-189 141 -230 420h-232z" />
<glyph unicode="&#xe01b;" horiz-adv-x="1365" d="M24 1482q40 -7 156 -7q146 0 186 7q15 -35 32 -70.5t31 -65t35 -68t34 -62t38.5 -65.5t36.5 -60.5t41 -65.5t39.5 -62.5t44 -68t42.5 -66.5q241 346 378 654q28 -7 123 -7q71 0 101 7q-127 -201 -289 -440.5t-205 -309.5v-56h344q5 0 9.5 -1.5t7.5 -5t3 -8.5v-66 q0 -15 -19.5 -23.5t-42.5 -8.5h-300q0 -26 0.5 -77.5t1.5 -77.5h340q8 0 14 -4t6 -10v-65q0 -15 -19.5 -24.5t-42.5 -9.5h-296q4 -196 11 -302q-37 7 -147 7q-160 0 -197 -7q10 88 14 302h-326q-10 0 -12.5 2.5t-2.5 12.5v49q0 11 4.5 21.5t18.5 19t36 8.5h283q0 26 1 78 t1 77h-329q-10 0 -12.5 2.5t-2.5 11.5v49q0 12 4.5 22t18.5 19t36 9h286v4q-479 747 -515 802z" />
<glyph unicode="&#xe02c;" horiz-adv-x="1722" d="M49 -7q14 30 91 198t96.5 211t86.5 190.5t95.5 210t85.5 190t94 211t85 192t91 208.5h221q169 -432 378 -933t296 -678q-42 7 -224 7q-157 0 -199 -7q-59 213 -183 547q-241 4 -245 4q-139 0 -326 -5q-143 -351 -194 -546q-30 7 -111 7q-108 0 -138 -7zM457 1895 q0 65 45 110t110 45t110 -45t45 -110q0 -63 -45 -108t-110 -45q-42 0 -78 20.5t-56.5 55.5t-20.5 77zM550 678q102 -5 256 -5q66 0 206 3q-131 339 -218 538h-15zM997 1895q0 64 45.5 109.5t110.5 45.5q64 0 109.5 -45.5t45.5 -109.5q0 -63 -46 -108t-109 -45 q-65 0 -110.5 45t-45.5 108z" />
<glyph unicode="&#xe02d;" horiz-adv-x="1963" d="M127 762q0 179 63 336.5t173.5 272t269.5 181t343 66.5q194 0 354.5 -58.5t272 -163.5t172.5 -255.5t61 -331.5q0 -147 -38.5 -275.5t-112.5 -230.5t-177.5 -175.5t-238.5 -112.5t-291 -39q-181 0 -338.5 58.5t-270 161t-177.5 249.5t-65 317zM523 804q0 -173 37 -306.5 t104.5 -217.5t159 -127t203.5 -43q140 0 231.5 71.5t136.5 215.5t45 365q0 257 -52.5 415t-161 231.5t-283.5 73.5q-420 0 -420 -678zM556 1897q0 65 45 110t109.5 45t109.5 -45t45 -110q0 -63 -45 -107.5t-110 -44.5q-42 0 -77.5 20.5t-56 55.5t-20.5 76zM1096 1897 q0 65 45 110t109 45t109.5 -45t45.5 -110q0 -63 -45.5 -107.5t-109.5 -44.5q-42 0 -77.5 20.5t-56 55.5t-20.5 76z" />
<glyph unicode="&#xe02e;" horiz-adv-x="1766" d="M187 1585l5 7q107 -7 191 -7q38 0 89 2t83 4l32 1l3 -7q-25 -171 -25 -492v-432q0 -45 3 -87.5t13 -97t25.5 -100.5t43.5 -91.5t65.5 -77.5t93 -51.5t122.5 -19.5q75 0 135.5 16t102.5 43t74 68.5t51 86.5t30.5 102.5t15.5 111t4 116.5v413q0 317 -24 492l5 7 q65 -7 125 -7q11 0 24 0.5t25 1t23.5 1.5t21 1.5t17 1.5t11.5 1h4l2 -7q-25 -171 -25 -492v-368q0 -141 -23 -255t-74 -207t-129 -156t-190.5 -97t-256.5 -34q-60 0 -118.5 7t-126 25.5t-127 47t-115 76t-95 108.5t-63.5 148.5t-24 191.5v513q0 317 -24 492zM528 1897 q0 65 45 110t110 45t110 -45t45 -110q0 -41 -20.5 -76t-56.5 -55.5t-78.5 -20.5t-78 20.5t-56 55.5t-20.5 76zM1069 1897q0 65 45 110t110 45q63 0 109 -45t46 -110q0 -63 -46 -107.5t-109 -44.5q-65 0 -110 44.5t-45 107.5z" />
<glyph unicode="&#xe03d;" horiz-adv-x="2083" d="M103 497q0 112 31 206.5t85.5 162t129.5 115t163 71t186 24.5q-71 65 -98.5 134t-27.5 162q0 66 36 128t99 110t156.5 77t200.5 29q93 0 186.5 -18.5t178 -55.5t151 -87.5t108 -120t45.5 -146.5l12 -233h265q20 0 20 -16v-83q0 -10 -10 -17.5t-23.5 -11t-26.5 -3.5h-223 v-256q0 -83 -3.5 -201t-3.5 -145t1.5 -48.5t5 -42t9.5 -36t15 -27t21.5 -17.5t29.5 -6q52 0 86 8.5t80 36.5q47 -29 47 -87q-65 -60 -184.5 -93.5t-211.5 -33.5q-56 0 -103 21t-75.5 56t-44.5 77t-16 86q0 27 4.5 185t4.5 241v282h-156q-14 0 -22.5 10.5t-8.5 24.5 q0 28 17 62t34 34h136q0 78 2.5 136.5t2.5 96.5q0 155 -95.5 244.5t-279.5 89.5q-151 0 -244.5 -67t-93.5 -171q0 -65 23.5 -124t74.5 -114.5t126 -99.5q81 -19 142 -49l5 -7l-59 -238l-45 -2q-51 109 -111 156.5t-135 47.5q-124 0 -200.5 -104.5t-76.5 -289.5 q0 -210 64 -312q33 -53 98 -93t118 -40q194 0 276 101h38q0 -58 13 -108q-85 -72 -170.5 -102t-222.5 -30q-255 0 -399 157q-157 171 -157 364z" />
<glyph unicode="&#xe050;" horiz-adv-x="1818" d="M52 434q0 77 13.5 147t38 126t58 105.5t73 87t84 68.5t90.5 52t92.5 35.5t89.5 21.5t82 7q35 0 64 -8l161 273q2 4 7.5 15.5t7.5 16t7 14.5t7 15t5 13.5t4.5 14t3.5 13t2.5 14t0.5 12.5q0 32 -26.5 55t-63.5 23q-50 0 -79 -36.5t-29 -92.5q0 -5 1.5 -15.5t1.5 -17.5 l-96 -5q-5 39 -5 54q0 60 49 107.5t118 71t138 23.5q41 0 71.5 -16t45.5 -41.5t15 -55.5q0 -20 -18.5 -66.5t-40.5 -85.5l-642 -1128q94 -99 248 -99q99 0 185 25.5t150.5 69t117.5 104t89 128t61 143.5t37.5 148t16.5 144q-54 45 -111 72t-128 27q-73 0 -73 -42 q0 -13 2.5 -23.5t10.5 -19t12.5 -12.5t16.5 -14q12 -9 19.5 -16.5t15 -24t7.5 -38.5q0 -37 -28 -67.5t-61 -30.5q-42 0 -71.5 29t-29.5 97q0 53 16 98.5t48 82t86 57t125 20.5q53 0 111 -17t91.5 -34t82.5 -45q72 -45 106 -45q28 0 28 17q0 18 -18 49q-22 44 -22 77 q0 42 40 66t80 24q37 0 61.5 -23t24.5 -69q0 -53 -15 -97.5t-37.5 -73t-50 -48.5t-51.5 -28.5t-42 -8.5q-82 0 -129 24q-6 -103 -30 -200t-62 -179t-88.5 -155.5t-110 -131.5t-126.5 -104.5t-138 -77.5t-145 -47.5t-147 -16.5q-94 0 -186 37.5t-162.5 100t-114 150 t-43.5 181.5zM270 575q0 -130 52 -233l307 540q-9 14 -20 25.5t-25.5 21t-32.5 15t-37 5.5q-59 0 -107 -34.5t-77 -89.5t-44.5 -120t-15.5 -130z" />
<glyph unicode="&#xe051;" horiz-adv-x="1276" d="M14 -7q319 692 521 1163h234q78 -201 172 -432t182 -438.5t130 -292.5q-45 7 -226 7q-112 0 -157 -7q-14 75 -120 359q-68 4 -187 4q-65 0 -197 -4q-90 -235 -122 -359q-33 7 -106 7q-91 0 -124 -7zM410 464q56 -4 146 -4q28 0 74 2t77 2q-88 221 -136 334l-13 -2 q-62 -121 -148 -332z" />
<glyph unicode="&#xe052;" horiz-adv-x="1380" d="M187 0q15 92 19.5 188.5t4.5 251.5v250q0 151 -4.5 250t-19.5 190l3 8q102 -8 188 -8q340 8 408 8q102 0 180 -17.5t122.5 -44.5t72.5 -64.5t37 -72.5t9 -74q0 -72 -51.5 -144.5t-125.5 -106.5q250 -57 250 -307q0 -57 -30.5 -112.5t-85.5 -100t-140 -72t-184 -27.5 q-77 0 -255 2.5t-207 2.5q-38 0 -85.5 -2t-75.5 -3l-27 -2zM551 185q0 -22 1.5 -33t9.5 -24.5t24.5 -19.5t47 -10t76.5 -4q50 0 88.5 13.5t61.5 35.5t38 53t20.5 62t5.5 66q0 122 -47 178t-157 56h-169v-373zM551 656h169q155 0 155 207q0 38 -8 68t-21.5 48.5t-29 31 t-35 18.5t-34.5 8t-32 2q-49 0 -77.5 -1.5t-48 -5t-26.5 -12.5t-9.5 -19t-2.5 -30v-315z" />
<glyph unicode="&#xe053;" horiz-adv-x="1194" d="M103 530q0 101 23.5 189.5t65 156.5t99 121.5t127 88t147 52.5t160.5 18q231 0 391 -89l5 -7l-59 -256l-70 -2q-38 102 -115.5 160t-154.5 58q-124 0 -200.5 -111.5t-76.5 -308.5q0 -202 78 -335q16 -27 45 -53.5t61 -46t66 -31.5t60 -12q210 0 294 110h39q0 -51 14 -117 q-86 -78 -171.5 -110.5t-222.5 -32.5q-139 0 -266 47t-194 124q-145 166 -145 387z" />
<glyph unicode="&#xe054;" horiz-adv-x="1510" d="M187 0q15 92 19.5 188.5t4.5 251.5v250q0 151 -4.5 250t-19.5 190l3 8q102 -8 188 -8q367 8 445 8q127 0 237 -46t186.5 -124t120.5 -186t44 -229q0 -78 -13.5 -147t-38 -121.5t-57.5 -96.5t-73.5 -75t-85 -54.5t-93.5 -37t-96 -20t-96 -6.5q-115 0 -290.5 2.5 t-189.5 2.5q-38 0 -85.5 -2t-75.5 -3l-27 -2zM551 204q0 -14 1 -24.5t3.5 -21.5t8 -19t14 -16t22 -13t31.5 -9t43 -5.5t56 -1.5q63 0 108 6.5t83.5 24.5t62.5 48t41.5 77t24.5 110.5t7 150.5q0 61 -3 110.5t-13 105.5t-26.5 99.5t-45 85t-67.5 68.5t-94.5 43t-124.5 16 q-73 0 -102.5 -17.5t-29.5 -62.5v-755z" />
<glyph unicode="&#xe055;" horiz-adv-x="1294" d="M187 0q15 92 19.5 188.5t4.5 251.5v250q0 151 -4.5 250t-19.5 190l3 8q107 -8 193 -8h569q87 0 146 8l6 -8q-1 -10 -2 -24t-2 -23.5t-1.5 -19.5t-0.5 -17q0 -10 6 -58l-6 -10q-200 30 -528 30q-6 -20 -10 -66t-6 -98t-2.5 -88.5t-0.5 -59.5v-47q131 0 193 3t118 10.5 t97 10.5l7 -7q-7 -32 -7 -76t7 -76l-7 -8q-242 24 -408 24v-87q0 -36 1 -87t5.5 -122.5t12.5 -97.5q146 0 284.5 7t203.5 14l65 7l5 -9q-5 -39 -5 -76q0 -9 5 -79l-5 -7q-59 7 -147 7h-593q-41 0 -89 -2t-76 -3l-28 -2z" />
<glyph unicode="&#xe056;" horiz-adv-x="1213" d="M187 0q15 92 19.5 188.5t4.5 251.5v250q0 151 -4.5 250t-19.5 190l3 8q107 -8 193 -8h569q87 0 146 8l6 -8q-1 -12 -3.5 -39.5t-2.5 -38.5q0 -16 6 -64l-6 -10q-200 30 -528 30q-6 -20 -10 -67t-6 -101t-2.5 -91.5t-0.5 -60.5v-39q131 0 193 3t118 10.5t97 10.5l7 -7 q-7 -32 -7 -76t7 -76l-7 -8q-242 24 -408 24v-90q0 -155 4.5 -251t19.5 -189l-3 -7q-103 7 -194 7q-39 0 -86.5 -2t-74.5 -3l-27 -2z" />
<glyph unicode="&#xe057;" horiz-adv-x="1414" d="M98 535q0 119 34.5 220t96.5 174t148 124.5t189.5 77t219.5 25.5q259 0 433 -92l5 -7l-56 -217l-75 -2q-125 214 -309 214q-76 0 -133 -22t-93 -62t-58.5 -102t-31 -133.5t-8.5 -164.5q0 -45 4.5 -91t15.5 -94.5t27.5 -92t42 -82.5t57 -67.5t74.5 -45t93 -16.5 q60 0 98.5 10t91.5 33v23q0 92 -3 151.5t-7 100t-16 121.5l5 8q106 -8 190 -8q24 0 48.5 1t42.5 2t32.5 2t21.5 2l7 1l3 -8q-15 -97 -19.5 -166t-4.5 -170v-34q0 -39 14 -57q-202 -115 -523 -115q-192 0 -305 40t-192 120q-69 69 -114.5 178.5t-45.5 220.5z" />
<glyph unicode="&#xe058;" horiz-adv-x="1569" d="M180 0q29 186 29 492v146q0 294 -29 492l5 8q119 -8 193 -8q78 0 197 8l2 -8q-29 -186 -29 -492v-21h474v21q0 286 -30 492l5 8q119 -8 195 -8q78 0 196 8l3 -8q-29 -186 -29 -492v-146q0 -294 29 -492l-5 -7q-104 7 -194 7q-86 0 -197 -7l-3 7q30 194 30 492v24h-474 v-24q0 -294 29 -492l-5 -7q-104 7 -194 7q-84 0 -196 -7z" />
<glyph unicode="&#xe059;" horiz-adv-x="756" d="M180 0q29 186 29 492v146q0 294 -29 492l5 8q119 -8 193 -8q78 0 197 8l2 -8q-29 -186 -29 -492v-146q0 -294 29 -492l-5 -7q-104 7 -194 7q-84 0 -196 -7z" />
<glyph unicode="&#xe05a;" horiz-adv-x="891" d="M-91 -432q18 33 39.5 130.5t21.5 146.5l67 12q20 -39 80 -84t106 -45q35 0 61 19.5t41 52.5t22 69.5t7 76.5q0 93 -5 243t-5 191v258q0 308 -25 492l5 8q133 -8 190 -8q70 0 189 8l5 -8q-25 -171 -25 -492v-350q0 -144 -14 -229t-47.5 -152.5t-105.5 -157.5 q-85 -104 -201.5 -156.5t-232.5 -52.5q-42 0 -100.5 5.5t-70.5 14.5z" />
<glyph unicode="&#xe05b;" horiz-adv-x="1464" d="M180 0q29 186 29 492v146q0 294 -29 492l5 8q119 -8 193 -8q78 0 197 8l2 -8q-29 -186 -29 -492v-19q51 9 83 35q69 53 194.5 202.5t211.5 273.5q319 0 366 8l6 -8q-71 -59 -168 -164t-191.5 -214.5t-125.5 -141.5q74 -90 184 -227t177.5 -216.5t149.5 -166.5l-5 -7 q-32 7 -255 7q-141 0 -197 -7q-53 73 -109 157.5t-88 132.5t-80 109t-103 119q-17 16 -50 21v-40q0 -294 29 -492l-5 -7q-104 7 -194 7q-84 0 -196 -7z" />
<glyph unicode="&#xe05c;" horiz-adv-x="1137" d="M185 0q10 64 15.5 135.5t7 136.5t1.5 168v250q0 151 -4.5 250t-19.5 190l2 8q148 -8 186 -8q47 0 195 8l4 -8q-15 -98 -19.5 -191.5t-4.5 -248.5v-250q0 -178 20 -246q146 0 278 7.5t191 14.5l59 7l6 -9q-6 -48 -6 -76q0 -51 6 -138l-6 -7q-60 7 -147 7h-573 q-41 0 -189 -7z" />
<glyph unicode="&#xe05d;" horiz-adv-x="1857" d="M127 -5q120 752 163 1161h300q217 -438 346 -678l11 -5l371 683h274q75 -714 138 -1161q-27 5 -182 5q-167 0 -194 -5q-36 458 -75 803q-134 -243 -229 -425t-180 -373h-61q-129 271 -402 797q-70 -605 -72 -802q-17 5 -94 5q-95 0 -114 -5z" />
<glyph unicode="&#xe05e;" horiz-adv-x="1390" d="M160 0q16 109 16 352v427q0 234 -16 351l2 5q82 -5 143 -5l159 5l578 -750v394q0 234 -17 351l5 5q61 -5 105 -5l96 5v-5q-17 -131 -17 -351v-786q-74 7 -118 7q-70 0 -130 -7l-617 777v-418q0 -234 17 -352l-2 -7q-54 7 -96 7q-11 0 -26 -0.5t-28.5 -2t-25.5 -2.5 t-19 -1l-7 -1z" />
<glyph unicode="&#xe05f;" horiz-adv-x="1454" d="M94 539q0 100 22.5 187t64.5 154.5t100 120.5t129 87t152.5 51t169.5 17q152 0 273 -46t198.5 -126.5t118 -188t40.5 -232.5q0 -179 -80.5 -313t-223.5 -204t-331 -70q-137 0 -253.5 39t-200.5 111t-131.5 178t-47.5 235zM457 587q0 -47 3.5 -90.5t12.5 -93t23.5 -91 t38.5 -80.5t55 -66.5t75 -43.5t97 -16q35 0 67 12t63.5 41t54 73.5t36.5 114.5t14 157q0 278 -63.5 398t-218.5 120q-61 0 -107.5 -23.5t-74.5 -63t-45.5 -97.5t-24 -118t-6.5 -133z" />
<glyph unicode="&#xe060;" horiz-adv-x="1264" d="M185 0q10 64 15.5 135.5t7 136.5t1.5 168v250q0 151 -4.5 250t-19.5 190l5 8q56 -8 186 -8q30 0 199 4t229 4q73 0 133 -10.5t102 -28t74 -42.5t51.5 -52t31.5 -58.5t16.5 -59t4.5 -57.5q0 -34 -5 -69t-17.5 -76t-32.5 -77.5t-53.5 -71t-75.5 -59.5t-103 -40t-133 -15 q-64 0 -137 8t-112 18v-40q0 -148 4.5 -228t19.5 -180l-4 -7q-94 7 -190 7q-102 0 -191 -7zM548 541q35 -10 56.5 -12.5t59.5 -2.5q109 0 160 68.5t51 211.5q0 45 -5.5 79.5t-15 58.5t-25.5 41t-32.5 26.5t-41.5 14.5t-48 6.5t-55 1.5q-56 0 -104 -19v-474z" />
<glyph unicode="&#xe061;" horiz-adv-x="1454" d="M94 539q0 100 22.5 187t64.5 154.5t100 120.5t129 87t152.5 51t169.5 17q152 0 273 -46t198.5 -126.5t118 -188t40.5 -232.5q0 -159 -63.5 -282t-178.5 -199q117 -65 223.5 -118.5t211.5 -94.5v-14q-59 -31 -132 -78.5t-113 -78.5q-29 21 -74 54.5t-63 47.5t-51 37.5 t-53 36.5t-51.5 33t-64.5 38.5t-76 42.5q-68 -12 -150 -12q-137 0 -253.5 39t-200.5 111t-131.5 178t-47.5 235zM457 587q0 -47 3.5 -90.5t12.5 -93t23.5 -91t38.5 -80.5t55 -66.5t75 -43.5t97 -16q35 0 67 12t63.5 41t54 73.5t36.5 114.5t14 157q0 278 -63.5 398 t-218.5 120q-61 0 -107.5 -23.5t-74.5 -63t-45.5 -97.5t-24 -118t-6.5 -133z" />
<glyph unicode="&#xe062;" horiz-adv-x="1356" d="M185 0q10 64 15.5 135.5t7 136.5t1.5 168v250q0 151 -4.5 250t-19.5 190l5 8q56 -8 186 -8q30 0 199 4t229 4q73 0 133 -10.5t102 -28t74 -42.5t51.5 -52t31.5 -58.5t16.5 -59t4.5 -57.5q0 -46 -9.5 -91.5t-31.5 -94.5t-66 -91t-104 -68q72 -101 136 -201 q132 -203 202 -284l-5 -7q-47 7 -183 7q-166 0 -210 -7q-32 90 -132 251q-88 139 -136 204q-77 2 -130 7v-47q0 -148 4.5 -228t19.5 -180l-4 -7q-94 7 -190 7q-102 0 -191 -7zM548 556q60 -5 116 -5q112 0 161.5 57.5t49.5 197.5q0 45 -5.5 79.5t-15 58.5t-25.5 41 t-32.5 26.5t-41.5 14.5t-48 6.5t-55 1.5q-56 0 -104 -19v-459z" />
<glyph unicode="&#xe063;" horiz-adv-x="1086" d="M98 49l42 249l78 2q57 -109 131.5 -165t147.5 -56q91 0 142 48t51 143q0 76 -51.5 123.5t-164.5 90.5q-47 17 -81.5 32t-73 35t-65 40.5t-52 47t-41 56.5t-25 68.5t-9.5 82.5q0 99 60 170.5t158.5 105.5t224.5 34q92 0 217 -27t179 -57l5 -8l-54 -224l-69 -2 q-14 30 -39 64.5t-59.5 69.5t-80 57.5t-89.5 22.5q-58 0 -97.5 -24t-56 -60.5t-16.5 -83.5q0 -63 45.5 -112t126.5 -71q68 -19 123.5 -40t111 -54t92.5 -71.5t60 -93.5t23 -120q0 -71 -28.5 -132t-86 -109.5t-152.5 -76.5t-219 -28q-80 0 -195.5 19t-212.5 54z" />
<glyph unicode="&#xe064;" horiz-adv-x="1248" d="M61 926q4 27 4 92t-4 112l5 5q74 -5 136 -5h844q62 0 136 5l5 -5q-4 -47 -4 -112t4 -92l-5 -7q-9 3 -31 7.5t-121 12t-236 7.5v-503q0 -157 4.5 -251t19.5 -192l-4 -7q-19 1 -58 3t-71.5 3t-65.5 1q-39 0 -187 -7l-2 7q15 94 20 192.5t5 250.5v503q-86 0 -158 -3 t-112.5 -7t-69.5 -7.5t-39 -6.5l-10 -3z" />
<glyph unicode="&#xe065;" horiz-adv-x="1424" d="M167 1130l2 8q148 -8 192 -8q42 0 190 8l5 -8q-16 -99 -21 -195t-5 -247v-191q0 -80 3.5 -132t16 -110.5t35.5 -92t65 -56t102 -22.5q59 0 104 14t75 34t50.5 57.5t31.5 68.5t16.5 83t6.5 86t1 91v170q0 152 -4.5 251t-19.5 191l2 8q22 -1 64.5 -4.5t55.5 -3.5t54.5 3.5 t63.5 4.5l6 -8q-16 -99 -20.5 -195t-4.5 -247v-162q0 -106 -16.5 -189t-54 -152t-97.5 -114.5t-149 -70t-207 -24.5q-40 0 -82 4.5t-94 17t-99 31.5t-92 52t-78 75.5t-53 104t-20 135.5v292q0 287 -25 442z" />
<glyph unicode="&#xe066;" horiz-adv-x="1294" d="M17 1138q42 -8 204 -8q157 0 192 8q130 -411 311 -832q0 2 2 5.5t2 5.5q130 301 285 821q24 -8 120 -8q121 0 145 8q-124 -273 -181.5 -400.5t-149.5 -347t-156 -397.5q-22 7 -132 7q-135 0 -162 -7q-232 601 -480 1145z" />
<glyph unicode="&#xe067;" horiz-adv-x="2073" d="M24 1138q56 -10 204 -10q146 0 192 10q163 -515 312 -861q105 231 227 563q-68 160 -131 300q56 -10 206 -10q148 0 195 10q155 -490 303 -835q115 280 284 835q32 -10 106 -10q103 0 135 10q-112 -246 -179 -394.5t-156.5 -361t-157.5 -391.5q-32 9 -104 9 q-128 0 -165 -9q-151 395 -245 627q-92 -222 -239 -630q-29 10 -159 10q-114 0 -150 -10q-251 651 -478 1148z" />
<glyph unicode="&#xe068;" horiz-adv-x="1336" d="M32 1138q42 -8 226 -8q167 0 211 8q15 -25 32.5 -52.5t30.5 -47.5t35 -52t32 -47t37 -52t33.5 -46t38 -52t35.5 -49q18 23 51.5 65.5t53 67.5t49.5 63.5t51.5 67.5t47 65t48.5 69q30 -8 94 -8q136 0 166 8l-464 -531q152 -220 457 -614q-39 7 -204 7q-183 0 -223 -7 q-31 48 -70 105.5t-66 96.5t-75.5 107t-69.5 99q-206 -288 -287 -408q-27 7 -164 7q-64 0 -91 -7l437 555z" />
<glyph unicode="&#xe069;" horiz-adv-x="1186" d="M30 1138q49 -8 174 -8q149 0 194 8q20 -38 42 -79.5t39 -72t44.5 -79t41 -71t46.5 -79.5t44 -75q108 172 276 456q33 -8 138 -8q57 0 89 8q-20 -27 -97 -129t-101.5 -135.5t-75 -102t-80 -112t-54.5 -83.5q0 -148 4 -332.5t10 -250.5q-41 7 -174 7q-130 0 -175 -7 q12 109 12 497q-66 113 -208 345t-189 303z" />
<glyph unicode="&#xe06a;" horiz-adv-x="1231" d="M52 5q15 15 58 79l612 901q-84 -1 -176 -4.5t-163 -7t-130 -7t-91 -5.5l-31 -2l-9 7q9 67 9 94q0 12 -3.5 33t-5.5 37l9 8q59 -8 146 -8h675q33 0 83 4.5t88 8.5t42 4q15 0 15 -17q-21 -20 -82 -110l-594 -875q65 0 136 1.5t133 4t121.5 5t105.5 5.5t82 5.5t55 3.5l19 2 l4 -8q-4 -38 -4 -93q0 -1 4 -71l-4 -7q-60 7 -148 7h-733q-16 0 -36 -0.5l-40 -1t-40 -1.5t-37.5 -1.5t-31 -1t-21.5 -1.5h-8z" />
<glyph unicode="&#xe06d;" horiz-adv-x="844" d="M94 551q0 33 20 79t41 46h563q16 0 25 -18.5t9 -38.5q0 -26 -22.5 -74t-44.5 -48h-554q-15 0 -26 18t-11 36z" />
<glyph unicode="&#xe070;" horiz-adv-x="1276" d="M14 -7q319 692 521 1163h234q78 -201 172 -432t182 -438.5t130 -292.5q-45 7 -226 7q-112 0 -157 -7q-14 75 -120 359q-68 4 -187 4q-65 0 -197 -4q-90 -235 -122 -359q-33 7 -106 7q-91 0 -124 -7zM410 464q56 -4 146 -4q28 0 74 2t77 2q-88 221 -136 334l-13 -2 q-62 -121 -148 -332zM410 1558l5 27q5 6 16 13.5t26 16.5t34.5 17.5t39.5 15.5t43.5 11t44.5 4q30 0 49 -5l170 -304q22 -40 22 -64q0 -15 -20 -27.5t-38 -12.5q-38 0 -94 50z" />
<glyph unicode="&#xe072;" horiz-adv-x="1276" d="M14 -7q319 692 521 1163h234q78 -201 172 -432t182 -438.5t130 -292.5q-45 7 -226 7q-112 0 -157 -7q-14 75 -120 359q-68 4 -187 4q-65 0 -197 -4q-90 -235 -122 -359q-33 7 -106 7q-91 0 -124 -7zM277 1318q84 84 168.5 187t147.5 195h83q151 -222 312 -382l-66 -59 q-83 39 -148.5 88.5t-142.5 124.5q-56 -52 -97 -86.5t-89.5 -67.5t-100.5 -59zM410 464q56 -4 146 -4q28 0 74 2t77 2q-88 221 -136 334l-13 -2q-62 -121 -148 -332z" />
<glyph unicode="&#xe074;" horiz-adv-x="1276" d="M14 -7q319 692 521 1163h234q78 -201 172 -432t182 -438.5t130 -292.5q-45 7 -226 7q-112 0 -157 -7q-14 75 -120 359q-68 4 -187 4q-65 0 -197 -4q-90 -235 -122 -359q-33 7 -106 7q-91 0 -124 -7zM221 1501q0 68 46 115t111 47q45 0 82.5 -21t59 -58.5t21.5 -82.5 q0 -65 -47.5 -112t-115.5 -47q-65 0 -111 47t-46 112zM410 464q56 -4 146 -4q28 0 74 2t77 2q-88 221 -136 334l-13 -2q-62 -121 -148 -332zM734 1501q0 45 22 82.5t59.5 58.5t82.5 21q65 0 111 -47t46 -115q0 -65 -46.5 -112t-110.5 -47q-68 0 -116 47t-48 112z" />
<glyph unicode="&#xe076;" horiz-adv-x="1904" d="M37 -5q257 486 538 1140q219 -5 413 -5h567q88 0 148 8l5 -8q-5 -69 -5 -91q0 -13 5 -51l-5 -10q-8 1 -23.5 3t-67.5 7.5t-109.5 9.5t-146.5 7t-181 3q-8 -26 -12.5 -101t-5.5 -129t-1 -90v-39q131 0 193 3t117.5 10.5t97.5 10.5l7 -7q-7 -32 -7 -76t7 -76l-7 -8 q-242 24 -408 24v-87q0 -36 1 -87t5.5 -122.5t12.5 -97.5q146 0 284.5 7t203.5 14l65 7l5 -9q-5 -39 -5 -76q0 -9 5 -79l-5 -7q-59 7 -148 7h-592q-26 0 -55.5 -0.5t-53 -2t-43 -2.5t-31.5 -1l-11 -1l-3 7q15 94 20 192t5 248v90h-326q-173 -398 -225 -535q-21 5 -80 5 q-126 0 -148 -5zM541 649h275v312q0 53 -13 69t-41 16q-20 0 -42.5 -19.5t-41.5 -60.5q-102 -238 -137 -317z" />
<glyph unicode="&#xe077;" horiz-adv-x="1194" d="M103 530q0 101 23.5 189.5t65 156.5t99 121.5t127 88t147 52.5t160.5 18q231 0 391 -89l5 -7l-59 -256l-70 -2q-38 102 -115.5 160t-154.5 58q-124 0 -200.5 -111.5t-76.5 -308.5q0 -202 78 -335q16 -27 45 -53.5t61 -46t66 -31.5t60 -12q210 0 294 110h39q0 -51 14 -117 q-86 -78 -171.5 -110.5t-222.5 -32.5h-8l-32 -73q27 -5 48 -10.5t46 -14.5t43.5 -19t36.5 -24.5t29 -32t18 -41.5t7 -52q0 -94 -82 -160t-201 -66q-38 0 -68 6.5t-49.5 15.5t-43.5 25q0 46 33 77q55 -20 81.5 -27t61.5 -7q57 0 85.5 19.5t28.5 67.5q0 22 -9.5 39.5t-28 28.5 t-38 18.5t-48 11.5t-48 6t-47.5 4l-14 15l104 199q-114 14 -212 58t-153 107q-145 166 -145 387z" />
<glyph unicode="&#xe078;" horiz-adv-x="1294" d="M187 0q15 92 19.5 188.5t4.5 251.5v250q0 151 -4.5 250t-19.5 190l3 8q107 -8 193 -8h569q87 0 146 8l6 -8q-1 -10 -2 -24t-2 -23.5t-1.5 -19.5t-0.5 -17q0 -10 6 -58l-6 -10q-200 30 -528 30q-6 -20 -10 -66t-6 -98t-2.5 -88.5t-0.5 -59.5v-47q131 0 193 3t118 10.5 t97 10.5l7 -7q-7 -32 -7 -76t7 -76l-7 -8q-242 24 -408 24v-87q0 -36 1 -87t5.5 -122.5t12.5 -97.5q146 0 284.5 7t203.5 14l65 7l5 -9q-5 -39 -5 -76q0 -9 5 -79l-5 -7q-59 7 -147 7h-593q-41 0 -89 -2t-76 -3l-28 -2zM354 1646l5 28q19 22 82 50t122 28q30 0 49 -5 l169 -305q23 -40 23 -63q0 -15 -20.5 -27.5t-38.5 -12.5q-38 0 -93 49z" />
<glyph unicode="&#xe079;" horiz-adv-x="1294" d="M187 0q15 92 19.5 188.5t4.5 251.5v250q0 151 -4.5 250t-19.5 190l3 8q107 -8 193 -8h569q87 0 146 8l6 -8q-1 -10 -2 -24t-2 -23.5t-1.5 -19.5t-0.5 -17q0 -10 6 -58l-6 -10q-200 30 -528 30q-6 -20 -10 -66t-6 -98t-2.5 -88.5t-0.5 -59.5v-47q131 0 193 3t118 10.5 t97 10.5l7 -7q-7 -32 -7 -76t7 -76l-7 -8q-242 24 -408 24v-87q0 -36 1 -87t5.5 -122.5t12.5 -97.5q146 0 284.5 7t203.5 14l65 7l5 -9q-5 -39 -5 -76q0 -9 5 -79l-5 -7q-59 7 -147 7h-593q-41 0 -89 -2t-76 -3l-28 -2zM394 1280q0 30 19 59l204 322q18 6 39 6 q51 0 99.5 -20t65.5 -40l25 -57l-295 -265q-24 -20 -54 -29.5t-52 -9.5q-15 0 -33 12t-18 22z" />
<glyph unicode="&#xe07a;" horiz-adv-x="1294" d="M187 0q15 92 19.5 188.5t4.5 251.5v250q0 151 -4.5 250t-19.5 190l3 8q107 -8 193 -8h569q87 0 146 8l6 -8q-1 -10 -2 -24t-2 -23.5t-1.5 -19.5t-0.5 -17q0 -10 6 -58l-6 -10q-200 30 -528 30q-6 -20 -10 -66t-6 -98t-2.5 -88.5t-0.5 -59.5v-47q131 0 193 3t118 10.5 t97 10.5l7 -7q-7 -32 -7 -76t7 -76l-7 -8q-242 24 -408 24v-87q0 -36 1 -87t5.5 -122.5t12.5 -97.5q146 0 284.5 7t203.5 14l65 7l5 -9q-5 -39 -5 -76q0 -9 5 -79l-5 -7q-59 7 -147 7h-593q-41 0 -89 -2t-76 -3l-28 -2zM324 1310q83 84 167 187t147 196h84 q152 -222 312 -383l-66 -60q-82 40 -147 89.5t-143 125.5q-57 -53 -97.5 -87.5t-89 -68t-100.5 -59.5z" />
<glyph unicode="&#xe07b;" horiz-adv-x="1294" d="M187 0q15 92 19.5 188.5t4.5 251.5v250q0 151 -4.5 250t-19.5 190l3 8q107 -8 193 -8h569q87 0 146 8l6 -8q-1 -10 -2 -24t-2 -23.5t-1.5 -19.5t-0.5 -17q0 -10 6 -58l-6 -10q-200 30 -528 30q-6 -20 -10 -66t-6 -98t-2.5 -88.5t-0.5 -59.5v-47q131 0 193 3t118 10.5 t97 10.5l7 -7q-7 -32 -7 -76t7 -76l-7 -8q-242 24 -408 24v-87q0 -36 1 -87t5.5 -122.5t12.5 -97.5q146 0 284.5 7t203.5 14l65 7l5 -9q-5 -39 -5 -76q0 -9 5 -79l-5 -7q-59 7 -147 7h-593q-41 0 -89 -2t-76 -3l-28 -2zM216 1555q0 45 21 82.5t57.5 59t78.5 21.5 q68 0 115 -47t47 -116q0 -65 -47 -112t-115 -47q-64 0 -110.5 47t-46.5 112zM730 1555q0 69 46.5 116t115.5 47q65 0 111 -47.5t46 -115.5q0 -65 -46.5 -112t-110.5 -47q-68 0 -115 47t-47 112z" />
<glyph unicode="&#xe07e;" horiz-adv-x="756" d="M19 1342q83 84 168 187.5t148 196.5h83q154 -226 312 -384l-66 -59q-83 39 -148.5 88.5t-142.5 124.5q-85 -79 -148 -127t-139 -86zM180 0q29 186 29 492v146q0 294 -29 492l5 8q119 -8 193 -8q78 0 197 8l2 -8q-29 -186 -29 -492v-146q0 -294 29 -492l-5 -7 q-104 7 -194 7q-84 0 -196 -7z" />
<glyph unicode="&#xe07f;" horiz-adv-x="756" d="M-30 1529q0 68 46 115t111 47q34 0 64 -12.5t52 -34t34.5 -52t12.5 -63.5q0 -65 -47.5 -112.5t-115.5 -47.5q-42 0 -78.5 22t-57.5 58.5t-21 79.5zM180 0q29 186 29 492v146q0 294 -29 492l5 8q119 -8 193 -8q78 0 197 8l2 -8q-29 -186 -29 -492v-146q0 -294 29 -492 l-5 -7q-104 7 -194 7q-84 0 -196 -7zM484 1529q0 68 47 115t116 47q65 0 111 -47t46 -115q0 -65 -46.5 -112.5t-110.5 -47.5q-68 0 -115.5 47.5t-47.5 112.5z" />
<glyph unicode="&#xe084;" horiz-adv-x="1454" d="M94 539q0 100 22.5 187t64.5 154.5t100 120.5t129 87t152.5 51t169.5 17q152 0 273 -46t198.5 -126.5t118 -188t40.5 -232.5q0 -179 -80.5 -313t-223.5 -204t-331 -70q-137 0 -253.5 39t-200.5 111t-131.5 178t-47.5 235zM368 1259q83 84 167 186.5t148 196.5h84 q151 -223 312 -383l-66 -60q-82 39 -147 88.5t-144 126.5q-85 -80 -149 -128.5t-139 -86.5zM457 587q0 -47 3.5 -90.5t12.5 -93t23.5 -91t38.5 -80.5t55 -66.5t75 -43.5t97 -16q35 0 67 12t63.5 41t54 73.5t36.5 114.5t14 157q0 278 -63.5 398t-218.5 120 q-61 0 -107.5 -23.5t-74.5 -63t-45.5 -97.5t-24 -118t-6.5 -133z" />
<glyph unicode="&#xe086;" horiz-adv-x="1454" d="M94 539q0 100 22.5 187t64.5 154.5t100 120.5t129 87t152.5 51t169.5 17q152 0 273 -46t198.5 -126.5t118 -188t40.5 -232.5q0 -179 -80.5 -313t-223.5 -204t-331 -70q-137 0 -253.5 39t-200.5 111t-131.5 178t-47.5 235zM305 1536q0 68 46 115t111 47q68 0 115 -47 t47 -115q0 -65 -47 -112.5t-115 -47.5q-65 0 -111 47.5t-46 112.5zM457 587q0 -47 3.5 -90.5t12.5 -93t23.5 -91t38.5 -80.5t55 -66.5t75 -43.5t97 -16q35 0 67 12t63.5 41t54 73.5t36.5 114.5t14 157q0 278 -63.5 398t-218.5 120q-61 0 -107.5 -23.5t-74.5 -63t-45.5 -97.5 t-24 -118t-6.5 -133zM818 1536q0 68 47 115t115 47q66 0 112 -47t46 -115q0 -65 -46.5 -112.5t-111.5 -47.5q-67 0 -114.5 47.5t-47.5 112.5z" />
<glyph unicode="&#xe087;" horiz-adv-x="1942" d="M76 521q0 128 43.5 241t122 196.5t194.5 131.5t254 48l66.5 -2t160 -4t159.5 -2h568q88 0 148 8l4 -8q-4 -69 -4 -75q0 -29 4 -67l-4 -10q-9 1 -24 3t-67.5 7.5t-109.5 9.5t-146 7t-181 3q-11 -38 -16 -146t-5 -174v-39q132 0 194 3t117.5 10.5t96.5 10.5l7 -7 q-7 -32 -7 -76q0 -46 7 -79l-7 -7q-242 24 -408 24v-85q0 -64 5 -167t16 -140q67 0 133.5 1.5t119.5 4t101.5 5.5t83.5 6t61.5 5.5t39.5 4.5l13 1l6 -9q-6 -48 -6 -76q0 -10 0.5 -22t2.5 -28t3 -29l-6 -7q-60 7 -147 7h-593q-88 0 -230.5 -3.5t-151.5 -3.5q-190 0 -328 59.5 t-214 179t-76 289.5zM430 551q0 -169 40 -270.5t120 -145.5t209 -44q63 0 84.5 18t21.5 63v792q0 21 -8.5 35.5t-21 23t-36.5 12.5t-46 5.5t-59 1.5q-71 0 -125.5 -25.5t-95.5 -81.5t-62 -152.5t-21 -231.5z" />
<glyph unicode="&#xe089;" horiz-adv-x="1424" d="M167 1130l2 8q148 -8 192 -8q42 0 190 8l5 -8q-16 -99 -21 -195t-5 -247v-191q0 -80 3.5 -132t16 -110.5t35.5 -92t65 -56t102 -22.5q59 0 104 14t75 34t50.5 57.5t31.5 68.5t16.5 83t6.5 86t1 91v170q0 152 -4.5 251t-19.5 191l2 8q22 -1 64.5 -4.5t55.5 -3.5t54.5 3.5 t63.5 4.5l6 -8q-16 -99 -20.5 -195t-4.5 -247v-162q0 -106 -16.5 -189t-54 -152t-97.5 -114.5t-149 -70t-207 -24.5q-40 0 -82 4.5t-94 17t-99 31.5t-92 52t-78 75.5t-53 104t-20 135.5v292q0 287 -25 442zM450 1646l5 28q5 6 15.5 13.5t25.5 16.5t34.5 17.5t40 15t44 11 t44.5 4.5q30 0 49 -5l169 -305q23 -40 23 -63q0 -15 -21 -27.5t-39 -12.5q-37 0 -92 49z" />
<glyph unicode="&#xe08b;" horiz-adv-x="1424" d="M167 1130l2 8q148 -8 192 -8q42 0 190 8l5 -8q-16 -99 -21 -195t-5 -247v-191q0 -80 3.5 -132t16 -110.5t35.5 -92t65 -56t102 -22.5q59 0 104 14t75 34t50.5 57.5t31.5 68.5t16.5 83t6.5 86t1 91v170q0 152 -4.5 251t-19.5 191l2 8q22 -1 64.5 -4.5t55.5 -3.5t54.5 3.5 t63.5 4.5l6 -8q-16 -99 -20.5 -195t-4.5 -247v-162q0 -106 -16.5 -189t-54 -152t-97.5 -114.5t-149 -70t-207 -24.5q-40 0 -82 4.5t-94 17t-99 31.5t-92 52t-78 75.5t-53 104t-20 135.5v292q0 287 -25 442zM406 1356q82 83 166 186.5t148 197.5h84q154 -226 312 -384 l-67 -59q-82 39 -146 88.5t-143 126.5q-57 -53 -98.5 -87.5t-90 -68t-99.5 -59.5z" />
<glyph unicode="&#xe08c;" horiz-adv-x="1424" d="M167 1130l2 8q148 -8 192 -8q42 0 190 8l5 -8q-16 -99 -21 -195t-5 -247v-191q0 -80 3.5 -132t16 -110.5t35.5 -92t65 -56t102 -22.5q59 0 104 14t75 34t50.5 57.5t31.5 68.5t16.5 83t6.5 86t1 91v170q0 152 -4.5 251t-19.5 191l2 8q22 -1 64.5 -4.5t55.5 -3.5t54.5 3.5 t63.5 4.5l6 -8q-16 -99 -20.5 -195t-4.5 -247v-162q0 -106 -16.5 -189t-54 -152t-97.5 -114.5t-149 -70t-207 -24.5q-40 0 -82 4.5t-94 17t-99 31.5t-92 52t-78 75.5t-53 104t-20 135.5v292q0 287 -25 442zM356 1550q0 68 46 115t112 47q68 0 115 -46.5t47 -115.5 q0 -65 -47.5 -112t-114.5 -47q-32 0 -61 13t-50.5 34.5t-34 51t-12.5 60.5zM870 1550q0 45 21.5 82.5t58.5 58.5t82 21q65 0 111 -47t46 -115q0 -65 -46 -112t-111 -47q-68 0 -115 47t-47 112z" />
<glyph unicode="&#xe08f;" horiz-adv-x="1186" d="M30 1138q49 -8 174 -8q149 0 194 8q20 -38 42 -79.5t39 -72t44.5 -79t41 -71t46.5 -79.5t44 -75q108 172 276 456q33 -8 138 -8q57 0 89 8q-20 -27 -97 -129t-101.5 -135.5t-75 -102t-80 -112t-54.5 -83.5q0 -148 4 -332.5t10 -250.5q-41 7 -174 7q-130 0 -175 -7 q12 109 12 497q-66 113 -208 345t-189 303zM199 1536q0 68 46 115t111 47q69 0 115.5 -47t46.5 -115q0 -65 -47 -112.5t-115 -47.5q-64 0 -110.5 47.5t-46.5 112.5zM713 1536q0 68 46.5 115t115.5 47q65 0 111 -47t46 -115q0 -43 -21 -79.5t-57.5 -58.5t-78.5 -22 q-68 0 -115 47.5t-47 112.5z" />
<glyph unicode="&#xe092;" horiz-adv-x="1471" d="M155 0q25 163 25 440v144q0 131 38.5 235t115 180t198.5 116.5t282 40.5q93 0 265 -19.5t241 -43.5v-38l-265 -384q-2 -2 -5.5 -8.5t-3.5 -8.5q0 -10 14 -10q105 -4 182.5 -50.5t115.5 -117.5t38 -157q0 -72 -38 -148t-108 -124q-42 -30 -110.5 -47t-122 -20.5 t-123.5 -3.5q-80 0 -160 25.5t-108 42.5l-2 8q10 16 17 34t10 28t9.5 38.5t10.5 41.5l27 3q22 -39 83.5 -77t112.5 -38q31 0 55 3.5t52 18t46.5 38t31 67.5t12.5 103q0 14 -2.5 30.5t-8.5 39.5t-18 46t-28.5 47t-41.5 44.5t-56.5 36.5t-75 25t-93.5 9q-27 0 -57 -6l-9 45 q53 71 80.5 107.5t77 105.5t73.5 110t24 56q0 19 -57.5 33t-119.5 14q-65 0 -110 -12.5t-78.5 -41t-53 -78.5t-29 -121t-9.5 -173v-184q0 -153 5 -249t19 -196l-5 -7q-85 7 -169 7q-38 0 -86 -2t-77 -3l-29 -2z" />
<glyph unicode="&#xe0b6;" horiz-adv-x="756" d="M180 0q29 186 29 492v146q0 294 -29 492l5 8q119 -8 193 -8q78 0 197 8l2 -8q-29 -186 -29 -492v-146q0 -294 29 -492l-5 -7q-104 7 -194 7q-84 0 -196 -7zM204 1457q0 34 13.5 65.5t36.5 54.5t55.5 36.5t68.5 13.5q73 0 124 -50t51 -120.5t-50.5 -119.5t-124.5 -49 q-48 0 -88 22.5t-63 61.5t-23 85z" />
<glyph unicode="&#xe0c0;" horiz-adv-x="913" d="M84 1037q0 173 258 229l199 44q10 5 10 20q0 120 -129 120q-128 0 -208 -118h-50l-28 143l2 7q90 78 296 78q184 2 276 -59q84 -67 84 -197l-6 -270q0 -33 23 -46q18 -8 69 -8q12 -10 14 -56q-64 -49 -200 -49q-117 0 -146 86h-2q-86 -86 -229 -86q-109 0 -169 42 q-64 47 -64 120zM337 1074q0 -31 22 -56q22 -28 54 -28q60 0 113 49q22 23 22 70l3 101l-121 -33q-93 -25 -93 -103z" />
<glyph unicode="&#xe0c1;" horiz-adv-x="1068" d="M180 1890l2 2q145 12 268 50q12 0 12 -15q-17 -133 -17 -281v-162q112 84 207 84q158 0 242 -76q82 -77 82 -233q0 -191 -125 -298q-106 -79 -261 -79q-103 0 -145 10q-104 20 -110 20q-13 0 -79 -14l-54 -18q-10 1 -17 7q12 58 12 209v511q0 189 -17 283zM445 1084 q0 -67 24 -81q36 -23 115 -23q75 0 110 72q33 68 33 177q0 209 -143 209q-46 0 -139 -64v-290z" />
<glyph unicode="&#xe0c2;" horiz-adv-x="872" d="M103 1194q0 172 106 281q101 89 307 89q176 0 272 -50l3 -6l-34 -169l-67 -2q-52 126 -160 126q-87 0 -132 -72q-37 -63 -39 -157q-6 -103 39 -177q53 -79 137 -79q133 -11 215 84l34 -7q0 -28 7 -96q-96 -82 -294 -82q-223 0 -312 96q-82 89 -82 221z" />
<glyph unicode="&#xe0c3;" horiz-adv-x="1044" d="M108 1199q0 202 128 297q112 70 261 70q92 0 141 -70v108q0 186 -19 284l5 4q132 7 260 50q18 0 18 -15q-20 -146 -20 -283v-462q0 -129 30 -288l-2 -5q-26 5 -129 5q-88 0 -120 -5q-12 0 -12 5l-7 82h-4q-56 -96 -216 -96q-159 0 -237 91q-77 89 -77 228zM359 1226.5 q0 -236.5 135 -236.5q95 0 144 116v228q-27 129 -141 129q-138 0 -138 -236.5z" />
<glyph unicode="&#xe0c4;" horiz-adv-x="926" d="M98 1189q0 165 104 268q96 109 279 109q203 0 276 -98q59 -68 59 -183q0 -54 -44 -54h-432v-21q-6 -92 43 -148q55 -59 175 -59q128 8 241 78q22 0 22 -47q-110 -162 -329 -162q-181 -10 -293 77q-101 92 -101 240zM347 1300h237q3 2 3 32q-22 133 -115 133 q-52 0 -81 -42q-44 -53 -44 -123z" />
<glyph unicode="&#xe0c5;" horiz-adv-x="638" d="M54 1463v56q0 31 35 31h71v18q1 163 91 263q99 111 293 111q122 0 146 -12l4 -5q-11 -27 -11 -171l-49 -9q-48 63 -120 63q-87 0 -108 -134q-13 -72 -5 -124h169q12 0 12 -9v-69q0 -20 -34 -20h-140v-258q0 -206 12 -300l-5 -5q-46 5 -127 5q-83 0 -136 -5l-2 5 q10 67 10 300v258h-99q-7 0 -7 11z" />
<glyph unicode="&#xe0c6;" horiz-adv-x="999" d="M79 706q-2 60 23 92q26 34 74 55t63 31q-121 18 -121 117q0 36 42 78q39 36 93 61q-40 12 -59 28q-84 56 -84 152q0 104 89 179q83 61 256 61q68 0 108 -12q78 3 201 5q90 5 125 7l5 -5q-5 -17 -5 -53.5t5 -54.5l-5 -5l-152 12q77 -53 77 -129q0 -101 -84 -175 q-82 -59 -266 -59q-20 0 -63 15q-18 -36 -18 -81q0 -47 86 -47l30 2q56 8 94 8q329 0 329 -200q0 -122 -155 -198q-119 -57 -352 -57q-162 0 -243 37q-93 44 -93 136zM305 734q0 -44 56 -80q47 -30 96 -30q97 0 157 44q62 42 62 99q0 73 -184 73l-106 -2q-1 0 -34 2 q-47 -49 -47 -106zM359 1327q0 -78 17 -110q21 -40 88 -40q101 0 101 148q0 77 -19 110q-22 42 -86 42q-101 0 -101 -150z" />
<glyph unicode="&#xe0ca;" horiz-adv-x="1036" d="M169 894q18 113 18 300v410q0 183 -18 284l3 2q136 11 260 52q18 0 18 -15q-18 -144 -18 -283v-376q45 6 67 22q121 101 231 248q219 0 255 3l3 -3q-9 -7 -280 -288q190 -227 312 -356l-2 -5q-20 5 -190 5q-86 0 -118 -5q-163 214 -234 291q-11 10 -44 12v-10 q0 -167 18 -288l-2 -5q-55 5 -136 5q-86 0 -140 -5z" />
<glyph unicode="&#xe0cc;" horiz-adv-x="1597" d="M167 894q18 122 18 271v81q0 191 -16 292l3 3q141 -6 243 5q10 0 12 -15q5 -13 5 -96l6 -5q107 136 223 136q118 0 167 -32q61 -27 86 -89q116 121 239 121q263 0 263 -251v-145q0 -181 14 -276l-2 -5q-37 5 -138 5q-62 0 -127 -5l-3 5q10 72 10 276v134q0 119 -84 119 q-75 0 -162 -96q2 -24 2 -44v-118q0 -150 17 -271l-2 -5q-53 5 -135 5q-83 0 -142 -5l-3 5q17 114 17 271v135q0 73 -22 100q-21 23 -66 23q-56 0 -158 -123v-135q0 -154 16 -271l-3 -5q-54 5 -135 5q-86 0 -141 -5z" />
<glyph unicode="&#xe0ce;" horiz-adv-x="1024" d="M101 1199q0 169 103 276q96 89 312 89q229 0 324 -99q84 -102 84 -251q0 -157 -96 -246q-95 -91 -314 -91t-315 87q-98 85 -98 235zM364 1234q0 -256 169 -256q131 0 131 194q0 150 -33 216q-34 72 -125 72q-87 0 -120 -72q-22 -55 -22 -154z" />
<glyph unicode="&#xe0cf;" horiz-adv-x="1081" d="M169 1550l3 5q157 -7 246 5q12 0 14 -17q2 -19 2 -96l9 -5q89 124 209 124q145 0 213 -54q113 -102 113 -264q0 -156 -96 -263q-98 -105 -287 -105q-93 0 -161 42v-76q0 -191 16 -300l-2 -5q-55 5 -141 5q-83 0 -135 -5v5q15 101 15 300v402q0 200 -18 302zM434 1037 q63 -54 134 -54q66 0 108 63q42 68 42 173q0 223 -123 223q-39 0 -86 -39q-49 -42 -75 -99v-267z" />
<glyph unicode="&#xe0d0;" horiz-adv-x="1119" d="M143 1207q0 150 96 261q99 100 253 100q91 0 226 -10q110 -6 231 0l3 -5q-18 -106 -18 -305v-402q0 -191 15 -300l-3 -5q-50 5 -135 5q-86 0 -140 -5v5q14 94 14 300v106q-86 -72 -181 -72q-199 0 -272 76q-100 102 -89 251zM406 1229q0 -234 162 -234q35 0 117 62v376 q-54 32 -144 32q-135 0 -135 -236z" />
<glyph unicode="&#xe0d3;" horiz-adv-x="610" d="M30 1470q-2 46 7 61q10 17 22 17h86q0 84 -9 138l2 5q58 14 242 68q16 0 16 -14q-7 -110 -7 -197h159q12 0 12 -10l3 -73q0 -20 -37 -20h-135l-5 -145q-3 -162 -3 -212q0 -91 57 -91q50 0 86 18q25 -27 25 -86q-86 -52 -220 -52q-118 0 -159 47q-34 41 -34 101 q0 18 2 258l8 162h-99q-19 0 -19 25z" />
<glyph unicode="&#xe0d4;" horiz-adv-x="1105" d="M167 1536l2 5q48 -5 133 -5q84 0 138 5v-5q-4 -63 -13 -270l-2 -136q-2 -122 77 -122q54 0 108 44q58 47 58 108v106q0 196 -9 270l2 5q47 -5 133 -5q76 0 132 5v-5q-12 -77 -12 -270v-86q0 -158 24 -300l-2 -5q-26 5 -125 5q-87 0 -117 -5q-14 0 -14 5l-9 96h-3 q-103 -111 -241 -111q-160 6 -209 66q-43 51 -42 150l4 185q2 117 -13 270z" />
<glyph unicode="&#xe0d5;" horiz-adv-x="910" d="M49 1546q34 -3 150 -3q96 0 123 3q93 -281 172 -472h5q69 176 181 472q17 -3 96 -3q70 0 87 3q-195 -414 -291 -652q-16 6 -142 6q-97 0 -113 -6q-156 409 -268 652z" />
<glyph unicode="&#xe0d9;" horiz-adv-x="825" d="M52 907q24 24 32 36l324 483q-151 -2 -300 -15l-2 5q2 29 2 64l-2 61l2 2q46 -2 84 -2h427q12 0 75 2l45 5q11 0 11 -7q-15 -15 -47 -64l-317 -467q174 0 348 17l3 -5q-3 -33 -3 -66l3 -58l-3 -6q-38 6 -82 6h-389q-23 0 -209 -6z" />
<glyph unicode="&#xe118;" d="M98 544q0 135 39.5 240t111 171.5t168.5 101t217 34.5q270 0 400.5 -136.5t130.5 -410.5q0 -154 -35.5 -264t-105 -176.5t-166 -97t-224.5 -30.5q-125 0 -221 31t-168 97t-109.5 176.5t-37.5 263.5zM443 420.5q0 -27.5 1.5 -74t5 -69t9.5 -57.5t15.5 -52t24 -39 t33.5 -31.5t44.5 -17t57.5 -7.5q48 0 82.5 12.5t55 36.5t33 58.5t16.5 77.5t5.5 94.5t-0.5 109.5v82v43q0 55 -0.5 81t-2 70.5t-4.5 65.5t-9.5 53.5t-16 48t-24 35.5t-33.5 28t-45 14.5t-57 6.5q-27 0 -48.5 -4.5t-39.5 -14.5t-31.5 -22.5t-24 -32.5t-18.5 -40t-13 -50 t-8.5 -58t-5 -67t-2 -74t-0.5 -83v-41v-82.5z" />
<glyph unicode="&#xe119;" d="M260 898q311 70 662 183q6 0 8.5 -0.5t5 -3t2.5 -8.5q0 -2 -3 -23t-5.5 -37.5t-6 -53t-6 -73.5t-4 -94t-1.5 -120v-204q0 -267 29 -464l-5 -7q-106 7 -194 7q-26 0 -55 -0.5t-51.5 -2t-42 -2.5t-29.5 -1l-11 -1l-2 7q26 169 26 464v183q0 81 -8 120t-36 39 q-151 0 -268 -15z" />
<glyph unicode="&#xe11a;" d="M154 55l45 31.5t48.5 34t44 31.5t48 36.5t43 36t47 43t42.5 44.5l117 133q31 35 52.5 81t31 90.5t9 85.5t-10.5 70q-18 50 -57 89t-96 39q-84 0 -136 -41t-84 -120q-36 -90 -89 -51q-35 26 -36.5 62t29.5 92q14 28 41.5 59.5t69 65.5t88.5 61.5t106.5 45t118.5 17.5 q84 0 151 -17t109 -43t72 -62t44 -70t20 -71q10 -58 -5 -115.5t-55 -113t-91 -106t-123 -109.5l-93 -74q-50 -41 -29 -89h42q111 0 183 3t157.5 10.5t114.5 9.5q-5 -24 -9.5 -68.5t-4.5 -69.5q0 -51 14 -116q-246 10 -427 10h-402q-15 0 -30 -0.5t-27.5 -0.5t-24 -0.5 t-19.5 -1t-14.5 -1t-9.5 -1.5h-3q-25 23 -12 60z" />
<glyph unicode="&#xe11b;" d="M94 -286l54 195l108 2q13 -24 30 -58t27 -53.5t25.5 -44t31 -37.5t38 -26t52 -18t68.5 -5q29 0 59.5 9.5t65.5 35t62.5 64t45.5 103.5t18 147q0 67 -16 119t-41 83t-62.5 50.5t-75 26.5t-82.5 7q-92 0 -122 -4v98q191 13 290 95t99 234q0 63 -30 122t-77 94t-94 35 q-35 0 -64.5 -6t-51.5 -14.5t-43 -27t-35 -34t-31.5 -45.5t-28.5 -51.5t-31 -61.5l-109 2l-52 193l9 11q55 49 183.5 93t275.5 44q116 0 204 -17t153.5 -53.5t99.5 -97.5t34 -147q0 -147 -86.5 -242.5t-230.5 -132.5v-7q57 -6 111 -21.5t105 -45t89 -69t61 -97.5t23 -126 q0 -110 -48.5 -199.5t-134 -148t-200 -90t-247.5 -31.5q-65 0 -125.5 9t-103.5 23t-82.5 33.5t-63.5 36t-45 34.5z" />
<glyph unicode="&#xe11c;" d="M52 118q0 3 3 8.5t7.5 13t5.5 10.5q331 500 635 952q103 -10 253 0l5 -6l-5 -981h240q38 0 38 -39q0 -24 -23 -50t-48 -26h-207q4 -219 27 -398l-5 -8q-97 8 -176 8q-37 0 -80 -2t-68 -4l-25 -2l-3 8q26 180 26 398h-436q-42 0 -56.5 3.5t-23.5 13.5l-38 44 q-6 12 -18 24.5t-20 20.5t-8 12zM197 115h455v711q-168 -226 -455 -711z" />
<glyph unicode="&#xe11d;" d="M91 -310l52 195l83 2q42 -74 82.5 -116.5t92.5 -62.5t125 -20q43 0 85 20t78.5 59.5t59.5 108t23 154.5q0 79 -9.5 137t-34 105t-64.5 76q-68 48 -153 48q-58 0 -103 -12t-78 -31.5t-78 -57.5l-59 18q14 32 25.5 143t17.5 235.5t4.5 238.5t-12.5 151l6 7q10 0 74.5 -6 t101 -9t88.5 -6t84 -3q227 0 485 27l14 -7l-37 -236q-164 -15 -336 -15q-156 0 -335 20l-17 -361q95 34 293 34q85 0 170 -28t146 -77q45 -36 80 -86t55.5 -111.5t20.5 -125.5q0 -93 -29 -177t-80.5 -147.5t-120 -110.5t-151 -71t-170.5 -24q-183 0 -290.5 24t-181.5 86z " />
<glyph unicode="&#xe11e;" d="M103 605q0 123 26.5 239t87.5 227.5t151 189.5q143 123 302 176.5t416 61.5q14 -17 18 -48t-2 -53q-61 -3 -112 -10t-112.5 -22t-120 -44.5t-110.5 -71.5q-87 -70 -146 -188t-73 -250q43 23 91.5 41.5t89.5 29.5t71 15q83 -2 153.5 -19t119.5 -42.5t87.5 -60.5t62 -70.5 t38.5 -74.5t21 -70t6 -59q0 -48 -9 -98t-29 -101.5t-48.5 -99t-72 -89t-96 -72t-122 -48.5t-149.5 -18q-57 0 -108.5 7t-107 26t-101.5 49t-88 79t-71 113t-46 154.5t-17 200.5zM413 595q0 -70 5 -130.5t13.5 -108t21 -87t27.5 -68.5t33 -52t36.5 -37.5t39.5 -24t40.5 -13 t41.5 -3.5q71 0 119 98.5t48 287.5q0 75 -29.5 147t-86 121t-124.5 49q-40 0 -79 -12t-104 -52q-2 -27 -2 -115z" />
<glyph unicode="&#xe11f;" d="M176 774q3 19 6 55t5.5 73t2.5 54q0 30 -14 132q78 -10 295.5 -17t492.5 -7q82 0 157 20l35 -50q-199 -483 -322.5 -809.5t-233.5 -654.5l-290 -10l-8 18q51 115 134.5 278t157 301t161 318.5t150.5 335.5q-65 0 -168 -5t-280 -15.5t-281 -16.5z" />
<glyph unicode="&#xe120;" d="M94 359q0 69 22.5 128t68.5 110t105.5 93.5t141.5 85.5l-43 26q-109 60 -164.5 145.5t-55.5 190.5q0 44 11 85t32.5 76.5t52.5 66.5t71.5 55.5t88.5 42t105 26.5t119 9q130 0 231 -37.5t158.5 -108.5t57.5 -164q0 -114 -71 -190.5t-219 -138.5l146 -86 q93 -65 154.5 -169.5t61.5 -208.5q0 -220 -185 -342q-59 -38 -165 -58t-206 -20q-77 0 -151 15.5t-140.5 47.5t-117 76.5t-80 107.5t-29.5 136zM401 359q0 -65 19 -120.5t50 -90.5t69.5 -55t77.5 -20q34 0 61.5 4.5t55.5 14.5t49 30t38 49.5t26 74t9 101.5q0 106 -41 175.5 t-147 138.5l-105 57q-43 -32 -73.5 -69t-47.5 -71t-26.5 -74.5t-12 -72t-2.5 -72.5zM448 1196q0 -59 41.5 -125.5t115.5 -109.5l71 -42q26 21 39.5 33t37.5 38t36.5 49t23 58t10.5 73q0 35 -6 67.5t-20.5 62.5t-36 52t-54 35t-72.5 13q-92 0 -139 -57t-47 -147z" />
<glyph unicode="&#xe121;" d="M98 560q0 48 9 98t29 101.5t48.5 99t72 89t96 72t122 48.5t149.5 18q57 0 108.5 -7t107 -26t101.5 -49t88 -79t71 -113t46 -154.5t17 -200.5q0 -123 -26.5 -239t-87.5 -227.5t-151 -189.5q-143 -123 -302.5 -177t-415.5 -62q-14 17 -18 48t2 53q61 3 112 10t112.5 22 t120 44t110.5 71q87 71 145.5 189t71.5 251q-42 -23 -91 -41.5t-89.5 -29.5t-71.5 -15q-83 2 -153 19t-119 42.5t-87.5 60.5t-61.5 70.5t-38 74.5t-21 70t-6 59zM427 605q0 -55 18 -111.5t49 -102t77 -74.5t97 -29q40 0 79 12t104 52q2 27 2 115q0 123 -15.5 217.5 t-40 151.5t-59 92.5t-69 48.5t-74.5 13q-72 0 -120 -98.5t-48 -286.5z" />
<glyph unicode="&#xe149;" horiz-adv-x="1068" d="M180 748l2 2q145 11 268 49q12 0 12 -15q-17 -133 -17 -280v-162q110 83 207 83q159 0 242 -76q82 -76 82 -234q0 -190 -125 -297q-105 -78 -261 -78q-103 0 -145 9q-98 19 -110.5 19t-78.5 -14l-54 -17q-10 2 -17 7q12 59 12 209v511q0 190 -17 284zM445 -59 q0 -68 24 -81q34 -22 115 -22q76 0 110 71q33 67 33 177q0 209 -143 209q-46 0 -139 -63v-291z" />
<glyph unicode="&#xe14a;" horiz-adv-x="872" d="M103 49q0 171 106 280q101 89 307 89q176 0 272 -50l3 -4l-34 -170l-67 -2q-52 125 -160 125q-87 0 -132 -71q-37 -62 -39 -157q-6 -104 39 -178q52 -78 137 -78q134 -11 215 83l34 -7q0 -28 7 -96q-95 -81 -294 -81q-223 0 -312 96q-82 89 -82 221z" />
<glyph unicode="&#xe14b;" horiz-adv-x="1044" d="M108 56q0 202 128 298q110 68 261 68q93 0 141 -68v108q0 185 -19 283l5 5q132 7 260 49q18 0 18 -15q-20 -147 -20 -282v-462q0 -129 30 -288l-2 -5q-26 5 -129 5q-88 0 -120 -5q-12 0 -12 5l-7 81h-4q-56 -96 -216 -96q-159 0 -237 91q-77 90 -77 228zM359 84 q0 -236 135 -236q96 0 144 115v229q-26 127 -141 127q-138 0 -138 -235z" />
<glyph unicode="&#xe14d;" horiz-adv-x="638" d="M54 319v57q0 32 35 32h71v17q1 162 91 263q100 111 293 111q120 0 146 -13l4 -5q-11 -27 -11 -169l-49 -10q-48 64 -120 64q-87 0 -108 -136q-13 -72 -5 -122h169q12 0 12 -10v-69q0 -19 -34 -19h-140v-258q0 -206 12 -300l-5 -5q-46 5 -127 5q-83 0 -136 -5l-2 5 q10 67 10 300v258h-99q-7 0 -7 9z" />
<glyph unicode="&#xe14e;" horiz-adv-x="999" d="M79 -432q-2 60 23 91q26 34 74 55q44 19 63 33q-121 18 -121 115q0 37 42 77q39 36 93 61q-40 12 -59 28q-84 56 -84 152q0 104 89 179q83 61 256 61q68 0 108 -12q78 3 201 5q90 5 125 7l5 -5q-5 -17 -5 -53.5t5 -54.5l-5 -5l-152 12q77 -53 77 -129q0 -101 -84 -175 q-82 -59 -266 -59q-24 0 -63 14q-18 -36 -18 -78q0 -47 86 -47l30 3q56 7 94 7q329 0 329 -199q0 -124 -155 -199q-117 -57 -352 -57q-162 0 -243 37q-93 45 -93 136zM305 -403q0 -44 56 -81q47 -30 96 -30q97 0 157 45q62 41 62 98q0 73 -184 73l-106 -2q-1 0 -34 2 q-47 -48 -47 -105zM359 187q0 -79 17 -111q21 -39 88 -39q101 0 101 148q0 77 -19 110q-22 42 -86 42q-101 0 -101 -150z" />
<glyph unicode="&#xe14f;" horiz-adv-x="1130" d="M182 -248q17 107 17 276v448q0 194 -17 288l3 5q110 7 263 49q14 0 14 -14q-14 -121 -14 -288v-94l-8 -134l8 -2q106 136 260 136q241 0 241 -225v-169q0 -181 15 -276l-3 -5q-37 5 -138 5q-61 0 -127 -5l-2 5q9 72 9 276v134q0 118 -79 118q-85 0 -176 -123v-129 q0 -174 7 -276l-3 -5q-43 5 -147 5q-59 0 -120 -5z" />
<glyph unicode="&#xe150;" horiz-adv-x="666" d="M197 -248q14 100 14 270v81q0 210 -14 291l5 4l129 -2q66 0 129 7q14 0 14 -17q-14 -181 -14 -266v-98q0 -164 14 -270l-2 -5q-61 5 -137 5q-75 0 -136 -5zM206 673q0 48 35 84q35 31 88 31q56 0 91 -31q35 -36 35 -84q0 -50 -35 -86q-35 -31 -91 -31q-53 0 -88 31 q-35 36 -35 86z" />
<glyph unicode="&#xe151;" horiz-adv-x="628" d="M-54 -548q7 25 7 187l40 9q34 -61 93 -61q63 0 83 108q11 56 11 246l2 172q2 197 -15 281l5 7l103 -5q80 0 143 7q12 0 12 -14q-12 -141 -12 -258l-5 -318q0 -173 -71 -270q-115 -108 -281 -108q-47 0 -75 3t-38 9zM176 666q0 52 35 89q36 33 89 33t86 -33q36 -36 36 -89 t-36 -89q-33 -33 -86 -33t-89 33q-35 37 -35 89z" />
<glyph unicode="&#xe152;" horiz-adv-x="1036" d="M169 -248q18 113 18 300v410q0 182 -18 283l3 3q136 11 260 51q18 0 18 -15q-18 -144 -18 -282v-377q43 5 67 23q121 100 231 248q219 0 255 2l3 -2q-9 -7 -280 -288q190 -228 312 -356l-2 -5q-20 5 -190 5q-86 0 -118 -5q-163 213 -234 290q-11 10 -44 12v-9 q0 -168 18 -288l-2 -5q-55 5 -136 5q-86 0 -140 -5z" />
<glyph unicode="&#xe153;" horiz-adv-x="640" d="M182 -248q15 99 15 262v364q2 309 -12 394l2 2q140 7 258 44q15 0 15 -12q-15 -133 -17 -393v-399q0 -156 14 -262l-2 -5q-50 5 -136 5t-134 -5z" />
<glyph unicode="&#xe154;" horiz-adv-x="1597" d="M167 -248q18 122 18 270v81q0 192 -16 293l3 2q141 -5 243 5q10 0 12 -14q5 -13 5 -96l6 -5q106 134 223 134q120 0 167 -31q61 -27 86 -89q115 120 239 120q263 0 263 -250v-144q0 -181 14 -276l-2 -5q-37 5 -138 5q-62 0 -127 -5l-3 5q10 72 10 276v134q0 118 -84 118 q-76 0 -162 -95q2 -24 2 -45v-118q0 -149 17 -270l-2 -5q-53 5 -135 5q-83 0 -142 -5l-3 5q17 114 17 270v135q0 74 -22 101q-19 22 -66 22q-57 0 -158 -123v-135q0 -153 16 -270l-3 -5q-54 5 -135 5q-86 0 -141 -5z" />
<glyph unicode="&#xe155;" horiz-adv-x="1110" d="M167 -248q18 102 18 270v81q0 199 -18 293l2 2q147 -5 249 5q10 0 12 -14q2 -19 2 -99l8 -4q103 134 224 134q262 0 262 -233v-165q0 -175 17 -270l-2 -5q-59 5 -135 5q-94 0 -138 -5l-2 5q10 70 10 270v133q0 125 -69 125q-84 0 -175 -120v-138q0 -168 11 -270l-5 -5 q-37 5 -126 5q-79 0 -143 -5z" />
<glyph unicode="&#xe157;" horiz-adv-x="1081" d="M169 406l3 4q157 -7 246 5q12 0 14 -17q2 -19 2 -96l9 -4q88 122 209 122q145 0 213 -54q113 -102 113 -263q0 -156 -96 -263q-98 -105 -287 -105q-93 0 -161 42v-77q0 -191 16 -300l-2 -5q-55 5 -141 5q-83 0 -135 -5v5q15 101 15 300v403q0 200 -18 303zM434 -108 q63 -54 134 -54q66 0 108 64q42 67 42 171q0 225 -123 225q-39 0 -86 -40q-49 -41 -75 -98v-268z" />
<glyph unicode="&#xe158;" horiz-adv-x="1119" d="M143 61q0 150 96 261q99 100 253 100q106 0 226 -9q110 -6 231 0l3 -5q-18 -106 -18 -305v-403q0 -191 15 -300l-3 -5q-50 5 -135 5q-86 0 -140 -5v5q14 94 14 300v106q-85 -71 -181 -71q-200 0 -272 75q-100 102 -89 251zM406 84q0 -234 162 -234q36 0 117 61v377 q-52 31 -144 31q-135 0 -135 -235z" />
<glyph unicode="&#xe159;" horiz-adv-x="776" d="M192 406l2 4q134 -7 244 5q10 0 12 -17q2 -19 2 -110l8 -5q91 137 184 137q46 0 78 -10l5 -7l-29 -180l-30 -2q-37 30 -86 30q-37 0 -73 -25q-54 -36 -54 -88v-114q0 -164 14 -272l-5 -5q-64 5 -166 5q-60 0 -104 -5v5q15 102 15 272v86q0 208 -17 296z" />
<glyph unicode="&#xe15a;" horiz-adv-x="753" d="M94 -228l24 172h51q63 -120 157 -120q56 0 75 9q29 15 29 40q0 44 -29 73q-28 28 -113 76q-163 88 -163 210q0 81 77 134q74 49 225 49q129 0 202 -42l2 -2l-29 -162l-49 -3q-54 116 -131 116q-73 0 -73 -52q0 -53 91 -101q124 -64 150 -87q66 -59 66 -150 q0 -87 -66 -141q-74 -59 -234 -59q-153 0 -262 40z" />
<glyph unicode="&#xe15b;" horiz-adv-x="610" d="M30 324q-2 47 7 62q10 17 22 17h86q0 84 -9 138l2 5q58 14 242 68q16 0 16 -14q-7 -110 -7 -197h159q12 0 12 -9l3 -75q0 -19 -37 -19h-135l-5 -145q-3 -162 -3 -211q0 -92 57 -92q52 0 86 17q25 -27 25 -85q-86 -52 -220 -52q-118 0 -159 47q-34 41 -34 101q0 18 2 258 l8 162h-99q-19 0 -19 24z" />
<glyph unicode="&#xe15c;" horiz-adv-x="1105" d="M167 401l2 5q48 -5 133 -5q84 0 138 5v-5q-4 -63 -13 -270l-2 -136q-2 -122 77 -122q56 0 108 43q58 46 58 108v107q0 196 -9 270l2 5q47 -5 133 -5q76 0 132 5v-5q-12 -77 -12 -270v-87q0 -157 24 -300l-2 -4q-26 4 -125 4q-87 0 -117 -4q-14 0 -14 4l-9 96h-3 q-103 -110 -241 -110q-160 5 -209 66q-43 51 -42 150l4 185q2 117 -13 270z" />
<glyph unicode="&#xe15d;" horiz-adv-x="910" d="M49 401q34 -3 150 -3q96 0 123 3q93 -281 172 -472h5q69 177 181 472q17 -3 96 -3q70 0 87 3q-195 -414 -291 -652q-12 5 -142 5q-100 0 -113 -5q-156 409 -268 652z" />
<glyph unicode="&#xe15e;" horiz-adv-x="1287" d="M44 403q29 -2 160 -2q89 0 113 2l155 -499l118 322l-64 180q19 -5 126 -5q111 0 127 5l133 -446l148 446q11 -5 80 -5q92 0 103 5q-191 -452 -265 -662q-17 3 -98 3q-92 0 -111 -3l-115 315l-124 -317q-11 5 -108 5q-102 0 -115 -5q-32 101 -263 661z" />
<glyph unicode="&#xe160;" horiz-adv-x="910" d="M68 406q18 -5 153 -5q92 0 108 5q49 -152 165 -430q79 175 158 430q12 -5 105 -5q73 0 85 5q-367 -752 -434 -974q-22 5 -96 5q-95 0 -118 -5q46 74 148 315l-5 12q-106 279 -269 647z" />
<glyph unicode="&#xe161;" horiz-adv-x="825" d="M52 -239q21 21 32 37l324 482q-151 -2 -300 -15l-2 5q2 29 2 65l-2 61l2 2q46 -2 84 -2h427q12 0 75 2l45 5q11 0 11 -7q-13 -13 -47 -65l-317 -467q161 0 348 18l3 -4q-3 -34 -3 -68l3 -58l-3 -5q-30 5 -82 5h-389q-60 0 -209 -5z" />
<glyph unicode="&#xe1a0;" horiz-adv-x="1473" d="M182 0q29 186 29 443v722q0 306 -29 462l5 7q69 5 184 33t168 49q21 0 21 -25q-25 -199 -25 -462v-153l-9 -213l9 -5q54 69 131 120.5t151.5 76t138.5 24.5q161 0 239 -96t78 -268v-272q0 -308 59 -419l-5 -7q-107 -24 -349 -24l-5 7q-13 33 -18.5 82.5t-5.5 163.5v415 q0 228 -128 228q-66 0 -140.5 -51.5t-145.5 -143.5v-251q0 -260 16 -443l-5 -7q-82 7 -166 7q-38 0 -87 -2t-79 -3l-29 -2z" />
<glyph unicode="&#xe1a1;" horiz-adv-x="760" d="M197 1052q24 -132 24 -475v-331q0 -113 6 -162.5t19 -83.5l5 -7q242 0 349 24l5 7q-59 111 -59 419v162q0 210 24 437q0 25 -22 25q-84 -12 -170 -12q-88 0 -174 7zM209 1482q-22 40 3 68q49 58 148 106q26 13 44 13t40 -15q77 -65 119 -134q8 -13 7.5 -31.5t-10.5 -32.5 q-55 -81 -150 -137q-25 -16 -56 5q-91 60 -145 158z" />
<glyph unicode="&#xe1a9;" horiz-adv-x="746" d="M182 1627l5 7q69 5 184 33t168 49q26 0 26 -25q-30 -236 -30 -462v-786q0 -323 60 -436l-5 -7q-138 -7 -349 -7l-5 7q-13 34 -19 83.5t-6 162.5v919q0 306 -29 462z" />
<glyph unicode="&#xe1ab;" horiz-adv-x="859" d="M-89 -464q13 50 13 96l26 12q81 -14 202 -14q30 0 53.5 14t39.5 38.5t28 58.5t18.5 74.5t11 86t5.5 93.5t1.5 96.5t0 95.5t0.5 90l2 300v53q0 294 -24 422l7 10q17 0 49 -2t64.5 -3.5t60.5 -1.5q53 0 169 12q23 0 23 -25l-4 -48t-3.5 -47.5t-3 -43t-3.5 -46t-2.5 -43 t-2.5 -48.5t-2 -48t-1 -55.5t-1 -57.5l-4 -541q-1 -158 -17 -247t-72 -169q-39 -55 -98.5 -94.5t-124 -58t-130.5 -18.5q-68 0 -150.5 17t-130.5 42zM293 1482q-22 40 3 68q49 58 148 106q26 13 46 13q18 0 37 -15q79 -67 120 -134q8 -13 7.5 -31.5t-10.5 -32.5 q-55 -81 -150 -137q-25 -16 -56 5q-91 60 -145 158z" />
<glyph unicode="&#xe1ac;" horiz-adv-x="1452" d="M108 499q0 142 51.5 264.5t159.5 201.5q87 63 166.5 88.5t199.5 25.5q36 0 80.5 -13.5t87 -39.5t64.5 -58v197q0 299 -30 462l5 7q46 4 120 19.5t136.5 32.5t94.5 30q12 0 20 -6.5t8 -18.5q-30 -236 -30 -462v-946q0 -72 6 -158.5t14 -126.5q-12 -9 -27 -12 q-32 16 -86.5 24.5t-90.5 8.5q-67 0 -139 -14q-57 -10 -155 -19.5t-170 -9.5q-101 0 -183.5 30t-137.5 80t-93 118t-54.5 141.5t-16.5 153.5zM457 544q0 -59 5.5 -113.5t20 -112.5t37.5 -100t62 -69t89 -27q59 0 98.5 5t61.5 12.5t43 20.5q25 16 34 41.5t9 78.5v465 q-13 63 -46.5 111t-82 74t-105.5 26q-27 0 -50.5 -5t-46.5 -18.5t-42 -34.5t-35.5 -53t-27.5 -74.5t-17.5 -100t-6.5 -126.5z" />
<glyph unicode="&#xe1ad;" horiz-adv-x="1377" d="M79 -305q0 123 54 192q28 17 103.5 51.5t103.5 51.5q-195 29 -195 192q0 59 64.5 121t149.5 91l5 12q-62 19 -98 44q-27 19 -48 39.5t-41.5 50t-32 70.5t-11.5 91q0 115 66 202t175 131.5t243 44.5q168 0 266 -49q69 10 122 44t53 83q0 18 -8 45t-22 42l3 11 q24 6 55.5 16.5t64.5 25t48 27.5l11 -3q40 -60 40 -167q0 -52 -33.5 -99.5t-85 -74.5t-105.5 -27h-20q53 -39 87.5 -109t34.5 -134q0 -112 -64 -195t-175.5 -125.5t-254.5 -42.5q-121 0 -185 26q-19 -28 -24 -51.5t-5 -58.5q0 -20 3 -36t9.5 -27.5t14.5 -20.5t19 -14.5 t21.5 -9.5t24 -6t25.5 -3t26 -1q5 0 9 1t13.5 2t24.5 2q94 12 154 12q53 0 101.5 -3.5t104 -13t101.5 -24.5t90 -41t74.5 -59.5t48.5 -81.5t18 -106q0 -95 -71 -183t-183 -143q-186 -91 -495 -91q-69 0 -133.5 8t-127.5 28.5t-109.5 51.5t-75 80t-28.5 111zM371 -256 q0 -40 12.5 -73.5t34 -57t47.5 -41t54.5 -27t54 -14.5t48.5 -5q159 0 260 69.5t101 181.5q0 31 -7 56.5t-21.5 43.5t-31.5 32t-41 22.5t-46.5 14t-52 8t-52.5 3.5t-53 1q-12 0 -71.5 -1t-100.5 -1q-25 0 -56 4q-45 -46 -62 -97.5t-17 -118.5zM460 713q0 -48 2.5 -82.5 t9 -66.5t19 -52.5t31.5 -36.5t46.5 -23t65.5 -7q87 0 127.5 65.5t40.5 197.5q0 74 -7 121t-25.5 83.5t-53.5 52t-90 15.5q-46 0 -79 -18.5t-52 -54.5t-27 -83.5t-8 -110.5z" />
<glyph unicode="&#xe1b0;" horiz-adv-x="2193" d="M169 0q28 179 28 443v282q0 76 -6.5 185t-14.5 147q13 8 28 12q31 -16 86 -28.5t90 -15.5q86 -8 141 0q19 2 97.5 17t153 26t120.5 11q57 0 102.5 -7.5t69 -16t50.5 -18t46 -12.5q41 -6 93 0q6 0 151.5 27t207.5 27q57 0 104 -7t83.5 -18.5t64.5 -31t48.5 -40.5 t34.5 -51.5t22.5 -60t13.5 -69.5t6.5 -76t1.5 -83v-199q0 -325 59 -436l-5 -7q-139 -7 -349 -7l-5 7q-13 33 -18.5 82.5t-5.5 163.5v364q0 59 -1 92.5t-4.5 75t-12.5 67.5t-23 42q-10 11 -25.5 19t-32.5 12.5t-33 4.5q-84 0 -145 -15.5t-94 -37.5q-26 -17 -36 -44t-10 -78 v-305q0 -264 28 -443l-5 -7q-108 7 -192 7q-38 0 -79 -2t-63 -3l-22 -2l-5 7q7 62 10 137.5t3.5 132t0.5 173.5v120q0 155 -7 225t-32 99q-33 35 -99 35q-144 0 -224 -52q-17 -11 -26.5 -26.5t-13 -36.5t-3.5 -57v-307q0 -275 14 -443l-7 -7q-69 7 -152 7q-25 0 -54.5 -0.5 t-54.5 -2t-46.5 -2.5t-34.5 -1l-12 -1z" />
<glyph unicode="&#xe1b1;" horiz-adv-x="1473" d="M182 0q27 171 27 443v282q0 78 -6 186t-13 146q13 9 26 12q53 -27 178 -44q61 -9 139 0q6 0 151.5 27t207.5 27q57 0 104 -7t83.5 -18.5t64.5 -31t48.5 -40.5t34.5 -51.5t22.5 -60t13.5 -69.5t6.5 -76t1.5 -83v-199q0 -325 59 -436l-5 -7q-139 -7 -349 -7l-5 7 q-13 34 -19 83.5t-6 162.5v364q0 62 -1 93t-4.5 74t-12 68.5t-22.5 41.5q-10 11 -25.5 19t-32.5 12.5t-33 4.5q-84 0 -145 -15.5t-94 -37.5q-17 -11 -26.5 -26.5t-13 -36.5t-3.5 -57v-307q0 -260 15 -443l-7 -7q-68 7 -152 7q-39 0 -89 -2t-82 -3l-31 -2z" />
<glyph unicode="&#xe1b2;" horiz-adv-x="1437" d="M167 -511q30 163 30 462v774q0 77 -6.5 191.5t-14.5 152.5q13 8 28 12q11 -2 83.5 -28t92.5 -26q96 0 141 19q29 13 117 23t156 10q245 0 368 -105q89 -77 130.5 -169.5t41.5 -227.5q0 -131 -43 -243.5t-118.5 -190.5t-180.5 -122.5t-225 -44.5q-61 0 -128 17t-118 54 v-160q0 -226 30 -462q0 -25 -23 -25q-52 20 -169.5 48.5t-186.5 33.5zM521 187q59 -54 113 -71.5t116 -17.5q97 0 166 112.5t69 300.5q0 122 -25.5 221.5t-79 161.5t-125.5 62q-59 0 -109.5 -13.5t-81.5 -32.5q-25 -17 -34 -48t-9 -86v-589z" />
<glyph unicode="&#xe1b3;" horiz-adv-x="1034" d="M182 0q27 171 27 443v282q0 78 -6 186t-13 146q13 9 26 12q31 -16 87 -25.5t91 -9.5q67 0 139 15q168 30 309 30q75 0 134 -17l9 -10l-49 -253l-44 -5q-13 22 -30 42.5t-42.5 41.5t-60 34t-73.5 13q-42 0 -72.5 -12t-45.5 -28t-23.5 -40t-10 -38.5t-1.5 -32.5v-331 q0 -260 15 -443l-7 -7q-68 7 -152 7q-39 0 -89 -2t-82 -3l-31 -2z" />
<glyph unicode="&#xe1b5;" horiz-adv-x="1473" d="M150 1046l5 9q140 7 349 7l5 -7q12 -34 18 -84t6 -162v-364v-75t2 -63.5t6 -60.5t12 -44t19 -35q14 -16 41.5 -26t52.5 -10q83 0 144 16t95 38q17 11 26 26.5t12 36t3 57.5v307q0 274 -15 443l7 7q69 -7 153 -7q17 0 38 0.5t40 1t37.5 1t34 1.5t27 1.5t18.5 1.5h6l5 -7 q-26 -183 -26 -443v-283q0 -75 6 -183.5t13 -147.5q-15 -11 -26 -12q-53 27 -178 44q-64 9 -140 0q-6 -1 -152 -27.5t-207 -26.5q-57 0 -104.5 7t-83.5 18.5t-64.5 31t-48.5 40.5t-34 51.5t-22.5 60t-13 69.5t-6 75.5t-1.5 83.5v199q0 324 -59 434z" />
<glyph unicode="&#xe1c0;" horiz-adv-x="1722" d="M49 -7q406 888 725 1625h221q112 -286 240.5 -604t252.5 -611t181 -410q-42 7 -224 7q-157 0 -199 -7q-26 89 -86 263q-38 74 -118 136t-173.5 99.5t-192.5 55t-180 9.5q-134 -325 -198 -563q-30 7 -111 7q-108 0 -138 -7zM522 618q176 37 289 19.5t250 -104.5 q-159 431 -267 681h-15q-10 -22 -107.5 -247t-149.5 -349z" />
<glyph unicode="&#xe1c1;" horiz-adv-x="1658" d="M223 0q30 208 30 492v601q0 273 -30 492l5 7q123 -7 206 -7q67 0 148 2t149 3.5t102 1.5q95 0 176 -12.5t139.5 -34t105 -51.5t76 -63.5t49 -71.5t27.5 -74t8 -73q0 -96 -76 -187t-178 -141q84 -24 153 -60.5t125.5 -88.5t88 -124.5t31.5 -158.5q0 -66 -22.5 -129 t-74 -123.5t-126.5 -106t-191 -73t-257 -27.5q-92 0 -168 1.5t-144 3.5t-141 2q-38 0 -90 -2t-85 -3l-33 -2zM602 239q0 -32 9.5 -53t33.5 -36t65.5 -21.5t105.5 -6.5q54 0 98.5 4.5t78 12t59.5 20t44 26t30.5 34t19.5 38.5t11 45t5 49t1 55q0 41 -3.5 76.5t-12.5 76t-24 73 t-41 63t-60 51t-83 33t-109 12.5h-228v-552zM602 922h192q77 0 126 14.5t77 48.5t38.5 80t10.5 117q0 79 -14.5 134t-44 87t-69 46t-92.5 14q-51 0 -86.5 -2.5t-60.5 -8.5t-40 -14t-23 -21.5t-11 -28.5t-3 -37v-429z" />
<glyph unicode="&#xe1c2;" horiz-adv-x="1734" d="M127 762q0 204 80 382.5t225 290.5q114 89 265.5 136t320.5 47q61 0 124.5 -6.5t116 -16t102.5 -21.5t87 -24t65.5 -22t42.5 -16l15 -6l5 -7q-22 -93 -32.5 -160t-17.5 -159l-74 -3q-78 156 -184 230.5t-267 74.5q-45 0 -90 -11t-92 -35.5t-89 -61t-79.5 -91.5 t-64.5 -122.5t-42.5 -157.5t-15.5 -194q0 -154 36 -283.5t98.5 -217.5t148.5 -137t186 -49q177 0 295.5 45.5t253.5 174.5l58 -84q-75 -78 -160 -134t-171.5 -87.5t-169.5 -46t-169 -14.5q-157 0 -275 33.5t-229 108.5q-143 96 -223 271t-80 373z" />
<glyph unicode="&#xe1c3;" horiz-adv-x="1869" d="M218 0q30 208 30 492v601q0 273 -30 492l5 7q123 -7 207 -7q87 0 222.5 3.5t222.5 3.5q140 0 270.5 -37.5t238.5 -109.5t188.5 -169.5t125 -225t44.5 -269.5q0 -126 -27.5 -233.5t-74.5 -186.5t-112.5 -142.5t-138.5 -104.5t-155 -68.5t-159.5 -39t-155.5 -11.5 q-109 0 -253 2.5t-236 2.5q-39 0 -91 -2t-85 -3l-33 -2zM602 248q0 -41 20.5 -67t74.5 -41t145.5 -15t158.5 9.5t126 34.5t98 68t67.5 109.5t41 159t12.5 216.5q0 95 -3 161.5t-16 150t-36 140.5t-65 115.5t-100.5 93.5t-146 57.5t-198.5 22.5q-91 0 -135 -30t-44 -94v-1091 z" />
<glyph unicode="&#xe1c4;" horiz-adv-x="1459" d="M206 0q30 208 30 492v601q0 273 -30 492l5 7q123 -7 207 -7h747q112 0 172 7l5 -7q-22 -114 -50 -211l-9 -10q-177 54 -673 54q-6 -20 -10.5 -67.5t-6 -102.5t-2.5 -93t-1 -62v-179q292 0 582 24l8 -7q-8 -32 -8 -91q0 -60 8 -92l-8 -9q-115 12 -294.5 18.5t-287.5 6.5 v-272q0 -36 1.5 -88t6 -124.5t12.5 -99.5q231 0 416 27t360 76l5 -11q-10 -83 -73 -272l-5 -7q-60 7 -124 7h-771q-39 0 -91 -2t-85 -3l-33 -2z" />
<glyph unicode="&#xe1c5;" horiz-adv-x="1360" d="M211 0q30 208 30 492v601q0 273 -30 492l5 7q123 -7 206 -7h728q95 0 154 7l6 -7q0 -11 -1.5 -25t-2 -24t-1.5 -20.5t-1 -16.5q0 -53 6 -101l-6 -10q-361 30 -690 30q-7 -26 -12 -102.5t-6 -131t-1 -91.5v-204q135 0 254.5 4.5t170.5 8.5t157 12l7 -7q-7 -32 -7 -91 q0 -61 7 -94l-7 -7q-114 12 -292 18t-290 6v-247q0 -317 24 -492l-5 -7q-108 7 -192 7q-38 0 -90 -2t-85 -3l-33 -2z" />
<glyph unicode="&#xe1c6;" horiz-adv-x="1850" d="M127 755q0 213 75 392t218 286q132 98 265 141.5t310 43.5q84 0 175.5 -11.5t162 -28t129 -33t89.5 -28.5l32 -11l5 -7q-10 -158 -50 -319l-73 9q-36 73 -93.5 130t-124.5 91.5t-139.5 52t-146.5 17.5q-93 0 -167.5 -34t-124.5 -94t-83 -146t-48 -185.5t-15 -216.5 q0 -99 18.5 -196.5t58.5 -187.5t97 -158.5t139 -110t179 -41.5q114 0 193.5 19.5t137.5 74.5v84q0 310 -166 408l49 68q169 -9 253 -9q38 0 83 1.5t70 3.5l26 2l2 -7v-418q0 -102 25 -133v-7q-123 -104 -318 -162.5t-411 -58.5q-275 0 -519 157q-67 44 -125 112t-99.5 149 t-65 174.5t-23.5 186.5z" />
<glyph unicode="&#xe1c7;" horiz-adv-x="1876" d="M199 0q29 200 29 492v601q0 282 -29 492l5 7q118 -7 202 -7q38 0 89 2t83 4l32 1l2 -7q-30 -204 -30 -492v-201h713v201q0 282 -29 492l5 7q118 -7 201 -7q39 0 90 2t83 4l31 1l3 -7q-30 -204 -30 -492v-601q0 -273 30 -492l-5 -7q-118 7 -202 7q-38 0 -89 -2t-83 -3 l-32 -2l-2 7q29 200 29 492v272h-713v-272q0 -273 30 -492l-5 -7q-118 7 -201 7q-39 0 -90 -2t-83 -3l-31 -2z" />
<glyph unicode="&#xe1c8;" horiz-adv-x="810" d="M199 0q29 200 29 492v601q0 282 -29 492l5 7q118 -7 202 -7q38 0 89 2t83 4l32 1l2 -7q-30 -204 -30 -492v-601q0 -273 30 -492l-5 -7q-118 7 -201 7q-39 0 -90 -2t-83 -3l-31 -2z" />
<glyph unicode="&#xe1c9;" horiz-adv-x="915" d="M-125 -464q21 34 43.5 138.5t22.5 158.5l71 15q24 -43 88.5 -92t113.5 -49q37 0 65 21.5t44 56.5t23.5 74.5t7.5 81.5q0 95 -5 246.5t-5 192.5v713q0 308 -25 492l5 7q118 -7 202 -7q38 0 86.5 2t78.5 4l29 1l2 -7q-24 -163 -24 -492v-805q0 -213 -32 -320t-138 -238 q-90 -112 -216 -168t-251 -56q-40 0 -105 7t-78 15z" />
<glyph unicode="&#xe1ca;" horiz-adv-x="1864" d="M199 0q29 200 29 492v601q0 282 -29 492l5 7q118 -7 202 -7q38 0 89 2t83 4l32 1l2 -7q-30 -204 -30 -492v-601q0 -273 30 -492l-5 -7q-118 7 -201 7q-39 0 -90 -2t-83 -3l-31 -2zM598 791v67q5 12 12 12q10 0 28 5.5t30 16.5q52 45 111 103t103 104t113.5 123.5 t103.5 116t114.5 131t106.5 122.5q32 -7 194 -7q184 0 224 7q-12 -9 -35 -30q-78 -68 -123 -108t-129 -114.5t-142.5 -129t-127.5 -120t-123 -121t-92 -99.5v-5l796 -872q-47 7 -250 7q-185 0 -227 -7q-79 97 -227 286t-250 316t-147 172q-9 8 -27 12.5t-27 4.5t-9 7z" />
<glyph unicode="&#xe1cb;" horiz-adv-x="1435" d="M223 0q30 208 30 492v601q0 290 -27 492l6 7q109 -7 193 -7q38 0 89 2t83 4l32 1l2 -7q-24 -163 -24 -492v-594q0 -23 1 -59.5t2.5 -88.5t6 -97.5t9.5 -66.5q158 0 298.5 23t244.5 58t210 88l5 -9q-2 -76 -24 -186t-50 -161l-6 -7q-59 7 -122 7h-748q-38 0 -90 -2t-85 -3 l-33 -2z" />
<glyph unicode="&#xe1cc;" horiz-adv-x="2188" d="M76 -7q95 386 187.5 825.5t149.5 808.5h187q252 -639 515 -1177l588 1177h194q67 -580 216 -1634q-37 7 -199 7q-107 0 -144 -7q-53 643 -137 1169q-290 -535 -545 -1162h-134q-18 47 -104.5 269.5t-121 308t-105 246t-136.5 292.5q-50 -277 -100 -601.5t-73 -521.5 q-27 7 -117 7q-94 0 -121 -7z" />
<glyph unicode="&#xe1cd;" horiz-adv-x="1916" d="M197 0q25 175 39 492l12 601q7 259 -25 492l5 7q77 -7 161 -7l108 5l891 -1091q12 -14 19.5 -22t15 -12.5t11.5 -1.5t6.5 15t1.5 33l-16 582q-9 315 -33 492l5 7q66 -7 126 -7q25 0 55 2t47 4l18 1l5 -7q-24 -163 -24 -492v-1100q-81 7 -119 7q-27 0 -64 -2.5t-73 -2.5 l-937 1123q-6 8 -8 21q0 -34 -2 -60l-14 -587q-8 -327 14 -492l-4 -7q-61 7 -120 7q-25 0 -49.5 -2t-36.5 -3l-13 -2z" />
<glyph unicode="&#xe1ce;" horiz-adv-x="1963" d="M127 762q0 179 63 336.5t173.5 272t269.5 181t343 66.5q194 0 354.5 -58.5t272 -163.5t172.5 -255.5t61 -331.5q0 -147 -38.5 -275.5t-112.5 -230.5t-177.5 -175.5t-238.5 -112.5t-291 -39q-181 0 -338.5 58.5t-270 161t-177.5 249.5t-65 317zM523 804q0 -173 37 -306.5 t104.5 -217.5t159 -127t203.5 -43q140 0 231.5 71.5t136.5 215.5t45 365q0 257 -52.5 415t-161 231.5t-283.5 73.5q-420 0 -420 -678z" />
<glyph unicode="&#xe1cf;" horiz-adv-x="1468" d="M199 0q29 200 29 492v601q0 282 -29 492l5 7q118 -7 202 -7q37 0 220 8.5t214 8.5q277 0 396 -83q49 -34 84.5 -78t54 -88t26.5 -83t8 -76q0 -46 -10 -94.5t-33 -100t-56 -98.5t-83 -88.5t-111 -72.5t-142.5 -49t-174.5 -18q-141 0 -222 25v-206q0 -273 30 -492l-5 -7 q-113 7 -196 7q-39 0 -90 -2t-83 -3l-31 -2zM577 823q22 -11 81.5 -17.5t113.5 -6.5q123 0 194 86t71 265q0 85 -14 146.5t-36.5 97.5t-58 56.5t-71 27t-83.5 6.5q-44 0 -76 -2.5t-53.5 -9.5t-35 -15t-20.5 -21.5t-9.5 -26.5t-2.5 -33v-553z" />
<glyph unicode="&#xe1d0;" horiz-adv-x="1963" d="M127 762q0 179 63 336.5t173.5 272t269.5 181t343 66.5q194 0 354.5 -58.5t272 -163.5t172.5 -255.5t61 -331.5q0 -239 -100.5 -425.5t-284.5 -292.5q6 -3 41 -24t46 -27.5t45.5 -26.5t51 -29t51 -27.5t57 -29t56.5 -27t62 -28t62.5 -24.5t67.5 -24v-16 q-229 -120 -281 -162q-86 49 -154 95.5t-105.5 77t-108.5 77t-166 97.5q-97 -17 -198 -17q-181 0 -338.5 58.5t-270 161t-177.5 249.5t-65 317zM523 804q0 -173 37 -306.5t104.5 -217.5t159 -127t203.5 -43q140 0 231.5 71.5t136.5 215.5t45 365q0 257 -52.5 415t-161 231.5 t-283.5 73.5q-420 0 -420 -678z" />
<glyph unicode="&#xe1d1;" horiz-adv-x="1687" d="M223 0q30 208 30 492v601q0 273 -30 492l5 7q123 -7 206 -7q38 0 221 8.5t213 8.5q94 0 162.5 -5t146 -24t131.5 -54q160 -104 160 -332q0 -319 -376 -414q65 -87 266 -391t269 -382l-5 -7q-49 7 -229 7q-145 0 -192 -7q-20 61 -91 181.5t-167 257.5q-22 31 -92 140 t-109 158q-96 -3 -140 -3v-235q0 -317 24 -492l-4 -7q-113 7 -197 7q-39 0 -88.5 -2t-80.5 -3l-30 -2zM602 865h132q61 0 96 1.5t78 8t66 19.5t48 35.5t37 57t19.5 83.5t7.5 114q0 61 -7.5 108t-18 78t-32 52.5t-39.5 32.5t-50.5 17t-55 7t-62.5 1q-64 0 -107.5 -8.5 t-67.5 -25.5t-34 -37.5t-10 -48.5v-495z" />
<glyph unicode="&#xe1d2;" horiz-adv-x="1332" d="M66 94q29 108 49 300l65 2q44 -67 118 -133.5t163 -113t161 -46.5q229 0 229 253q0 72 -61.5 141.5t-153.5 116.5q-7 4 -21 11q-56 29 -87.5 45.5t-87.5 49.5t-93.5 60.5t-80.5 66.5t-74 79q-77 99 -77 266q0 94 44 175.5t118 135.5t170 84.5t200 30.5q84 0 166.5 -11.5 t140 -28t103 -33t68.5 -28.5l22 -11l6 -7q-27 -93 -49 -294l-74 -4q-26 49 -63 97.5t-83.5 94.5t-102 74.5t-108.5 28.5q-65 0 -117 -34t-79 -88t-27 -115q0 -38 7.5 -70.5t18.5 -57.5t31 -48t38.5 -38.5t48 -33t51 -28.5t56.5 -27q55 -25 90.5 -42.5t91.5 -49t93.5 -59 t81 -68t69 -81t43 -92t17.5 -107.5q0 -94 -41.5 -181t-116 -153.5t-186 -106.5t-243.5 -40q-84 0 -169.5 11.5t-147.5 27.5t-111.5 32.5t-75.5 27.5l-25 11z" />
<glyph unicode="&#xe1d3;" horiz-adv-x="1478" d="M37 1349q4 28 4 106.5t-4 129.5l5 7q59 -7 148 -7h1100q88 0 148 7l4 -7q-3 -51 -3 -129.5t3 -106.5l-4 -10q-4 1 -11 3t-31.5 7.5t-52 11t-72 11.5t-92 10.5t-112 7.5t-131.5 3q-6 -20 -10 -67t-6 -101.5t-2.5 -92t-0.5 -60.5v-580q0 -317 24 -492l-5 -7q-113 7 -197 7 q-24 0 -53.5 -0.5t-54 -2t-45.5 -2.5t-33 -1l-12 -1l-2 7q24 166 24 492v580q0 23 -1 60.5t-2.5 92t-6 101.5t-9.5 67q-92 0 -178 -5.5t-142 -13.5t-99 -16t-63 -13l-20 -6z" />
<glyph unicode="&#xe1d4;" horiz-adv-x="1766" d="M187 1585l5 7q107 -7 191 -7q38 0 89 2t83 4l32 1l3 -7q-25 -171 -25 -492v-432q0 -45 3 -87.5t13 -97t25.5 -100.5t43.5 -91.5t65.5 -77.5t93 -51.5t122.5 -19.5q75 0 135.5 16t102.5 43t74 68.5t51 86.5t30.5 102.5t15.5 111t4 116.5v413q0 317 -24 492l5 7 q65 -7 125 -7q11 0 24 0.5t25 1t23.5 1.5t21 1.5t17 1.5t11.5 1h4l2 -7q-25 -171 -25 -492v-368q0 -141 -23 -255t-74 -207t-129 -156t-190.5 -97t-256.5 -34q-60 0 -118.5 7t-126 25.5t-127 47t-115 76t-95 108.5t-63.5 148.5t-24 191.5v513q0 317 -24 492z" />
<glyph unicode="&#xe1d5;" horiz-adv-x="1651" d="M40 1592q42 -7 248 -7q144 0 186 7q134 -472 421 -1153q82 190 134.5 313t122.5 294.5t118.5 307.5t75.5 238q30 -7 143 -7q88 0 118 7q-476 -1040 -725 -1616h-169q-80 191 -236.5 576t-269.5 658t-167 382z" />
<glyph unicode="&#xe1d6;" horiz-adv-x="2563" d="M40 1592q42 -7 248 -7q132 0 174 7q16 -55 64.5 -190t163 -424t258.5 -622q201 467 272 641q-184 474 -244 595q42 -7 199 -7q194 0 236 7q1 -1 18 -65.5t32.5 -120t50 -166.5t72.5 -220.5t97 -264.5t126 -316q111 253 181 419t152.5 383.5t117.5 350.5q30 -7 126 -7 q105 0 135 7q-476 -1040 -725 -1616h-169q-112 267 -313 787l-353 -787h-222q-562 1341 -697 1616z" />
<glyph unicode="&#xe1d7;" horiz-adv-x="1579" d="M94 1592q42 -7 237 -7q148 0 192 7q80 -165 309 -537q123 180 186 280.5t147 256.5q28 -7 155 -7q100 0 127 7q0 -1 -190 -261t-319 -449q442 -712 551 -889q-44 7 -194 7q-198 0 -243 -7q-175 336 -319 581q-181 -282 -344 -581q-28 7 -129 7q-127 0 -154 -7 q301 447 519 763q-185 307 -531 836z" />
<glyph unicode="&#xe1d8;" horiz-adv-x="1604" d="M40 1592q42 -7 240 -7q150 0 192 7q43 -86 98 -185t94 -165.5t110 -186.5t104 -177q244 387 402 714q30 -7 143 -7q83 0 115 7q-63 -96 -148.5 -226.5t-132 -201t-100.5 -155t-91.5 -146t-67.5 -115.5q1 -207 6.5 -437.5t13.5 -317.5q-40 7 -204 7q-162 0 -202 -7 q17 159 17 683q-62 106 -275.5 436t-313.5 480z" />
<glyph unicode="&#xe1d9;" horiz-adv-x="1584" d="M5 2q16 21 37.5 53.5t25.5 38.5l963 1338l-883 -53l-5 7q5 38 5 106q0 24 -5 93l5 7q59 -7 150 -7h896q59 0 169.5 5t140.5 10q15 0 15 -15q0 -19 -16.5 -47t-57.5 -86q-270 -373 -598 -827q-250 -345 -293 -405t-43 -65q66 0 155.5 2.5t180.5 7.5t185.5 10.5t176 11 t146.5 10t102 7.5l37 2l5 -7q-5 -38 -5 -105q0 -24 5 -94l-5 -7q-59 7 -174 7h-942l-366 -7z" />
<glyph unicode="&#xe358;" horiz-adv-x="0" d="M-703 1873q17 56 54.5 110.5t85.5 87.5l349 -242q38 -26 38 -59q0 -18 -13 -40t-27 -22q-17 0 -96 22l-373 108z" />
<glyph unicode="&#xe359;" horiz-adv-x="0" d="M-760 1770q0 33 38 59l349 242q48 -32 85 -86.5t54 -111.5l-17 -35l-373 -108q-79 -22 -96 -22q-14 0 -27 22t-13 40z" />
<glyph unicode="&#xf638;" d="M73 732q0 180 44 326.5t120.5 242t179 147t221.5 51.5q146 0 261 -69l74 155l99 -47l-84 -174q201 -193 201 -609q0 -107 -14 -201t-39.5 -167.5t-60 -135t-76.5 -105.5t-87.5 -77.5t-94.5 -53.5t-96.5 -29.5t-94.5 -9.5q-154 0 -271 82l-80 -166l-101 47l95 195 q-95 105 -145.5 261t-50.5 337zM425 706q0 -153 6 -239l361 745q-28 90 -68.5 133t-85.5 43q-23 0 -42.5 -6t-42 -24.5t-40.5 -49.5t-35 -83t-28.5 -122t-18 -171.5t-6.5 -225.5zM460 272q48 -190 169 -190q22 0 42.5 8.5t42.5 31t40 58t34 92.5t27.5 130.5t18 176 t6.5 225.5q0 137 -12 232z" />
<glyph unicode="&#xf6ae;" horiz-adv-x="830" d="M108 798q0 105 31 217t84.5 214.5t125.5 201t155 181t172 147.5l79 -59q-22 -21 -43.5 -44t-55.5 -69t-63 -96t-60 -124.5t-53 -155t-36 -187t-14 -220.5t14 -221t35.5 -189t52.5 -157.5t60 -127.5t63 -99.5t56 -72t44 -46.5l-79 -57q-90 73 -165.5 148t-133.5 145.5 t-103.5 142.5t-76 139t-51 134.5t-29.5 130t-9 124.5z" />
<glyph unicode="&#xf6af;" horiz-adv-x="830" d="M76 -104q16 15 32 32t40.5 47.5t46.5 63t48.5 79.5t48 96.5t42.5 115t35 134.5t23 153.5t9 174.5q0 114 -14 221t-36 189t-53 157.5t-60 127.5t-62.5 99.5t-55.5 72t-44 46.5l79 57q155 -127 267 -256t176.5 -251t94 -234t29.5 -223q0 -130 -47 -270t-127 -265 t-181 -234.5t-212 -191.5z" />
<glyph unicode="&#xf6b0;" horiz-adv-x="1004" d="M270 -143v1891h647v-81q-90 -6 -147.5 -12.5t-106 -18.5t-74.5 -27t-43.5 -41.5t-23.5 -58.5t-6 -80v-1253q0 -36 3 -62t12 -49t22 -39t36.5 -29.5t51 -22t70.5 -16t91 -12t115 -8.5v-81h-647z" />
<glyph unicode="&#xf6b1;" horiz-adv-x="1004" d="M89 -60q59 4 102.5 8t83.5 9.5t67.5 13t52 16.5t39.5 22.5t26.5 29t17.5 37t9 45.5t3 55v1253q0 48 -6 80t-23.5 58.5t-43.5 41.5t-74 27.5t-106 19t-148 12.5v80h645v-1891h-645v83z" />
<glyph unicode="&#xf6b2;" horiz-adv-x="753" d="M19.5 784q-0.5 20 15.5 34q66 6 114 27t74.5 53t39 68.5t12.5 78.5l-15 389q-2 69 22.5 125t67.5 92t102.5 60.5t123 35t132.5 10.5q11 -10 11 -25.5t-11 -25.5q-35 -8 -58.5 -16t-54 -28.5t-48 -47.5t-28.5 -74.5t-8 -110.5l19 -350q4 -69 -11.5 -118.5t-52 -82 t-81.5 -52.5t-113 -36v-9q66 -24 113 -51t82.5 -64.5t51 -88t11.5 -114.5l-19 -314q-8 -128 51.5 -205.5t145.5 -77.5q11 -10 11 -25.5t-11 -25.5q-79 0 -143.5 9.5t-124.5 33t-99.5 61.5t-61.5 99.5t-19 141.5l15 358q4 102 -52.5 160.5t-187.5 72.5q-15 13 -15.5 33z" />
<glyph unicode="&#xf6b3;" horiz-adv-x="753" d="M36 -162q0 15 11 25q35 9 58 17t54 28t48.5 47.5t28.5 75t8 109.5l-21 351q-4 69 11.5 118.5t52 82.5t82 53t112.5 36v9q-66 23 -112.5 50t-82 64.5t-51.5 88t-12 113.5l21 315q7 127 -52 205t-145 78q-11 10 -11 25.5t11 24.5q79 0 143.5 -9t124 -32.5t99.5 -61.5 t62 -99t18 -141l-15 -360q-4 -101 53 -160t188 -73q15 -13 15.5 -32.5t-15.5 -34.5q-66 -5 -114.5 -26t-75 -53.5t-39 -69t-12.5 -78.5l15 -388q3 -70 -21.5 -125.5t-67.5 -92t-102.5 -60.5t-123 -34.5t-132.5 -10.5q-11 10 -11 25z" />
<glyph unicode="&#xf6b6;" horiz-adv-x="1363" d="M182 694v38q89 79 121.5 109.5t97 92t117.5 119t116 131.5q8 -2 18.5 -7.5t21 -12.5t19 -16t13.5 -18q-145 -276 -256 -417q111 -141 256 -418q-9 -17 -31 -32.5t-41 -21.5q-63 74 -116 132t-117.5 119.5t-97 91.5t-121.5 110zM644 694v38q89 79 121.5 109.5t97 92 t117.5 119t116 131.5q19 -6 41 -21.5t31 -32.5q-145 -276 -256 -417q111 -141 256 -418q-9 -17 -31 -32.5t-41 -21.5q-63 74 -116 132t-117.5 119.5t-97 91.5t-121.5 110z" />
<glyph unicode="&#xf6b7;" horiz-adv-x="1363" d="M150 295q145 277 256 418q-111 141 -256 417q8 17 30 32.5t41 21.5q62 -74 114.5 -130.5t120.5 -121.5t95 -89.5t122 -110.5v-38q-10 -9 -28 -26q-97 -87 -146 -132.5t-125 -124t-153 -170.5q-19 6 -41 21.5t-30 32.5zM612 295q145 277 256 418q-111 141 -256 417 q8 17 30 32.5t41 21.5q62 -74 114.5 -130.5t120.5 -121.5t95 -89.5t122 -110.5v-38q-10 -9 -28 -26q-73 -66 -110.5 -100t-94 -89t-108.5 -111.5t-111 -126.5q-19 6 -41 21.5t-30 32.5z" />
<glyph unicode="&#xf6b8;" horiz-adv-x="872" d="M167 661v96q259 179 541 479v-132q-178 -251 -344 -396q158 -127 344 -394v-132q-296 345 -541 479z" />
<glyph unicode="&#xf6b9;" horiz-adv-x="872" d="M167 174v133q178 251 344 396q-160 129 -344 393v133q296 -345 541 -479v-96q-256 -177 -541 -480z" />
<glyph unicode="&#xf6ba;" horiz-adv-x="844" d="M94 745q0 33 20 79t41 46h563q16 0 25 -18.5t9 -37.5q0 -26 -22.5 -75t-44.5 -49h-554q-15 0 -26 18.5t-11 36.5z" />
<glyph unicode="&#xfb06;" horiz-adv-x="1670" d="M94 42l39 235l73 3q52 -101 122 -148.5t141 -47.5q24 0 39.5 0.5t35 3t32 7.5t25.5 13.5t20.5 21t12 31.5t4.5 43q0 72 -46.5 118.5t-185.5 122.5q-48 26 -82 48.5t-70 53.5t-58 64t-36.5 76.5t-14.5 93.5q0 82 47 146.5t123.5 101t174.5 46.5q-30 27 -52.5 54.5t-37 55 t-23 58.5t-12.5 61.5t-4 67.5q0 66 36 128t99 110t156.5 77t200.5 29q116 0 224.5 -30t195 -83.5t140.5 -135.5t59 -179l12 -233h266q20 0 20 -16v-83q0 -14 -19.5 -23t-40.5 -9h-223v-256q0 -83 -3.5 -201t-3.5 -145q0 -41 3 -71t11.5 -55t25 -38t40.5 -13q35 0 58 3 t50.5 12.5t59.5 29.5q47 -29 47 -87q-46 -42 -109.5 -71.5t-123.5 -42.5t-114 -13q-57 0 -103.5 21t-75.5 56t-44.5 77t-15.5 86q0 27 3.5 185t3.5 241v282h-154q-14 0 -23 10.5t-9 24.5q0 28 17.5 62t34.5 34h134q0 78 2.5 136.5t2.5 96.5q0 155 -95 244.5t-278 89.5 q-152 0 -245 -67t-93 -171q0 -98 44 -175t148 -139q135 -17 205 -55l5 -7l-46 -222l-67 -2q-15 31 -33 58.5t-45.5 58.5t-65 49t-79.5 18q-35 0 -59.5 -8.5t-37.5 -25.5t-19 -37.5t-6 -48.5t11 -52t34 -44.5t45.5 -35t57.5 -33.5q17 -9 51.5 -27t52 -27.5t48 -27.5t47 -30 t41 -31.5t37.5 -36t29 -40t24 -47.5t13.5 -53.5t5.5 -62.5q0 -43 -11.5 -83t-35 -76.5t-61 -66t-87 -52t-116 -34.5t-144.5 -12q-79 0 -185 16t-197 50z" />
</font>
</defs>
</svg>
