<?xml version="1.0" standalone="no"?>
<!DOCTYPE svg PUBLIC "-//W3C//DTD SVG 1.1//EN" "http://www.w3.org/Graphics/SVG/1.1/DTD/svg11.dtd" >
<svg xmlns="http://www.w3.org/2000/svg" xmlns:xlink="http://www.w3.org/1999/xlink" version="1.1">
<metadata></metadata>
<defs>
<font id="linux_biolinum_oitalic" horiz-adv-x="753" >
<font-face units-per-em="2048" ascent="1638" descent="-410" />
<missing-glyph horiz-adv-x="614" />
<glyph unicode="&#x2e;&#x2e;&#x2e;" horiz-adv-x="1839" d="M156 108l1 10q19 33 41 56.5t51.5 42.5t69.5 34h10q50 -20 74 -50.5t30 -82.5l-2 -10q-31 -59 -68.5 -89t-92.5 -43h-10q-55 13 -78 41.5t-26 90.5zM808 108l1 10q19 33 40.5 56.5t51 42.5t69.5 34h10q34 -14 55 -31.5t33.5 -42t16.5 -59.5l-3 -10q-31 -59 -68 -89 t-92 -43h-10q-55 13 -78.5 41.5t-25.5 90.5zM1456 108l2 10q28 49 65 80t96 53h9q50 -20 74.5 -50.5t30.5 -82.5l-1 -10q-32 -59 -69.5 -89t-92.5 -43h-10q-55 13 -78.5 41.5t-25.5 90.5z" />
<glyph unicode="&#x21;&#x21;" horiz-adv-x="1009" d="M163 108l3 10q28 49 64.5 80t95.5 53h10q50 -20 74 -50.5t30 -82.5l-2 -10q-31 -59 -68 -89t-93 -43h-9q-56 13 -79 41.5t-26 90.5zM349 499q1 5 25.5 177.5t37.5 287.5q7 69 10.5 139.5t3.5 114.5t5.5 102.5t18.5 117.5q8 38 23.5 69.5t33.5 51.5t39 33.5t40 19.5t36 6 q54 0 86 -47.5t13 -132.5q-19 -91 -79.5 -245t-85.5 -229q-39 -117 -70 -220.5t-46.5 -161t-18.5 -66.5q-15 -49 -44 -49q-31 0 -28 32zM617 113l1 9q28 50 65 81t96 53h11q49 -20 73.5 -51t30.5 -83l-2 -9q-32 -59 -69 -89t-92 -43h-10q-55 13 -78.5 41.5t-25.5 90.5z M803 504q0 4 24 177t37 287q9 85 14 232t26 242q10 48 30.5 84.5t45.5 56.5t49 29.5t46 9.5q55 0 86.5 -47t13.5 -133q-19 -90 -80 -244t-86 -230q-39 -116 -69.5 -219.5t-46 -161t-18.5 -66.5q-15 -49 -45 -49t-27 32z" />
<glyph unicode="&#x3f;&#x3f;" horiz-adv-x="1918" d="M328 108l2 10q19 33 40.5 56.5t51 42.5t69.5 34h9q50 -20 74.5 -50.5t30.5 -82.5l-1 -10q-32 -59 -69.5 -89t-92.5 -43h-10q-55 13 -78.5 41.5t-25.5 90.5zM415 1457l10 11q25 17 54 35t73.5 40t89 38.5t99 27.5t105.5 11q187 0 275 -101.5t51 -270.5q-8 -40 -25 -78.5 t-36 -68t-49.5 -61t-53.5 -52t-60.5 -47.5t-58.5 -40.5t-60 -37.5q-119 -77 -153 -124q-63 -86 -82 -179l-24 -108q-5 -25 -37 -25q-15 0 -22 6.5t-5 18.5l24 113q9 42 16.5 69t26 73.5t43 83t66.5 83t97 87.5q63 49 101.5 88t65.5 86t39 103q26 121 -26 202.5t-156 81.5 q-168 0 -352 -232l-31 2zM1252 108l2 10q28 49 65 80t96 53h9q50 -20 74.5 -50.5t30.5 -82.5l-1 -10q-21 -40 -45 -66t-52 -41.5t-65 -24.5h-10q-55 13 -78.5 41.5t-25.5 90.5zM1339 1457l10 11q32 22 72 45t96.5 49t123.5 42t129 16q187 0 275 -101.5t51 -270.5 q-8 -40 -25 -78.5t-36 -68t-49.5 -61t-53.5 -52t-60.5 -47.5t-58.5 -40.5t-60 -37.5q-119 -77 -153 -124q-63 -86 -82 -179l-24 -108q-5 -25 -37 -25q-15 0 -22 6.5t-5 18.5l24 113q9 42 16.5 69t26 73.5t43 83t66.5 83t97 87.5q95 74 142.5 134.5t64.5 142.5 q26 121 -26 202.5t-157 81.5q-168 0 -352 -232l-31 2z" />
<glyph unicode="&#x3f;&#x21;" horiz-adv-x="1459" d="M328 108l2 10q19 33 40.5 56.5t51 42.5t69.5 34h9q50 -20 74.5 -50.5t30.5 -82.5l-1 -10q-32 -59 -69.5 -89t-92.5 -43h-10q-55 13 -78.5 41.5t-25.5 90.5zM415 1457l10 11q25 17 54 35t73.5 40t89 38.5t99 27.5t105.5 11q187 0 275 -101.5t51 -270.5q-8 -40 -25 -78.5 t-36 -68t-49.5 -61t-53.5 -52t-60.5 -47.5t-58.5 -40.5t-60 -37.5q-119 -77 -153 -124q-63 -86 -82 -179l-24 -108q-5 -25 -37 -25q-15 0 -22 6.5t-5 18.5l24 113q9 42 16.5 69t26 73.5t43 83t66.5 83t97 87.5q63 49 101.5 88t65.5 86t39 103q26 121 -26 202.5t-156 81.5 q-168 0 -352 -232l-31 2zM1066 113l2 9q28 50 65 81t96 53h9q50 -20 74.5 -51t30.5 -83l-1 -9q-21 -40 -44.5 -66t-51.5 -42t-65 -24h-11q-55 13 -78.5 41.5t-25.5 90.5zM1253 504q0 4 24 177t37 287q9 85 14 232t26 242q10 48 30.5 84.5t45 56.5t48.5 29.5t46 9.5 q55 0 86.5 -47t13.5 -133q-20 -90 -80.5 -245t-84.5 -229q-39 -116 -69.5 -219.5t-46 -161t-18.5 -66.5q-15 -49 -45 -49t-27 32z" />
<glyph unicode="&#x21;&#x3f;" horiz-adv-x="1442" d="M163 108l3 10q28 49 64.5 80t95.5 53h10q50 -20 74 -50.5t30 -82.5l-2 -10q-31 -59 -68 -89t-93 -43h-9q-56 13 -79 41.5t-26 90.5zM349 499q1 5 25.5 177.5t37.5 287.5q7 69 10.5 139.5t3.5 114.5t5.5 102.5t18.5 117.5q8 38 23.5 69.5t33.5 51.5t39 33.5t40 19.5t36 6 q54 0 86 -47.5t13 -132.5q-19 -91 -79.5 -245t-85.5 -229q-39 -117 -70 -220.5t-46.5 -161t-18.5 -66.5q-15 -49 -44 -49q-31 0 -28 32zM774 103l2 10q29 49 65.5 80t95.5 53h10q50 -20 74 -50.5t30 -82.5l-2 -10q-32 -59 -69 -89.5t-92 -43.5h-10q-28 6 -46.5 16t-31 26 t-19 38t-7.5 53zM862 1452l9 11q25 17 54 35t73.5 40t89 38.5t99 27.5t104.5 11q187 0 275.5 -101.5t52.5 -270.5q-9 -40 -26 -78.5t-36 -68t-49.5 -60.5t-53 -51.5t-60.5 -47.5t-59 -41t-59 -38q-120 -77 -154 -124q-64 -88 -83 -178l-23 -108q-5 -26 -37 -26 q-15 0 -22 6.5t-4 19.5l24 112q7 35 13 57.5t18.5 59.5t30 67.5t42.5 67t61.5 73t82.5 71.5q94 74 141.5 134.5t65.5 143.5q25 120 -26.5 201.5t-156.5 81.5q-168 0 -351 -232l-32 3z" />
<glyph unicode="ft" horiz-adv-x="1449" d="M-269 -526q45 62 100 189l25 2q11 -39 44.5 -65.5t79.5 -26.5q37 0 69.5 19t58.5 56.5t47 81.5t42 103q20 59 45.5 173.5t62.5 298.5t56 275l78 366h-171q-8 0 -10 3t0 12l10 45q3 18 20 33.5t47 15.5h127l26 98q25 92 54.5 156t63.5 108.5t97 111.5q86 90 194.5 138.5 t224.5 48.5q32 0 68.5 -12t51.5 -23l1 -7q-42 -53 -107 -190l-27 -2q-13 38 -52.5 62t-91.5 24q-100 0 -167.5 -72t-90.5 -181q-5 -21 -17.5 -97.5t-22.5 -124.5l-8 -38h206h70h213q11 52 30 151t33 154l7 7q35 2 63.5 8t43.5 12t40 16.5t43 17.5q21 0 16 -25 q-30 -108 -42 -156t-42 -185h266q9 0 13 -4.5t2 -11.5l-12 -61q-3 -15 -24 -23.5t-42 -8.5h-227l-74 -351q-18 -84 -43 -189t-30 -131q-17 -76 -4.5 -120.5t53.5 -44.5q24 0 36.5 0.5t38.5 3.5t51.5 11t51.5 21l16 -67q-65 -48 -152 -75.5t-167 -27.5q-81 0 -116.5 63 t-18.5 155q7 41 39 176.5t46 197.5l83 378h-251h-30h-209l-173 -782q-24 -108 -65 -214.5t-88 -190t-95 -139.5q-52 -61 -111 -102.5t-125 -63.5t-135 -22q-29 0 -64 12t-49 23v7z" />
<glyph unicode="tt" horiz-adv-x="1459" d="M242 169q6 26 40.5 170.5t52.5 228.5l80 378h-155q-10 0 -8 10l19 88q2 11 10 11h157q25 121 33.5 172.5t12.5 123.5l7 9q45 3 78 11t78 27t56 23q12 0 15.5 -6t0.5 -19q-31 -108 -43 -156t-41 -185h143h120h258q25 121 33.5 172.5t11.5 123.5l7 9q46 3 79 11t77.5 27 t56.5 23q11 0 14.5 -6t0.5 -19q-30 -108 -42 -156t-42 -185h263q9 0 14 -4.5t3 -11.5l-13 -61q-4 -15 -24.5 -23.5t-41.5 -8.5h-223l-76 -351q-18 -83 -43.5 -188.5t-30.5 -131.5q-19 -76 -9.5 -114.5t57.5 -38.5q50 0 87.5 9t89.5 36l17 -69q-84 -65 -158.5 -93.5 t-153.5 -28.5q-85 0 -126.5 53.5t-23.5 139.5q6 26 40.5 170.5t51.5 228.5l81 378h-298h-79h-144l-76 -351q-17 -83 -42.5 -188.5t-31.5 -131.5q-19 -76 -9 -114.5t57 -38.5q50 0 87.5 9t90.5 36l16 -69q-83 -65 -157.5 -93.5t-154.5 -28.5q-84 0 -126 53.5t-24 139.5z" />
<glyph unicode="Qu" horiz-adv-x="2946" d="M242 557q0 135 32 263.5t88 235.5t127 195t155 159q119 99 257.5 153.5t285.5 54.5q280 0 441.5 -160.5t161.5 -435.5q0 -104 -21 -209t-57 -194t-83.5 -171t-99 -145t-106.5 -111q-64 -57 -134 -97q53 -45 126 -91t172.5 -94t209.5 -89t243.5 -74.5t269.5 -51.5l-2 -14 q-187 -89 -262 -141q-316 93 -534.5 199t-433.5 267q-112 -30 -238 -30q-180 0 -314.5 69t-209 200.5t-74.5 311.5zM500 566q0 -117 30.5 -209t85.5 -151.5t130 -90.5t166 -31q240 0 402 218q92 123 159.5 341.5t67.5 424.5q0 440 -409 440q-196 0 -348 -157 q-40 -41 -79.5 -100.5t-76.5 -138.5t-65.5 -165t-45.5 -185.5t-17 -195.5zM1943.5 211.5q1.5 46.5 12.5 98.5l64 302q34 161 49 253.5t20 189.5l7 7q33 -7 117 -7q38 0 68.5 1.5t41.5 3.5l11 2l1 -7q-34 -90 -59 -185.5t-60 -257.5l-51 -244q-14 -65 -17 -110.5t4 -74.5 t26 -45t43.5 -22t63.5 -6q26 0 55 8t57.5 23t54.5 32t54 39.5t48 40t44 40.5l68 319q23 109 35 170.5t22 133t13 139.5l6 7q33 -7 116 -7q39 0 69.5 1.5t41.5 3.5l12 2l1 -7q-35 -90 -59.5 -185.5t-59.5 -257.5l-30 -140q-54 -251 -59 -472l-6 -7q-46 7 -108 7q-19 0 -86 -7 q-22 0 -20 7l20 157h-5q-117 -102 -210.5 -141.5t-179.5 -39.5q-66 0 -113.5 19t-73.5 50.5t-38 75.5t-10.5 90.5z" />
<glyph unicode="&#xfb00;" horiz-adv-x="1431" d="M-223 -539q33 46 101 202l25 2q25 -85 111 -85q22 0 41 7t33.5 17t29 30t24.5 37t23 48.5t21 53t22 60.5q13 38 27.5 97.5t31.5 144.5t30 154t33 181t31 170l69 366h-162q-8 0 -10 3t0 12l10 45q3 18 20 33.5t47 15.5h117l22 98q12 57 27.5 101t30.5 73.5t43.5 62.5 t49.5 53t66 61q90 80 205.5 121.5t235.5 41.5q33 0 62.5 -7t42.5 -16l1 -7q-40 -51 -111 -202l-28 -2q-29 86 -125 86q-69 0 -127.5 -29t-98 -81t-53.5 -119q-5 -21 -18.5 -95t-22.5 -116l-5 -24h364h74h43l22 98q10 48 21.5 85.5t28 71.5t29.5 57t39 54.5t43.5 50.5 t53.5 57q42 45 91.5 80t102.5 58.5t110 36t115 12.5q17 0 33.5 -2t30 -5t24.5 -7t17 -9l1 -7q-40 -51 -111 -202l-28 -2q-29 86 -125 86q-67 0 -122 -35.5t-88 -91.5t-48 -126q-3 -17 -14.5 -101t-22.5 -135l-6 -24h267q9 0 13 -4.5t2 -11.5l-13 -61q-3 -15 -23 -23.5 t-39 -8.5h-230l-144 -707q-34 -166 -99 -313.5t-138 -232.5q-80 -93 -165.5 -140t-186.5 -47q-65 0 -95 22l-1 8q33 45 101 201l24 3q25 -87 113 -87q19 0 35.5 4.5t31 15.5t25.5 21t23 31t20 36t19.5 44.5t18 47.5t19.5 53q13 38 27.5 98t31.5 144.5t30 154.5t33 181.5 t31 169.5l50 292h-81h-81h-320l-163 -782q-34 -165 -99 -312t-138 -232q-81 -94 -166 -141t-186 -47q-68 0 -96 22z" />
<glyph horiz-adv-x="0" />
<glyph horiz-adv-x="682" />
<glyph unicode=" "  horiz-adv-x="614" />
<glyph unicode="&#x09;" horiz-adv-x="614" />
<glyph unicode="&#xa0;" horiz-adv-x="614" />
<glyph unicode="!" horiz-adv-x="559" d="M163 108l3 10q28 49 64.5 80t95.5 53h10q50 -20 74 -50.5t30 -82.5l-2 -10q-31 -59 -68 -89t-93 -43h-9q-56 13 -79 41.5t-26 90.5zM349 499q1 5 25.5 177.5t37.5 287.5q7 69 10.5 139.5t3.5 114.5t5.5 102.5t18.5 117.5q8 38 23.5 69.5t33.5 51.5t39 33.5t40 19.5t36 6 q54 0 86 -47.5t13 -132.5q-19 -91 -79.5 -245t-85.5 -229q-39 -117 -70 -220.5t-46.5 -161t-18.5 -66.5q-15 -49 -44 -49q-31 0 -28 32z" />
<glyph unicode="&#x22;" horiz-adv-x="825" d="M442 1046q19 393 24 414q6 28 27.5 56t55 47.5t68.5 19.5q44 0 59.5 -24t8.5 -58q-4 -17 -47.5 -128t-85.5 -214l-42 -102zM751 1049q19 392 24 414q10 44 54.5 83t96.5 39q45 0 61 -24t9 -57q-4 -18 -48 -129t-86 -213l-42 -102z" />
<glyph unicode="#" horiz-adv-x="1081" d="M157 450l42 118h223l100 270h-221l46 121h221l154 417h84l-158 -417h274l152 417h82l-156 -417h224l-46 -121h-220l-102 -270h220l-42 -118h-218l-158 -418h-81l153 418h-268l-157 -418h-82l155 418h-221zM504 568h272l100 270h-270z" />
<glyph unicode="$" horiz-adv-x="1081" d="M96 82q55 112 89 208l20 3q26 -101 104.5 -162.5t192.5 -62.5l120 564q-31 14 -56 26.5t-53 29t-50.5 33t-44.5 37.5t-38 42.5t-28.5 48t-18.5 55t-5.5 62.5t8.5 71q16 76 63.5 144t110.5 114t134.5 74.5t140.5 34.5l29 137h84l-29 -137q62 -3 113.5 -14t81 -24t50 -25.5 t27.5 -21.5l7 -9l4 -8q-51 -97 -85 -204l-23 -2q-44 186 -194 217l-110 -509q27 -11 50 -20.5t49.5 -22.5t48 -27t44.5 -30.5t40.5 -35.5t33 -40.5t25.5 -46.5t15.5 -53t4.5 -61t-8 -69q-19 -91 -91.5 -178.5t-174 -149t-209.5 -83.5l-40 -186h-84l37 175h-17q-73 0 -137 10 t-104 24.5t-69.5 28.5t-41.5 24l-12 10zM505 1093q-34 -158 160 -255l102 482q-99 -4 -170.5 -67.5t-91.5 -159.5zM587 78q95 20 165.5 82t92.5 162q7 35 8 65.5t-3.5 54t-15.5 44.5t-24.5 36.5t-32.5 30t-37.5 24.5t-42.5 22z" />
<glyph unicode="%" horiz-adv-x="1564" d="M252 7l1144 1229q-127 -47 -273 -47q-42 0 -98.5 15.5t-87.5 36.5q2 -26 -6 -61q-8 -41 -27.5 -87.5t-47 -95.5t-64.5 -94t-78 -80t-90.5 -56.5t-99.5 -21.5q-44 0 -78 16t-53 42.5t-30.5 61t-10.5 72.5t8 76q15 70 56 140.5t95.5 125.5t122 89.5t132.5 34.5q49 0 93 -19 t58 -42q42 -22 81.5 -35.5t73.5 -18.5t52 -6.5t42 -1.5q60 0 127.5 11t146 43t124.5 80l70 -40l-1306 -1404zM472.5 899q2.5 -31 17 -49.5t30.5 -26t34 -7.5q49 0 100 36t90.5 91t69 117.5t40.5 116.5q8 46 5.5 75t-17.5 46t-31 23t-35 6q-57 0 -122 -57.5t-112.5 -138.5 t-62.5 -153q-9 -48 -6.5 -79zM977.5 162.5q0.5 38.5 7.5 78.5q15 69 55 138.5t94.5 124.5t123 90t134.5 35q26 0 49 -4t46 -14t38.5 -26.5t27 -41t11.5 -58.5t-8 -79q-10 -51 -35 -109t-64 -116t-85 -105t-104.5 -76.5t-116.5 -29.5q-44 0 -78 15.5t-53.5 42t-31 61.5 t-11 73.5zM1099 125q2 -31 16 -49.5t30.5 -26t35.5 -7.5q48 0 99.5 37t91.5 92t69.5 117t40.5 115q9 38 5.5 64.5t-11.5 43.5t-22.5 26t-26.5 12.5t-24 3.5q-43 0 -92.5 -34.5t-90.5 -86.5t-72.5 -113.5t-42.5 -114.5q-8 -48 -6 -79z" />
<glyph unicode="&#x26;" horiz-adv-x="1731" d="M184 242.5q-11 71.5 10 165.5q29 134 161 256t401 258q-82 191 -48 349q12 56 48.5 111.5t92 103t135.5 77t168 29.5q130 0 205 -76t51 -191q-21 -98 -147 -209.5t-306 -203.5l6 -20q20 -56 79.5 -179.5t121.5 -240.5q164 184 251 322.5t130 267.5q23 -7 94 -7 q81 0 108 7q-54 -68 -274 -354t-260 -332l59 -113q37 -76 80.5 -115.5t76.5 -39.5q62 0 112.5 31t102.5 102l34 -20q-66 -122 -144.5 -183.5t-147.5 -61.5q-21 0 -34 0.5t-34 4t-36.5 10t-36 18.5t-37 29t-35.5 43t-36 59l-51 92q-59 -62 -112 -106t-114 -79.5t-129 -53 t-145 -17.5q-81 0 -147.5 14.5t-122 47t-87.5 83t-43 122zM373 289q0 -43 8.5 -75t25.5 -57t39.5 -42t51 -28t59 -16t65.5 -5t67 6t57.5 14t55.5 27.5t49.5 34t52.5 46t52 51t59 62.5q4 4 6 6.5t5.5 6l6.5 6.5q-72 133 -151 298t-91 206q-104 -51 -177.5 -103.5t-119 -108.5 t-70.5 -111t-40 -124q-11 -51 -11 -94zM880 1226q-1 -28 3 -61.5t14 -73.5t26 -81q133 77 218.5 162.5t100.5 152.5q18 82 -14 126.5t-108 44.5q-21 0 -46 -7t-54.5 -24t-55 -41.5t-47 -63t-31.5 -84.5q-5 -22 -6 -50z" />
<glyph unicode="'" horiz-adv-x="466" d="M416 1046q20 393 24 414q10 44 55 83.5t97 39.5q44 0 60 -24t9 -58q-4 -17 -48 -128t-86 -214l-42 -102z" />
<glyph unicode="(" horiz-adv-x="736" d="M209 270.5q-3 75.5 3.5 156t13 118t14.5 74.5q36 167 110.5 331.5t176 306.5t221 263.5t250.5 217.5l47 -45q-32 -29 -57 -53.5t-79.5 -84.5t-98.5 -118.5t-102 -150.5t-103 -187t-89 -221t-72 -259t-37.5 -259t-5 -221t23 -187t37.5 -150.5t47.5 -119.5t43.5 -85.5 t35 -56.5l-66 -42q-86 91 -148 196.5t-95 199.5t-50 197.5t-20 179z" />
<glyph unicode=")" horiz-adv-x="736" d="M-44 -455q32 30 57 54t79.5 84t98.5 119t101.5 150.5t103 186.5t89.5 221t72 259t37.5 259t5 221t-23 187.5t-37.5 151t-47.5 119.5t-43.5 85.5t-35 55.5l65 42q67 -71 120 -151.5t87 -155.5t57 -156.5t34 -149.5t14 -141t1 -125.5t-8.5 -107t-11 -81t-10.5 -53.5 q-36 -167 -110.5 -331t-176 -306t-221 -264t-251.5 -217z" />
<glyph unicode="*" horiz-adv-x="1063" d="M502 1494q3 19 14.5 35t33 27.5t49.5 11.5q29 0 54.5 -13.5t44 -32t48.5 -42t62 -38.5q5 49 -5 122.5t-4 104.5q8 40 35 67.5t60 27.5q35 0 53 -21.5t9 -63.5q-7 -34 -47 -119t-50 -120q49 20 100.5 53.5t88 54t72.5 20.5q23 0 39 -8t21.5 -19.5t8 -24.5t-0.5 -22 q-19 -91 -190 -91q-76 0 -136 -10q16 -24 42 -47t47 -39.5t40 -35t27 -41.5t2 -50q-7 -32 -33 -51.5t-53 -19.5q-28 0 -45.5 16.5t-27 46t-15.5 60.5t-14 69.5t-18 62.5q-22 -27 -47 -67.5t-43.5 -70.5t-40 -58.5t-46 -43.5t-50.5 -15q-21 0 -35.5 9t-20 25t-1.5 34 q8 37 36 66.5t60 47t78.5 46t77.5 56.5q-40 10 -100 10q-48 0 -81.5 4t-59 14t-35.5 28t-4 45z" />
<glyph unicode="+" horiz-adv-x="1294" d="M271 511l25 120h423l91 429h125l-90 -429h422l-25 -120h-424l-90 -427h-126l92 427h-423z" />
<glyph unicode="," horiz-adv-x="540" d="M53 -326q-20 22 1 61q63 15 121.5 52.5t92.5 76t39 65.5q2 15 2.5 25.5t-4.5 17.5t-10 11.5t-14 6.5t-15.5 2.5t-15.5 0.5q-60 14 -83 35t-25 80l1 10q19 33 40.5 56.5t51 42.5t69.5 34h10q33 -13 55.5 -31.5t39 -50t17.5 -74t-10 -102.5q-17 -82 -75.5 -152 t-133.5 -111.5t-154 -55.5z" />
<glyph unicode="-" horiz-adv-x="817" d="M209 580q0 32 31 74t53 42h563q24 0 24 -30q0 -28 -30.5 -73t-55.5 -45h-555q-14 0 -22 9t-8 23z" />
<glyph unicode="." horiz-adv-x="540" d="M156 108l1 10q19 33 41 56.5t51.5 42.5t69.5 34h10q50 -20 74 -50.5t30 -82.5l-2 -10q-31 -59 -68.5 -89t-92.5 -43h-10q-55 13 -78 41.5t-26 90.5z" />
<glyph unicode="/" horiz-adv-x="793" d="M6 -145l950 1733h101l-950 -1733h-101z" />
<glyph unicode="0" horiz-adv-x="1090" d="M203 451q0 132 25 259q34 176 101.5 326.5t150 250.5t176 156t182.5 56q137 0 208 -85q49 -57 83.5 -154.5t34.5 -243.5q0 -121 -26 -256q-21 -105 -51 -199t-65.5 -167t-76.5 -135t-84 -107t-87 -79.5t-87.5 -55t-82 -31t-74.5 -10.5q-82 0 -145.5 35.5t-103 99.5 t-59 149.5t-19.5 190.5zM392 366q0 -295 161 -295q16 0 34 4t47 18t56 37.5t59 67.5t57 102q41 89 69 193.5t63 285.5q39 197 39 337q0 186 -60 248q-35 39 -96 39q-256 0 -391 -697q-38 -189 -38 -340z" />
<glyph unicode="1" horiz-adv-x="1090" d="M502 1222v70q106 32 295 108t260 99q5 0 7 -0.5t5 -1.5t2.5 -3.5t0.5 -6.5q-43 -123 -96 -399l-120 -624q-33 -171 -48.5 -267t-23.5 -197l-5 -7q-66 7 -113 7q-12 0 -27.5 -0.5t-29 -2t-25.5 -2.5t-19 -1l-7 -1l-2 7q52 167 110 464l118 610q35 187 -8 187 q-15 0 -47.5 -4.5t-66 -10.5t-79.5 -13t-81 -11z" />
<glyph unicode="2" horiz-adv-x="1090" d="M162 59q0 33 11 56q20 18 93.5 80t130.5 113t134 123.5t148.5 151t129.5 156.5q129 175 129 402q0 45 -17 85t-44 65.5t-58.5 40t-62.5 14.5q-27 0 -49.5 -2.5t-48 -9t-50.5 -20t-50 -34.5q-47 -39 -79.5 -79.5t-64.5 -96.5l-30 2l-29 170q23 26 49.5 51.5t70 58t89 56.5 t106.5 40.5t122 16.5q44 0 84 -7t73.5 -20t62.5 -32t51.5 -42t40 -50t29 -57t17.5 -62t6 -66q0 -43 -7 -83.5t-16 -73t-27.5 -70t-32.5 -62t-41 -61.5t-42.5 -57.5t-47.5 -59.5q-7 -9 -11 -13q-29 -36 -58.5 -70.5t-68.5 -73.5t-60.5 -61.5t-70.5 -67.5t-60.5 -55.5t-69 -62 t-59.5 -53.5q-16 -15 -24 -23t-17.5 -22.5t-9.5 -25.5q0 -6 1 -8q65 4 192 4q99 0 175 3t116 5.5t113 9.5q6 1 10 1t10 0.5t11 1.5q-7 -18 -24 -96q-6 -27 -6 -101q-280 12 -409 12q-77 0 -145.5 -2t-155 -5t-146.5 -5q-13 31 -13 71z" />
<glyph unicode="3" horiz-adv-x="1090" d="M160 101l84 185l33 2q1 -4 3 -11q11 -43 17 -63t18.5 -49.5t27 -42t37.5 -27t55 -19.5t76 -5q33 0 71.5 9t90.5 39.5t91 77.5q44 53 75 131.5t31 167.5q0 105 -56 163q-39 40 -95.5 59t-116.5 19q-68 0 -98 -5l19 108q49 -7 84 -7q99 0 170.5 46.5t109.5 126.5 q47 98 47 198q0 45 -12.5 83t-33 63t-48 39t-56.5 14q-68 0 -123 -24t-98 -69t-84 -116l-34 2l-23 158l10 8q39 32 90.5 60.5t134 52.5t164.5 24q99 0 172.5 -34.5t110 -93.5t36.5 -135q0 -148 -104 -277q-33 -40 -72.5 -72.5t-79 -53.5t-75.5 -29v-13q117 -12 189 -88.5 t72 -193.5q0 -220 -190 -383q-88 -74 -193.5 -112t-196.5 -38q-213 0 -326 118z" />
<glyph unicode="4" horiz-adv-x="1090" d="M127 413q8 39 49 96q122 161 389 484.5t408 481.5q0 1 2.5 3.5l4.5 4.5l3 1q42 -9 79 -9q19 0 51.5 4.5t42.5 4.5q2 0 2 -9q-46 -150 -84 -364l-120 -624h150q17 0 23.5 -11t2.5 -28q-4 -23 -32.5 -53.5t-51.5 -30.5h-117q-35 -181 -57 -364q0 -2 -2.5 -4.5t-4.5 -2.5 q-9 0 -42 3.5t-54 3.5q-16 0 -44.5 -2t-48.5 -3l-20 -2l-2 7q32 101 48.5 165t42.5 199h-487q-45 0 -74 4t-44.5 15.5t-12.5 29.5zM290 487h479l150 772z" />
<glyph unicode="5" horiz-adv-x="1090" d="M133 120l88 197l35 2q4 -14 13 -40q8 -27 12.5 -40.5t13 -36t15 -33t17 -27.5t21 -25t26 -18t32.5 -14.5t39.5 -8t48.5 -3.5q80 0 149 44.5t118.5 128t71.5 194.5q14 76 14 136q0 128 -56.5 193.5t-152.5 65.5q-51 0 -108 -12t-96.5 -25.5t-102.5 -37.5l-14 7l216 722 q158 -14 266 -14q193 0 390 24l16 -7l-70 -167q-118 -15 -251 -15q-138 0 -294 22l-135 -434q43 14 119 25t146 11q66 0 121.5 -18t95.5 -49.5t68 -75t41.5 -95.5t13.5 -110q0 -53 -11 -105q-28 -143 -112 -258.5t-207 -181t-261 -65.5q-204 0 -329 137z" />
<glyph unicode="6" horiz-adv-x="1090" d="M199 391q0 99 22 207q36 182 132.5 349.5t248.5 300.5q144 125 290.5 183.5t333.5 69.5l-7 -68q-132 -14 -239.5 -55.5t-210.5 -127.5q-105 -89 -189 -217t-132 -281q34 36 90 65.5t114 46t105 16.5q85 0 150.5 -23t103 -58t61 -83.5t31.5 -92.5t8 -91q0 -55 -7 -89 q-11 -57 -35.5 -116.5t-69 -123t-102.5 -112.5t-143 -81t-184 -32q-51 0 -98.5 10t-98.5 38.5t-88.5 73t-61.5 119.5t-24 172zM386 372q0 -72 14 -127.5t36.5 -88.5t53 -54t60 -28.5t62.5 -7.5q35 0 67.5 11t65 37.5t59 67t50 102.5t38.5 141q12 54 12 115q0 37 -5.5 69.5 t-20.5 65t-38.5 55.5t-62.5 37t-89 14q-15 0 -25.5 -0.5t-29 -2.5t-34.5 -5.5t-37.5 -11t-41.5 -18t-44 -26.5t-46 -37q-4 -12 -20 -90q-24 -121 -24 -218z" />
<glyph unicode="7" horiz-adv-x="1090" d="M286 -17q297 480 776 1307q-102 5 -325.5 0t-342.5 -22q26 81 33 120q3 13 4 27t1.5 24.5t1 26t0.5 26.5q115 -17 659 -17q81 0 155 24l35 -24q-65 -110 -123.5 -211t-116.5 -204t-98.5 -175t-96.5 -176t-82 -152t-83.5 -158t-71.5 -137.5t-76.5 -147.5t-70.5 -136 l-174 -10z" />
<glyph unicode="8" horiz-adv-x="1090" d="M163 270q0 45 9 89q9 48 35 99t68.5 102t97.5 94q130 103 199 150l-42 34q-148 121 -148 277q0 30 7 65q28 144 147 231.5t297 87.5q153 0 239 -68.5t86 -180.5q0 -31 -5 -58q-33 -174 -332 -357l125 -105q147 -125 147 -280q0 -34 -7 -70q-14 -71 -60.5 -141.5 t-117 -129t-171 -95t-211.5 -36.5q-168 0 -265.5 75.5t-97.5 216.5zM348 277q0 -57 18 -101t47.5 -68.5t63.5 -36.5t71 -12q38 0 72 4.5t77.5 21.5t77 45t62.5 79t43 120q6 36 6 65q0 78 -37 149t-115 123l-96 64q-47 -29 -87 -61.5t-67 -60.5t-49 -60.5t-34.5 -56 t-22.5 -52t-14 -44t-8 -36.5q-8 -42 -8 -82zM560 1144q0 -113 120 -206l65 -44q32 21 65.5 50t69.5 68t63 87t35 95q6 30 6 54q0 49 -17.5 86t-59 60.5t-103.5 23.5q-52 0 -94 -16.5t-70 -46t-46 -66.5t-26 -82q-8 -41 -8 -63z" />
<glyph unicode="9" horiz-adv-x="1090" d="M192 -28l7 70q134 13 241 54t209 127q105 89 189.5 218t132.5 281q-34 -35 -90 -64.5t-114.5 -46t-105.5 -16.5q-85 0 -150 23t-102.5 58t-61.5 83.5t-32 92.5t-8 91q0 55 7 89q12 57 36 116.5t68.5 123t102.5 112.5t143.5 80.5t183.5 31.5q31 0 61 -4t62.5 -12.5 t62 -24.5t58 -38t51.5 -54t40 -72t26.5 -93t9.5 -114q0 -93 -23 -207q-36 -183 -132 -351t-248 -300q-144 -126 -290.5 -184.5t-333.5 -69.5zM514 935q0 -37 5.5 -69.5t20 -65t38 -55.5t62.5 -37t90 -14q27 0 48 2t57 10.5t75 31t78 56.5q7 24 20 90q24 122 24 219 q0 52 -7.5 95.5t-19.5 74.5t-30 55t-37.5 39t-42.5 24.5t-44.5 13.5t-44.5 4q-44 0 -84.5 -19t-78 -59.5t-68.5 -112t-49 -169.5q-12 -54 -12 -114z" />
<glyph unicode=":" horiz-adv-x="540" d="M198 228l2 11q29 49 65.5 79.5t95.5 52.5h10q50 -20 74 -50t30 -82l-1 -11q-31 -59 -68 -89t-93 -43h-9q-56 13 -79.5 42t-26.5 90zM336 875l2 9q29 50 65.5 81t95.5 53h10q33 -14 54.5 -31.5t33.5 -42.5t16 -60l-2 -9q-32 -59 -69 -90t-92 -43h-10q-37 8 -58.5 23.5 t-32.5 41.5t-13 68z" />
<glyph unicode=";" horiz-adv-x="540" d="M53 -326q-20 22 1 61q63 15 121.5 52.5t92.5 76t39 65.5q2 15 2.5 25.5t-4.5 17.5t-10 11.5t-14 6.5t-15.5 2.5t-15.5 0.5q-60 14 -83 35t-25 80l1 10q19 33 40.5 56.5t51 42.5t69.5 34h10q33 -13 55.5 -31.5t39 -50t17.5 -74t-10 -102.5q-17 -82 -75.5 -152 t-133.5 -111.5t-154 -55.5zM311 875l2 9q29 50 65.5 81t95.5 53h10q49 -20 73.5 -51t30.5 -83l-1 -9q-32 -59 -69 -90t-92 -43h-10q-55 12 -79 41.5t-26 91.5z" />
<glyph unicode="&#x3c;" horiz-adv-x="1196" d="M233 528l25 119l1032 345l-26 -122l-839 -283l719 -285l-27 -122z" />
<glyph unicode="=" horiz-adv-x="1294" d="M238 354l25 120h971l-26 -120h-970zM302 661l27 120h971l-27 -120h-971z" />
<glyph unicode="&#x3e;" horiz-adv-x="1196" d="M157 174l27 124l838 282l-717 285l25 123l884 -350l-25 -117z" />
<glyph unicode="?" horiz-adv-x="994" d="M328 108l2 10q19 33 40.5 56.5t51 42.5t69.5 34h9q50 -20 74.5 -50.5t30.5 -82.5l-1 -10q-32 -59 -69.5 -89t-92.5 -43h-10q-55 13 -78.5 41.5t-25.5 90.5zM415 1457l10 11q25 17 54 35t73.5 40t89 38.5t99 27.5t105.5 11q187 0 275 -101.5t51 -270.5q-8 -40 -25 -78.5 t-36 -68t-49.5 -61t-53.5 -52t-60.5 -47.5t-58.5 -40.5t-60 -37.5q-119 -77 -153 -124q-63 -86 -82 -179l-24 -108q-5 -25 -37 -25q-15 0 -22 6.5t-5 18.5l24 113q9 42 16.5 69t26 73.5t43 83t66.5 83t97 87.5q63 49 101.5 88t65.5 86t39 103q26 121 -26 202.5t-156 81.5 q-168 0 -352 -232l-31 2z" />
<glyph unicode="@" horiz-adv-x="2198" d="M238.5 332q1.5 104 23.5 216q20 98 61 193t97.5 179.5t128 161.5t153 141t174.5 116t190 87.5t200.5 55t205.5 19.5q112 0 212.5 -20.5t182 -59t148.5 -93.5t111.5 -123.5t71.5 -149.5t28.5 -172t-17.5 -189q-13 -62 -37 -123t-62.5 -124t-88 -118t-117 -104t-146 -84 t-178.5 -55t-212 -20q-25 0 -41.5 10t-22 25.5t-7 33t3.5 32.5q9 40 69 155l-3 2q-102 -127 -205 -190t-176 -63q-50 0 -91 11.5t-67 31t-44 46t-26.5 54.5t-11.5 58.5t-1.5 55.5t6.5 48q22 102 77 200t129.5 174.5t160 135.5t174.5 90.5t166 31.5q63 0 111 -29.5t56 -76.5 l24 59l138 31l33 -12l-282 -633q-62 -143 -67 -165q-3 -15 6 -22.5t16 -7.5q78 0 142 15.5t123.5 52t105.5 95.5t84 149.5t63 211.5q33 151 11 272t-79.5 211t-143 150t-179.5 89.5t-188 29.5q-82 0 -165 -15.5t-168 -48.5t-164.5 -81t-153 -117t-133.5 -152.5t-107 -191.5 t-73 -229q-17 -83 -23 -166.5t3 -173t34.5 -169.5t76.5 -152.5t122 -125t177.5 -83t238.5 -30.5q153 0 281.5 40.5t247.5 121.5l22 -45q-73 -48 -131.5 -79.5t-134.5 -61t-162 -44t-187 -14.5q-124 0 -233.5 24.5t-195.5 70t-156 110t-114.5 144.5t-70.5 174t-24.5 198z M935 398q-49 -226 144 -226q64 0 164 92t186 228q44 68 83 147.5t52 136.5q10 46 -4 81.5t-46.5 54.5t-77.5 19q-42 0 -111.5 -24t-129.5 -74q-203 -167 -260 -435z" />
<glyph unicode="A" horiz-adv-x="1555" d="M43 -7q647 967 1071 1625h68q35 -170 87.5 -442.5t92.5 -483t82 -412.5t66 -287q-41 7 -146 7q-81 0 -124 -7q-15 218 -71 569q-139 3 -287 3q-178 0 -318 -3q-234 -378 -325 -569q-28 7 -108 7q-57 0 -88 -7zM637 678q23 0 119 -2.5t137 -2.5q134 0 257 4 q-55 313 -120 606h-5q-39 -61 -117 -181.5t-145.5 -226t-125.5 -197.5z" />
<glyph unicode="B" horiz-adv-x="1454" d="M228 0q60 165 130 492l128 601q67 312 79 492l7 7q40 -7 124 -7q58 0 149.5 3.5t131.5 3.5q74 0 136 -7.5t107 -20.5t80.5 -33.5t58 -42t38 -49.5t22.5 -54t9.5 -58t1 -57.5t-5.5 -57.5q-9 -75 -59 -143.5t-118 -114t-144 -70.5l6 -12q304 -92 304 -357q0 -30 -4 -63 q-10 -75 -36 -139.5t-77.5 -124.5t-125 -102.5t-183.5 -67.5t-247 -25q-117 0 -216.5 3.5t-164.5 3.5q-39 0 -71 -2t-46 -3l-13 -2zM510 216q-3 -14 -3 -26q0 -42 36 -62q46 -26 173 -27q101 0 175.5 15.5t121 40.5t77 66t44 82.5t22.5 100.5q7 67 7 127t-19 110t-53.5 85.5 t-95.5 55.5t-145 20h-215zM659 912h176q105 0 180.5 26.5t125 87.5t64.5 156q6 48 7 86v8q0 34 -8 60q-8 30 -19 53t-30 39.5t-38.5 27t-44.5 17t-49 9t-51 2.5q-36 0 -63.5 -1t-48.5 -4.5t-35.5 -6.5t-25.5 -11t-17 -13t-11 -18t-7 -21t-6 -26q-1 -6 -2 -9z" />
<glyph unicode="C" horiz-adv-x="1597" d="M236 636q4 74 20 148q30 142 99 272t164.5 231t209 176t239 115t249.5 40q84 0 165 -11.5t136.5 -28t99.5 -33t65 -28.5l21 -11l4 -7q-13 -28 -34 -73.5t-29 -64t-20.5 -54.5t-24.5 -81l-30 -2q-43 148 -143 212.5t-270 64.5q-64 0 -134 -22t-147.5 -74t-145 -128 t-124.5 -194.5t-88 -261.5q-20 -93 -24 -179q-1 -26 -1 -51q-1 -59 7 -116q10 -81 41 -148.5t78.5 -118.5t120.5 -79t166 -28q173 0 293 50.5t279 192.5l54 -46q-314 -322 -674 -322q-97 0 -181 18.5t-148 52t-115.5 80.5t-86 104.5t-57.5 122.5q-22 64 -30 136q-5 48 -5 97 q0 25 1 49z" />
<glyph unicode="D" horiz-adv-x="1675" d="M223 0q60 165 130 492l128 601q67 312 79 492l6 7q41 -7 125 -7q77 0 196.5 3.5t196.5 3.5q99 0 189 -22t162.5 -63t132 -99t98.5 -130t62 -155.5t23 -175t-19 -190.5q-21 -98 -55 -185t-76 -155t-94 -126t-107.5 -100.5t-117.5 -76.5t-123.5 -56t-126.5 -36.5 t-124.5 -20.5t-119.5 -6q-137 0 -248.5 2.5t-185.5 2.5q-38 0 -70.5 -2t-45.5 -3l-14 -2zM497 166.5q-1 -12.5 5 -25.5t20 -18.5t42 -11t68 -7t102 -1.5q79 0 145 7t133.5 24.5t122.5 46.5t107 75t93 107t74.5 146t55.5 189q18 85 26 163q5 48 5 97q0 30 -2 61 q-5 80 -24 147.5t-59 127t-98.5 101t-146.5 65.5t-199 24q-50 0 -82 -3t-61.5 -13t-46 -30t-22.5 -52l-252 -1184q-5 -23 -6 -35.5z" />
<glyph unicode="E" horiz-adv-x="1282" d="M211 0q60 165 130 492l127 601q69 321 80 492l6 7q40 -7 124 -7h647q87 0 149 7l3 -7q-3 -13 -8.5 -29.5t-8.5 -27.5t-4 -20q-7 -27 -9 -63l-7 -10q-333 30 -661 30q-19 -38 -53 -172.5t-47 -199.5l-42 -201q70 0 134 1t103.5 2t95 4.5t74 5t77 6.5t69.5 6l6 -7 q-14 -33 -22 -70q-8 -32 -8 -68l-8 -8q-77 8 -187.5 14t-201 8t-155.5 2l-62 -296q-56 -281 -56 -349v-10q146 0 320.5 7.5t275.5 14.5l102 7l4 -10q-14 -37 -23 -81q-2 -11 -3.5 -20.5t-3 -23.5t-3.5 -27l-7 -7q-58 7 -145 7h-671q-38 0 -70.5 -2t-45.5 -3l-14 -2z" />
<glyph unicode="F" horiz-adv-x="1171" d="M216 0q60 165 130 492l127 601q68 321 80 492l6 7q41 -7 125 -7h638q95 0 156 7l4 -7q-19 -68 -20 -77q-8 -35 -10 -63l-7 -10q-333 30 -661 30q-20 -37 -52.5 -170.5t-46.5 -201.5l-43 -201q70 0 134 1t103.5 2t95 4.5t74 5t77 6.5t69.5 6l6 -7q-14 -33 -23 -70 q-7 -32 -7 -68l-8 -8q-113 12 -274.5 18t-268.5 6l-63 -296q-69 -320 -81 -492l-6 -7q-39 7 -123 7q-39 0 -71 -2t-46 -3l-13 -2z" />
<glyph unicode="G" horiz-adv-x="1672" d="M264 779q28 133 80.5 249.5t123.5 208.5t159 164t188.5 119.5t211.5 72.5t228 25q84 0 165.5 -11.5t137 -28t99.5 -33t65 -28.5l22 -11l3 -7q-12 -28 -33 -73.5t-29 -64t-20.5 -54.5t-25.5 -81l-25 -2q-43 150 -134 213.5t-258 63.5q-166 0 -306.5 -78t-242 -231 t-146.5 -364q-14 -62 -19 -125q-3 -42 -3 -84q0 -22 1 -43q2 -64 16.5 -124t38 -115t61.5 -100t87.5 -78t117 -51.5t147.5 -18.5q55 0 99 3.5t90.5 13t88.5 29t79 47.5l23 106l6 33l24 124.5t18.5 103t16.5 110t9 96.5l7 7q40 -7 124 -7q38 0 70.5 1.5t45.5 3.5l13 2l2 -7 q-35 -95 -59.5 -184.5t-54.5 -233.5l-4 -15q-10 -43 -10 -72.5t10 -45.5l-1 -7q-157 -111 -314.5 -166t-362.5 -55q-104 0 -195 22t-162 63t-127 97.5t-92 126t-55 149.5q-19 77 -19 162q0 90 20 183z" />
<glyph unicode="H" horiz-adv-x="1695" d="M228 0q60 165 130 492l128 601q67 312 79 492l7 7q40 -7 124 -7q18 0 34.5 0.5t29 1t23.5 1.5t18.5 1.5t13 1.5t8.5 1h3v-7q-56 -150 -129 -492l-43 -201h767l43 201q67 312 79 492l7 7q40 -7 124 -7q38 0 70.5 2t45.5 4l14 1v-7q-56 -150 -129 -492l-128 -601 q-67 -312 -79 -492l-8 -7q-39 7 -123 7q-18 0 -34.5 -0.5t-29 -1t-24 -1.5t-19 -1.5t-13 -1t-7.5 -1.5h-3v7q57 157 129 492l63 296h-767l-63 -296q-67 -312 -79 -492l-8 -7q-39 7 -123 7q-39 0 -71 -2t-46 -3l-13 -2z" />
<glyph unicode="I" horiz-adv-x="720" d="M236 0q57 157 129 492l128 601q67 312 79 492l8 7q39 -7 123 -7q39 0 71 2t46 4l13 1v-7q-55 -150 -129 -492l-128 -601q-67 -312 -79 -492l-7 -7q-40 7 -124 7q-38 0 -70.5 -2t-45.5 -3l-14 -2v7z" />
<glyph unicode="J" horiz-adv-x="763" d="M-178 -394q40 52 108 202l28 2q31 -85 126 -85q40 0 76 17.5t62.5 45t50.5 70.5t40 84.5t32 97t25 97.5t20 97l167 859q63 326 72 492l6 7q40 -7 123 -7q39 0 71.5 2t45.5 4l13 1l1 -7q-56 -167 -120 -492l-157 -805q-29 -146 -57 -227t-71 -144.5t-129 -152.5 q-181 -186 -426 -186q-75 0 -105 21z" />
<glyph unicode="K" horiz-adv-x="1491" d="M236 0q57 157 129 492l128 601q67 312 79 492l8 7q39 -7 123 -7q39 0 71 2t46 4l13 1v-7q-55 -150 -129 -492l-52 -247h4q35 0 64 22l98 74q105 81 220.5 191.5t247 244t220.5 214.5q30 -7 119 -7q86 0 127 7q-275 -203 -833 -722v-5l541 -872q-45 7 -150 7 q-111 0 -154 -7q-64 106 -167.5 294t-181 324t-111.5 180q-8 8 -25 13t-25 5h-3l-67 -317q-67 -312 -79 -492l-7 -7q-40 7 -124 7q-38 0 -70.5 -2t-45.5 -3l-14 -2v7z" />
<glyph unicode="L" horiz-adv-x="1243" d="M228 0q60 165 130 492l128 601q63 296 77 492l7 7q42 -7 126 -7q18 0 34.5 0.5t29 1t23.5 1.5t18.5 1.5t13 1.5t8.5 1h3v-7q-56 -150 -129 -492l-128 -601q-1 -2 -2 -8q-55 -276 -55 -343v-8q147 0 309.5 13.5t251.5 27.5l90 13l2 -11q-12 -31 -21 -80q-3 -13 -6 -47 t-5 -49l-6 -7q-58 7 -147 7h-621q-38 0 -70 -2t-46 -3l-14 -2z" />
<glyph unicode="M" horiz-adv-x="2046" d="M124 -7q394 1067 573 1634h64q42 -155 101.5 -403t115 -461.5t118.5 -402.5l903 1267h55q-16 -172 -54 -533t-61.5 -611.5t-40.5 -489.5q-34 7 -121 7q-84 0 -122 -7q4 29 25 193t27 208.5t22.5 177t24 203.5t18.5 176t20 199q-196 -259 -373 -519.5t-418 -630.5h-47 q-28 109 -89 352t-110 430.5t-101 363.5q-13 -38 -55.5 -167.5t-61.5 -188.5t-56.5 -175t-59 -186t-48.5 -159t-45 -156.5t-29 -120.5q-25 7 -81 7q-66 0 -94 -7z" />
<glyph unicode="N" horiz-adv-x="1597" d="M174 0q121 232 193 565l114 528q63 297 79 492l6 7q42 -7 76 -7l60 5l536 -1091q57 -113 85 -114h1q19 0 30 53l115 533q93 433 163 614l6 7q25 -7 85 -7q11 0 22 0.5t19.5 1t16 1.5t13 1.5t9.5 1.5t6 1h2l1 -7q-141 -276 -214 -614l-196 -919q-16 -76 -68 -76 q-19 0 -37 7t-32.5 20t-23.5 32l-553 1083q-5 9 -12 24q-10 19 -14 27t-10 17t-7.5 11.5t-5.5 2.5t-5 -3t-4.5 -13t-5 -18.5t-5.5 -28.5q-2 -11 -3.5 -17.5t-4 -18.5t-4.5 -22l-109 -514q-84 -395 -144 -565l-6 -7q-25 7 -85 7q-25 0 -47 -2t-31 -3l-10 -2z" />
<glyph unicode="O" horiz-adv-x="1698" d="M242 557q0 135 32 263.5t88 235.5t127 195t155 159q119 99 257.5 153.5t285.5 54.5q280 0 441.5 -160.5t161.5 -435.5q0 -104 -21 -209t-57 -194t-83.5 -171t-99 -145t-106.5 -111q-118 -105 -266 -160.5t-317 -55.5q-180 0 -314.5 69t-209 200.5t-74.5 311.5zM500 566 q0 -117 30.5 -209t85.5 -151.5t130 -90.5t166 -31q240 0 402 218q92 123 159.5 341.5t67.5 424.5q0 440 -409 440q-196 0 -348 -157q-40 -41 -79.5 -100.5t-76.5 -138.5t-65.5 -165t-45.5 -185.5t-17 -195.5z" />
<glyph unicode="P" horiz-adv-x="1282" d="M228 0q60 165 130 492l128 601q67 312 79 492l7 7q40 -7 124 -7q38 0 165 8.5t158 8.5q94 0 169.5 -16.5t124.5 -43.5t84 -64.5t53 -75.5t26 -82q8 -41 8 -76q0 -36 -7 -74q-10 -66 -41 -134t-89 -136t-135 -120.5t-188.5 -85.5t-239.5 -33q-63 0 -100 5.5t-77 18.5 l-38 -193q-69 -343 -79 -492l-8 -7q-39 7 -123 7q-39 0 -71 -2t-46 -3l-13 -2zM628 776q41 -24 164 -24q185 0 295.5 90t142.5 284q11 66 11 120.5t-8 95t-25.5 71.5t-40 51t-52 32.5t-61.5 17.5t-70 5q-44 0 -76.5 -3t-55.5 -9.5t-38 -14.5t-25 -21.5t-15 -26.5t-10 -33z " />
<glyph unicode="Q" horiz-adv-x="1722" d="M242 557q0 135 32 263.5t88 235.5t127 195t155 159q119 99 257.5 153.5t285.5 54.5q280 0 441.5 -160.5t161.5 -435.5q0 -104 -21 -209t-57 -194t-83.5 -171t-99 -145t-106.5 -111q-43 -38 -92 -71q29 -18 101 -67t127 -84.5t143 -81.5t175 -78l-4 -14 q-183 -87 -260 -140q-79 50 -138 97.5t-91.5 79t-99 81t-161.5 105.5q-133 -43 -283 -43q-180 0 -314.5 69t-209 200.5t-74.5 311.5zM500 566q0 -117 30.5 -209t85.5 -151.5t130 -90.5t166 -31q240 0 402 218q92 123 159.5 341.5t67.5 424.5q0 440 -409 440 q-196 0 -348 -157q-40 -41 -79.5 -100.5t-76.5 -138.5t-65.5 -165t-45.5 -185.5t-17 -195.5z" />
<glyph unicode="R" horiz-adv-x="1422" d="M228 0q60 165 130 492l128 601q67 312 79 492l7 7q40 -7 124 -7q38 0 154 8.5t145 8.5q75 0 142 -11t128 -37.5t104.5 -66t69.5 -100.5t26 -138q0 -93 -33.5 -162t-94.5 -141q-49 -58 -125 -101t-144 -64t-142 -32q66 -89 171 -258q84 -136 193 -283t170 -208l-7 -7 q-48 7 -126 7q-123 0 -171 -7q-100 174 -254 421q-156 255 -217 324h-63l-53 -246q-68 -327 -79 -492l-8 -7q-39 7 -123 7q-39 0 -71 -2t-46 -3l-13 -2zM644 847h106q148 0 233.5 19.5t142.5 79.5q30 31 45 51t31.5 55.5t22.5 83.5t6 118q0 67 -21.5 117.5t-58.5 79 t-80.5 42t-93.5 13.5q-52 0 -88 -5t-58.5 -12.5t-36.5 -22t-20.5 -29.5t-11.5 -39z" />
<glyph unicode="S" horiz-adv-x="1191" d="M110 94q71 149 101 241l25 2q28 -115 120.5 -185t223.5 -70q31 0 66.5 7.5t73.5 22.5t74.5 39.5t67 55.5t54 73.5t33.5 90.5q10 45 11 83v11q0 32 -5 57q-6 29 -20 54.5t-30.5 43.5t-42.5 35t-49.5 29t-56.5 26q-35 15 -62.5 27.5t-61 29.5t-60 33.5t-55 37t-49.5 43 t-41 48t-32 54.5q-11 29 -19 61q-7 28 -7 61v9q1 38 10 78q19 85 63 157t101.5 120.5t127 82.5t138 50t134.5 16q61 0 114.5 -6.5t89.5 -16t65.5 -21.5t46.5 -24t29 -22t16 -16l4 -6l4 -7q-61 -117 -100 -235l-25 -3q-14 60 -35.5 105t-55 80.5t-83 54t-113.5 18.5 q-63 0 -130.5 -33t-119.5 -94t-68 -133q-5 -26 -5 -51q-1 -30 7 -58q14 -51 41 -83.5t72 -62.5t74 -43.5t69 -29.5q35 -13 64 -26t63 -30.5t60.5 -35.5t53.5 -41.5t46.5 -49t35.5 -57.5q15 -32 23 -67q7 -33 7 -72q1 -4 1 -6q0 -42 -11 -89q-18 -87 -63.5 -164t-109.5 -134 t-142 -99t-163 -63t-170 -21q-84 0 -158 11.5t-120 27.5t-80 32.5t-49 27.5l-14 11z" />
<glyph unicode="T" horiz-adv-x="1326" d="M338 1421q22 60 36 164l6 7q58 -7 146 -7h949q87 0 149 7l3 -7q-31 -112 -35 -164l-7 -10q-18 3 -53.5 8t-162.5 13t-273 8q-20 -38 -50.5 -160.5t-43.5 -186.5l-128 -601q-33 -151 -53 -272t-27 -220l-7 -7q-40 7 -123 7q-39 0 -71.5 -2t-45.5 -3l-13 -2l-1 7 q59 165 129 492l129 601q54 273 54 339v8q-146 0 -272 -7t-178 -15l-53 -7z" />
<glyph unicode="U" horiz-adv-x="1599" d="M314 427q3 71 21 153l109 513q67 312 79 492l7 7q40 -7 124 -7q38 0 70.5 2t45.5 4l14 1l1 -7q-58 -158 -130 -492l-92 -432q-1 -4 -4 -15q-10 -47 -16 -77.5t-12 -93.5q-3 -36 -4 -66q1 -23 3 -41q4 -44 21.5 -98t51 -88t93.5 -57.5t142 -23.5q67 0 126 11t105 29.5 t86 49t69 61.5t54.5 74.5t42.5 81.5t33 89t25.5 90.5t20.5 92.5l88 413q69 321 80 492l6 7q26 -7 86 -7q11 0 22 0.5t19.5 1t16 1.5t12.5 1.5t9 1.5t6 1h2v-7q-55 -150 -128 -492l-79 -368q-21 -98 -46 -180t-61 -160t-80.5 -139t-103.5 -113t-130.5 -85.5t-162 -52.5 t-196.5 -19q-39 0 -76.5 4t-78.5 14.5t-77.5 26.5t-71 41.5t-61.5 58.5t-46.5 79t-28.5 101q-7 41 -7 91q0 16 1 35z" />
<glyph unicode="V" horiz-adv-x="1476" d="M378 1592q41 -7 145 -7q94 0 137 7q37 -525 200 -1267h5q180 279 371.5 632.5t325.5 634.5q28 -7 122 -7q56 0 87 7q-197 -294 -519 -835.5t-476 -780.5h-68q-40 193 -114 576.5t-129.5 657t-86.5 382.5z" />
<glyph unicode="W" horiz-adv-x="2218" d="M383 1592q41 -7 146 -7q88 0 131 7q38 -544 203 -1290h5q38 60 78.5 125.5t89 146t79.5 132t90.5 151.5t82.5 138q-86 479 -119 597q41 -7 146 -7q101 0 144 7q1 -7 3.5 -70.5t6.5 -127.5t15.5 -181t28 -238t46.5 -291t68 -347h5q75 117 159.5 265.5t141 253t145 284 t113.5 231.5t106 221q27 -7 121 -7q64 0 95 7q-123 -183 -256 -405.5t-233 -400.5t-232.5 -404t-248.5 -406h-68q-49 236 -156 845l-538 -845h-68q-35 167 -88.5 440.5t-93.5 481.5t-82 408.5t-66 285.5z" />
<glyph unicode="X" horiz-adv-x="1402" d="M55 -7q368 415 733 819q-119 300 -332 780q41 -7 137 -7t141 7q47 -174 219 -598q134 148 203.5 227.5t139 165.5t158.5 205q26 -7 102 -7t105 7q-39 -41 -120 -127t-156 -165.5t-182 -195.5t-205 -224q19 -47 145.5 -356.5t216.5 -530.5q-44 7 -141 7q-98 0 -144 -7 q-121 395 -240 702q-327 -376 -573 -702q-26 7 -102 7t-105 -7z" />
<glyph unicode="Y" horiz-adv-x="1452" d="M378 1592q41 -7 138 -7q98 0 142 7q27 -90 62 -193.5t62.5 -177t73.5 -195t72 -190.5q361 425 590 756q28 -7 102 -7q71 0 104 7q-90 -104 -211.5 -243.5t-185.5 -213t-139 -161.5t-125.5 -151.5t-91.5 -120.5q-115 -568 -132 -709q-39 7 -126 7t-127 -7q47 151 162 683 q-32 83 -106 271t-153.5 382.5t-110.5 262.5z" />
<glyph unicode="Z" horiz-adv-x="1483" d="M62 2q20 20 48 52l35 40l1189 1329q8 9 9.5 15.5t-1.5 10t-9 3.5q-135 0 -269 -4t-316.5 -11.5t-297.5 -10.5l-2 7q11 30 21 81q4 17 11 70l6 8q58 -7 149 -8h795q59 0 171 5.5t143 10.5q14 0 10 -16q-3 -17 -22 -41t-68 -78q-8 -9 -12 -13l-1142 -1276q-16 -17 -22 -43 q66 0 153 1.5t174 4t177 5t167 5.5t137.5 5.5t95.5 3.5l35 2l3 -8q-11 -30 -21 -81q-4 -17 -11 -71l-6 -7q-58 7 -173 7h-893l-259 -7z" />
<glyph unicode="[" horiz-adv-x="886" d="M170 -472l467 2200h529l-15 -74q-67 -5 -114.5 -10t-89 -13.5t-68 -17.5t-49.5 -26t-36.5 -33.5t-26 -45.5t-20 -57t-16.5 -72l-319 -1501q-10 -45 -14.5 -73t-4.5 -57t6 -45.5t22 -33.5t38.5 -26t60.5 -18.5t83 -14.5t111 -11l-16 -71h-528z" />
<glyph unicode="\" horiz-adv-x="717" d="M391 1716h121l176 -1834h-120z" />
<glyph unicode="]" horiz-adv-x="886" d="M-12 -472l16 74q67 4 114.5 9t88.5 14t67.5 18t50 26t36.5 33.5t25.5 45.5t20 57t17.5 73l319 1501q9 45 13.5 72.5t4.5 56.5t-6 45.5t-21.5 33.5t-38.5 26t-60.5 18t-83 14.5t-111.5 10.5l16 72h528l-468 -2200h-528z" />
<glyph unicode="^" horiz-adv-x="1272" d="M456 851l472 746h103l150 -746h-111l-124 606l-380 -606h-110z" />
<glyph unicode="_" horiz-adv-x="1194" d="M-68 -378l22 108h1173l-23 -108h-1172z" />
<glyph unicode="`" horiz-adv-x="962" d="M584 1639l11 28q89 56 172 56q17 0 36 -5l105 -309q9 -30 3 -60q-2 -10 -15 -18.5t-27 -8.5q-20 0 -61 50z" />
<glyph unicode="a" horiz-adv-x="1164" d="M148 288q0 93 31.5 191.5t83.5 183.5t119.5 161.5t139 130.5t143 85.5t129.5 31.5q130 0 196 -8q10 -2 29 -2q28 0 74 4q77 6 84 6l-174 -732q-20 -88 -20 -158q0 -39 19.5 -59t52.5 -20q54 0 117 17l5 -7v-64q-32 -17 -47 -24t-50 -21.5t-68.5 -21t-68.5 -6.5 q-29 0 -55 7t-48.5 21.5t-35.5 40.5t-13 61q0 41 18 115l31 128l-5 5q-32 -48 -54 -79.5t-51.5 -71.5t-52 -65t-50.5 -54t-53 -46.5t-54 -32.5t-59 -22t-63 -7q-59 0 -104.5 19.5t-72.5 50t-44 73.5t-23 83.5t-6 85.5zM349 326q0 -106 27 -157t88 -51q40 0 112 58t153 157.5 t139 205.5q27 70 48.5 171.5t29.5 168.5l8 67q-65 25 -152 25q-81 0 -165 -64.5t-146 -160t-102 -209.5t-40 -211z" />
<glyph unicode="b" horiz-adv-x="1206" d="M156 0q3 5 13.5 23t13.5 24t11 22.5t12 28.5t10 32.5t11 43.5l215 1010q73 348 78 477l6 8q121 9 228 47q21 0 15 -25q-68 -205 -122 -462l-60 -286q80 71 151.5 103.5t156.5 32.5q70 0 133.5 -25.5t112.5 -72t78 -117t29 -155.5q0 -108 -31 -210t-83 -180.5t-119 -144.5 t-140.5 -108.5t-146.5 -66t-136 -23.5q-138 0 -244 110q-21 -32 -55.5 -64t-63.5 -50q-45 0 -73 28zM428 199q19 -32 43.5 -57t58.5 -41.5t70 -16.5q120 0 218.5 77.5t155 212.5t56.5 297q0 125 -59 200t-153 75q-16 0 -36 -3t-55.5 -11.5t-78 -31.5t-83.5 -58z" />
<glyph unicode="c" horiz-adv-x="969" d="M188 382q0 154 55 280t147 221q89 93 197.5 144.5t209.5 51.5q81 0 156.5 -19t120.5 -50l5 -7l-96 -201l-27 -3q-26 86 -73.5 133.5t-110.5 47.5q-66 0 -128.5 -42.5t-114.5 -121.5q-32 -51 -59 -116t-45 -148t-18 -161q0 -138 61 -215.5t161 -77.5q44 0 81.5 8t84 31.5 t94.5 64.5h9l31 -52q-57 -62 -115.5 -100.5t-118.5 -56t-127 -17.5q-171 0 -275.5 109.5t-104.5 296.5z" />
<glyph unicode="d" horiz-adv-x="1213" d="M180 370q0 173 75 315.5t195 242.5q184 151 410 151q41 0 101 -15.5t95 -38.5l34 159q75 355 79 477l6 8q70 5 116 15.5t103 31.5q23 0 17 -25q-54 -172 -115 -462l-161 -757q-61 -288 -61 -411q0 -27 5 -61l-6 -7q-47 7 -108 7q-15 0 -82 -7q-7 0 -11.5 2t-3.5 5 q2 94 10 157h-7q-179 -181 -345 -181q-150 0 -248 110t-98 284zM401 374q0 -134 58.5 -200t157.5 -66q39 0 83.5 20.5t92 58t106.5 96.5l114 540q-33 77 -77.5 113.5t-125.5 36.5q-160 0 -266 -135q-54 -70 -98.5 -203.5t-44.5 -260.5z" />
<glyph unicode="e" horiz-adv-x="1048" d="M190 350q0 79 18.5 162t53.5 165t91 154.5t126 127.5t163.5 87.5t198.5 32.5q130 0 190 -51.5t60 -137.5q0 -25 -4 -49.5t-20 -62t-43 -69.5t-78 -67.5t-120 -61.5t-175.5 -45.5t-236.5 -24.5q0 -5 -2 -27.5t-3.5 -43.5t-1.5 -31q0 -155 58.5 -234.5t146.5 -79.5 t196.5 71.5t161.5 163.5l14 -3q2 -9 5.5 -38t8 -52t10.5 -34q-74 -103 -204 -164.5t-283 -61.5q-100 0 -176.5 52t-115.5 136.5t-39 185.5zM426 595q89 4 160.5 16t132.5 35t102 56.5t63.5 82t22.5 109.5q0 49 -29.5 72.5t-92.5 23.5q-39 0 -74.5 -9t-77.5 -35t-77.5 -68.5 t-70 -114.5t-59.5 -168z" />
<glyph unicode="f" horiz-adv-x="781" d="M-269 -526q45 62 100 189l25 2q11 -39 44.5 -65.5t79.5 -26.5q37 0 69.5 19t58.5 56.5t47 81.5t42 103q20 59 45.5 173.5t62.5 298.5t56 275l78 366h-171q-8 0 -10 3t0 12l10 45q3 18 20 33.5t47 15.5h127l26 98q25 92 54.5 156t63.5 108.5t97 111.5q86 90 194.5 138.5 t224.5 48.5q32 0 68.5 -12t51.5 -23l1 -7q-42 -53 -107 -190l-27 -2q-13 38 -52.5 62t-91.5 24q-100 0 -165 -71.5t-88 -181.5q-5 -21 -18 -97.5t-22 -124.5l-8 -38h276q9 0 13 -4.5t2 -11.5l-12 -61q-3 -15 -23.5 -23.5t-39.5 -8.5h-239l-173 -782q-35 -159 -106.5 -307.5 t-146.5 -236.5q-52 -61 -111 -102.5t-125 -63.5t-135 -22q-29 0 -64 12t-49 23v7z" />
<glyph unicode="g" horiz-adv-x="1124" d="M2 -368q0 78 23 139t73 119q30 34 70 62t102 62q-22 14 -39 38.5t-27 55.5t-10 64q0 80 60.5 148.5t151.5 113.5q-48 42 -78 114t-30 150q0 70 23 131.5t64 106.5t95.5 77.5t117.5 49t129 16.5q40 0 114 -9.5t93 -9.5q45 0 79.5 11.5t57 39t22.5 69.5q0 33 -26 63l2 10 q70 17 118 57l9 -2q40 -59 40 -143q0 -45 -20.5 -82t-61 -59.5t-92.5 -22.5q-32 0 -52 2l-7 -6q47 -47 79 -115t32 -134q0 -57 -13 -107.5t-35.5 -91t-54.5 -74.5t-70 -59t-81 -42t-89 -25.5t-93 -8.5q-57 0 -119 15.5t-87 40.5q-29 -22 -53.5 -45t-44.5 -53t-20 -54 q0 -75 155 -111q21 -5 102 -22.5t114.5 -26t92 -25t96.5 -33t66 -36.5q40 -27 65 -71.5t32 -80.5t7 -72q0 -90 -45 -156.5t-117 -106.5q-49 -26 -124 -45t-155.5 -27.5t-144 -11.5t-120.5 -3q-97 0 -181.5 24t-139.5 74.5t-55 117.5zM182 -298q0 -38 19.5 -70t48 -52 t63.5 -34t66 -19.5t55 -5.5q314 0 429 71q59 36 59 110q0 23 -7.5 48.5t-26.5 55t-48 49.5q-122 81 -427 131q-7 1 -23.5 1t-23.5 1q-10 -7 -31.5 -22t-32 -23t-25 -21t-24.5 -25q-71 -86 -71 -195zM490 708q0 -52 13 -100t38.5 -87.5t66.5 -63t93 -23.5q31 0 62.5 12 t60 36.5t50.5 59.5t35 84t13 106q0 114 -56.5 182.5t-155.5 68.5q-70 0 -121.5 -40t-75 -101t-23.5 -134z" />
<glyph unicode="h" horiz-adv-x="1262" d="M164 0q60 160 119 443l157 739q75 354 80 479l6 8q69 5 115 15.5t104 31.5q22 0 17 -25q-63 -214 -115 -460l-73 -347q235 195 447 195q133 1 181 -95q26 -52 26 -133q0 -67 -18 -153l-54 -255q-33 -155 -48.5 -249.5t-21.5 -193.5l-6 -7q-33 7 -116 7q-39 0 -69.5 -2 t-41.5 -3l-12 -2l-1 7q60 160 119 443l55 258q14 60 16 101q1 11 0 22q0 26 -4 46q-6 28 -26.5 42.5t-48 20t-70.5 5.5q-54 0 -140.5 -46t-193.5 -132l-67 -317q-33 -155 -48.5 -249.5t-21.5 -193.5l-6 -7q-32 7 -116 7q-38 0 -69 -2t-42 -3l-11 -2z" />
<glyph unicode="i" horiz-adv-x="657" d="M206 0q59 164 119 443l29 134q67 311 70 445l6 8q111 8 226 49q24 0 18 -24q-36 -108 -59.5 -199.5t-55.5 -238.5l-37 -174q-32 -150 -47.5 -246.5t-22.5 -196.5l-6 -7q-33 7 -117 7q-39 0 -69 -2t-41 -3l-11 -2zM506 1475q0 49 38 87t87.5 38t87.5 -38t38 -87.5 t-38 -87.5t-88 -38q-24 0 -47 10.5t-40 27.5t-27.5 40.5t-10.5 47.5z" />
<glyph unicode="j" horiz-adv-x="692" d="M-167 -497q19 25 43.5 93t34.5 90l25 2q6 -17 8 -22t8 -18t11.5 -17t14.5 -11t21.5 -9t28.5 -2q47 0 85 18.5t64.5 52t44 74.5t28.5 91q2 11 7 41t11.5 68.5t21.5 114.5t35 167l73 341q65 300 68 433l6 8q28 2 54 6t52.5 12t41.5 12.5t44.5 15.5t38.5 15q22 0 17 -24 q-37 -107 -61 -198.5t-55 -239.5l-134 -622q-28 -133 -61 -199t-113 -150q-82 -86 -170 -127.5t-193 -41.5q-32 0 -59.5 5.5t-39.5 13.5zM539 1475q0 49 37.5 87t87 38t87 -38t37.5 -87.5t-37.5 -87.5t-86.5 -38q-25 0 -48 10.5t-40 27.5t-27 40.5t-10 47.5z" />
<glyph unicode="k" horiz-adv-x="1135" d="M164 0q60 160 119 443l157 739q75 354 80 479l6 8q69 5 115 15.5t104 31.5q22 0 17 -25q-61 -206 -115 -460l-136 -641q65 8 103 36q77 53 204.5 180t230.5 249q189 0 234 7l2 -7q-79 -61 -177.5 -149.5t-211.5 -195.5t-134 -126q118 -208 187 -321.5t169 -262.5l-4 -7 q-29 7 -136 7q-97 0 -152 -7q-33 70 -69 154t-54.5 126t-50.5 100t-72 117q-8 8 -24.5 14t-31.5 8.5t-28 3.5l-16 -73q-32 -153 -48 -248.5t-22 -194.5l-6 -7q-32 7 -116 7q-38 0 -69 -2t-42 -3l-11 -2z" />
<glyph unicode="l" horiz-adv-x="640" d="M223 150q0 11 3 32.5t9 51.5t11.5 56.5t13.5 64t12 58.5l160 771q27 133 39 192t25.5 147.5t14.5 137.5l7 8q70 5 116 15.5t103 31.5q21 0 18 -25q-60 -191 -117 -462l-176 -840q-2 -9 -8.5 -38t-8.5 -41t-6 -34t-5.5 -39.5t-1.5 -34.5q0 -20 3 -35.5t7.5 -26.5 t13.5 -18.5t16.5 -12t22 -6t24.5 -1.5t29 2t30.5 4t33.5 6q6 1 8.5 1.5t7 1.5t8.5 1.5t8 1.5l5 -7v-64q-44 -27 -124 -50t-149 -23q-73 0 -113 45.5t-40 128.5z" />
<glyph unicode="m" horiz-adv-x="1848" d="M162 0q58 166 118 443l27 134q42 198 42 335q0 57 -7 103l5 7q98 10 201 52q9 0 12.5 -1t5.5 -6.5t2 -17.5q2 -28 2 -59q0 -57 -7 -125l5 -7q215 221 400 221q207 0 231 -190q123 106 215.5 148t193.5 42q49 0 87 -7.5t63.5 -23.5t43.5 -35t26 -48t12 -57q2 -14 2 -31 t-2 -37q-4 -38 -10 -72.5t-16 -79.5l-51 -245q-33 -155 -48.5 -249.5t-21.5 -193.5l-6 -7q-32 7 -116 7q-24 0 -45.5 -0.5t-35 -2t-23.5 -2.5t-14 -1l-5 -1l-1 7q60 160 119 443l59 275q12 56 12 97q-1 47 -17 73q-30 48 -131 48q-68 0 -127.5 -33t-162.5 -124 q-4 -43 -15 -89q-8 -40 -29 -124t-29 -123q-33 -154 -48.5 -249t-22.5 -194l-6 -7q-45 7 -118 7q-33 0 -63 -2t-44 -3l-13 -2v7q24 63 44.5 139t33 130.5t37.5 173.5l52 240q13 61 16 103q1 15 1 28q1 24 -3 42q-6 28 -22 45t-39 23.5t-59 6.5q-132 0 -331 -201l-62 -287 q-33 -154 -48.5 -249t-22.5 -194l-7 -7q-40 7 -115 7q-22 0 -42 -0.5t-34 -2t-24.5 -2.5t-15.5 -1l-6 -1zM1193 884l2 3l-1 3q0 -1 -1 -6z" />
<glyph unicode="n" horiz-adv-x="1238" d="M162 0q58 166 118 443l27 134q42 198 42 335q0 57 -7 103l5 7q98 10 201 52q9 0 12.5 -1t5.5 -6.5t2 -17.5q2 -28 2 -59q0 -57 -7 -125l5 -7q63 65 130 111.5t124 68.5t99.5 31.5t79.5 9.5q149 -1 203 -99q31 -56 30 -143q0 -65 -17 -147q-9 -40 -30 -124t-29 -123 q-34 -160 -49.5 -253t-22.5 -190l-5 -7q-44 7 -117 7q-34 0 -64.5 -2t-43.5 -3l-14 -2v7q34 91 58 184.5t59 258.5l51 240q16 75 18 123v9q0 42 -13 67q-14 28 -40 38.5t-70 10.5q-43 0 -97 -18.5t-126 -66t-141 -116.5l-62 -287q-33 -154 -48.5 -249t-22.5 -194l-7 -7 q-40 7 -115 7q-22 0 -42 -0.5t-34 -2t-24.5 -2.5t-15.5 -1l-6 -1z" />
<glyph unicode="o" horiz-adv-x="1203" d="M182 383q0 140 48.5 258.5t128.5 209.5q89 103 213 165.5t264 62.5q74 0 135.5 -15.5t105 -43t76.5 -65t52.5 -83.5t28.5 -95t9 -103q0 -167 -81 -330.5t-216 -261.5q-145 -106 -350 -106q-101 0 -181 32t-130 88t-76.5 129t-26.5 158zM410 394q0 -318 231 -318 q59 0 123 30.5t117 97.5q31 39 54 81t44.5 100.5t33 137t11.5 172.5q0 283 -221 283q-68 0 -130.5 -35t-110 -94t-82 -133t-52.5 -156q-18 -84 -18 -166z" />
<glyph unicode="p" horiz-adv-x="1243" d="M38 -570q62 165 130 491l139 656q41 186 41 323q0 66 -8 115l4 7q99 10 202 52q12 0 15.5 -4t3.5 -21q1 -21 1 -54q0 -54 -4 -112l9 1q54 61 105.5 102.5t96 60t77.5 25.5t68 7q60 0 113.5 -20t95 -56.5t71.5 -85t46 -108t16 -123.5q0 -89 -23.5 -176t-64.5 -159 t-90.5 -131t-105.5 -106q-171 -138 -382 -138q-119 0 -206 54l-23 -109q-71 -331 -81 -491l-7 -7q-31 7 -115 7q-38 0 -69 -2t-42 -3l-11 -2zM421 190q68 -106 181 -106q211 0 324 191q32 54 55 116.5t36.5 134.5t13.5 145q0 132 -54.5 205t-144.5 73q-66 0 -150 -57.5 t-143 -152.5z" />
<glyph unicode="q" horiz-adv-x="1198" d="M184 385q0 156 62 285t164 229q88 85 197 132.5t225 47.5q182 0 283 -108l53 68q16 22 34.5 34.5t31.5 12.5q22 0 22 -29q0 -14 -3 -32l-235 -1104q-70 -323 -80 -491l-7 -7q-32 7 -116 7q-39 0 -69 -2t-41 -3l-11 -2l-2 7q58 155 129 491l29 135q-108 -80 -266 -80 q-71 0 -131 16t-103.5 45.5t-76 67.5t-51.5 84.5t-28.5 95t-9.5 100.5zM412 389q0 -67 15.5 -120t41 -85t60.5 -53t70 -29t73 -8t92.5 19t107.5 54l136 635q-34 86 -84 130t-125 44q-166 0 -266 -153q-50 -76 -85.5 -197.5t-35.5 -236.5z" />
<glyph unicode="r" horiz-adv-x="852" d="M174 0q61 174 119 443l26 134q42 198 42 335q0 57 -7 103l5 7q98 10 201 52q9 0 12.5 -1t5.5 -6.5t2 -17.5q3 -30 2 -64q0 -53 -6 -116v1h5q71 81 171 145t180 64q22 0 38 -2t25 -4.5t35 -10.5l7 -10l-88 -194l-20 -5q-17 16 -43.5 24t-42.5 9t-50 1t-78 -13.5t-84 -43.5 q-55 -46 -84 -128l-55 -259q-34 -160 -49.5 -253t-22.5 -190l-7 -7q-40 7 -115 7q-34 0 -64.5 -2t-43.5 -3l-14 -2z" />
<glyph unicode="s" horiz-adv-x="898" d="M85 42l69 194l34 3q15 -51 57 -89.5t93 -57.5t101 -19q33 0 63.5 7t58.5 22.5t49 37.5t33 54.5t12 71.5q0 111 -161 210q-45 29 -75.5 51t-64.5 56t-50 69q-20 38 -20 93q0 52 14 97.5t37 79t56 60.5t70 44.5t78.5 29.5t82 17.5t81.5 5.5q139 0 262 -78l3 -9l-69 -164 l-33 -2q-6 27 -21.5 53t-39.5 49.5t-60.5 37.5t-79.5 14q-82 0 -136.5 -38t-54.5 -114q0 -36 10 -67t26 -55t41.5 -46t52 -38.5t61.5 -34.5q52 -27 89.5 -60t57.5 -68.5t29.5 -69.5t9.5 -70q0 -150 -116.5 -246.5t-312.5 -96.5q-173 0 -337 66z" />
<glyph unicode="t" horiz-adv-x="741" d="M250 194q7 41 39 176.5t46 197.5l83 378h-158q-10 0 -8 10l19 88q2 11 10 11h159q12 53 24 115.5t20.5 104.5t19.5 85l6 7q24 2 44.5 5t34.5 6.5t28.5 9t25 10t26.5 11.5t31 12q21 0 16 -25q-30 -108 -42 -156t-42 -185h266q9 0 13.5 -4.5t2.5 -11.5l-13 -61 q-3 -15 -24 -23.5t-42 -8.5h-225l-76 -351q-18 -84 -42.5 -189.5t-29.5 -130.5q-10 -45 -10 -78q0 -25 5 -43q12 -44 53 -44q32 0 50 1t56 9.5t72 25.5l16 -67q-65 -48 -152 -75.5t-167 -27.5q-81 0 -117 63q-24 43 -24 98q0 27 6 57z" />
<glyph unicode="u" horiz-adv-x="1262" d="M260 212q1 46 12 98l64 302q34 161 49.5 253.5t20.5 189.5l7 7q32 -7 116 -7q39 0 69 1.5t41 3.5l11 2l2 -7q-35 -90 -60 -185.5t-59 -257.5l-52 -244q-15 -64 -17 -110q-1 -13 0 -25q0 -30 4 -50q6 -29 25.5 -45t44.5 -22t63 -6q39 0 82.5 17t87 47.5t75 57t68.5 61.5 l69 319q23 109 34.5 170.5t21.5 133t13 139.5l6 7q33 -7 117 -7q38 0 68.5 1.5t42.5 3.5l11 2l1 -7q-34 -90 -59 -185.5t-59 -257.5l-30 -140q-54 -251 -59 -472l-6 -7q-47 7 -108 7q-19 0 -87 -7q-22 0 -20 7l22 157h-5q-81 -70 -155 -112t-127.5 -55.5t-108.5 -13.5 q-67 0 -114.5 19t-73.5 50.5t-38 75.5q-11 40 -10 83v8z" />
<glyph unicode="v" horiz-adv-x="1016" d="M270 1062q35 -7 140 -7q81 0 111 7q2 -34 9 -134t10 -143t10 -130t13.5 -142.5t16.5 -129.5t21 -141q66 106 138.5 244.5t158 310.5t134.5 265q17 -7 74 -7q74 0 95 7q-145 -240 -222.5 -370t-193.5 -331t-205 -368q-17 7 -62 7q-62 0 -86 -7q-34 259 -49.5 373 t-47.5 321t-65 375z" />
<glyph unicode="w" horiz-adv-x="1630" d="M270 1060q35 -8 138 -8q80 0 110 8q14 -194 21.5 -292t25.5 -258t42 -292h12q108 171 299 530q-14 145 -29 314q35 -7 133 -7q83 0 113 7q-1 -67 -1 -132q0 -389 41 -709h17q225 379 452 841q17 -7 74 -7q74 0 95 7q-228 -364 -638 -1069q-17 7 -79 7q-75 0 -99 -7 q-37 327 -62 581q-100 -172 -321 -584q-16 8 -75 8q-77 0 -101 -8q-83 634 -168 1070z" />
<glyph unicode="x" horiz-adv-x="1117" d="M43 -7l519 516l-302 553q39 -7 141 -7q91 0 134 7q64 -161 189 -402q259 264 384 402q25 -7 90 -7q82 0 111 7l-533 -496q104 -217 304 -573q-35 7 -124 7q-103 0 -141 -7q-21 49 -49 109t-44.5 93.5t-55.5 112t-49 98.5q-29 -31 -117 -126t-146.5 -159.5t-114.5 -127.5 q-23 7 -106 7q-63 0 -90 -7z" />
<glyph unicode="y" horiz-adv-x="1194" d="M107 -582q218 269 389 535q-27 165 -105 547t-121 562q32 -7 126 -7q89 0 122 7q6 -51 14 -107.5t14.5 -99.5t18.5 -110t17.5 -99t21 -111t19.5 -101t22.5 -113t21.5 -106h5q233 341 503 847q23 -7 93 -7q81 0 107 7q-147 -208 -553 -826t-509 -818q-15 5 -55 8.5 t-62 3.5q-45 0 -89 -12z" />
<glyph unicode="z" horiz-adv-x="1021" d="M50 4q11 10 22 21.5t25 28t23 25.5l758 852q-57 -1 -119.5 -2.5t-116 -4t-105 -5t-91 -5.5t-70 -5t-47.5 -3l-16 -1l-3 7q8 24 20 76q2 7 3 15t1.5 14t2 17t3.5 22l6 6q54 -7 136 -6h502q31 0 78.5 3t83.5 6.5t40 3.5q13 0 9 -13q-27 -25 -96 -104l-739 -830q133 1 288 8 t244 13l88 7l4 -7q-11 -30 -22 -77q-2 -12 -4 -32t-4 -34l-7 -7q-54 7 -136 7h-555q-31 0 -81.5 -2t-84.5 -3l-35 -2z" />
<glyph unicode="{" horiz-adv-x="682" d="M209 587l7 37q187 51 238 286l96 452q18 85 44 147t61.5 105.5t84 69.5t106.5 38.5t136 15.5l-12 -54q-34 -10 -59 -21t-53.5 -33.5t-49.5 -53.5t-41 -80.5t-34 -114.5l-91 -432q-24 -114 -52 -178t-68 -100.5t-108 -63.5q24 -11 42 -24.5t30.5 -30.5t20 -34.5t10.5 -42 t2.5 -47.5t-5 -56.5t-10 -64t-14.5 -73.5l-83 -391q-30 -132 -2 -221t107 -89l-10 -54q-79 2 -131 13.5t-90 38t-53.5 72t-14 113.5t21.5 164l89 418q13 58 13.5 104t-11.5 84t-41.5 63.5t-75.5 37.5z" />
<glyph unicode="|" horiz-adv-x="516" d="M78 -570l486 2286h120l-486 -2286h-120z" />
<glyph unicode="}" horiz-adv-x="682" d="M-40 -523l11 54q34 9 59 20.5t53.5 33.5t49.5 53t41 80.5t34 114.5l92 432q25 114 52 178t67 101t108 63q-28 13 -47.5 29.5t-32 34.5t-18.5 43.5t-7.5 50t2.5 61.5t10.5 71t16.5 83l84 392q30 132 1.5 220.5t-108.5 88.5l12 54q79 -1 131 -12.5t90 -38t53.5 -72.5 t14 -114t-21.5 -164l-89 -417q-15 -76 -12.5 -135t34.5 -99.5t93 -56.5l-8 -36q-187 -50 -238 -285l-96 -453q-22 -106 -56.5 -177t-88 -114t-121.5 -62t-165 -22z" />
<glyph unicode="~" horiz-adv-x="1102" d="M173 514q33 80 93.5 151.5t138 117t149.5 45.5q21 0 41.5 -6t43.5 -19t38.5 -23.5t42.5 -29.5q36 -27 55.5 -40.5t50.5 -27.5t56 -14q28 0 62 9t72.5 27t77 51.5t66.5 77.5l39 -15q-38 -74 -83 -130.5t-83 -87t-78.5 -49t-66 -23.5t-47.5 -5q-43 0 -81.5 21.5t-85.5 60.5 q-47 38 -85.5 58t-79.5 20q-69 0 -158.5 -49.5t-146.5 -127.5z" />
<glyph unicode="&#xa2;" horiz-adv-x="1081" d="M304 686q21 98 72 184.5t120 149t148 105.5t161 61l49 235h84l-48 -225q3 0 7 0.5t7.5 1t6.5 0.5q52 0 107.5 -11t98 -26.5t75.5 -33.5l3 -7l-90 -182l-29 -2q-18 51 -46 87t-64.5 55.5t-78.5 19.5q-3 0 -8.5 -0.5t-8.5 -0.5l-164 -771q13 -2 40 -2q148 0 274 139h8 l38 -36q-50 -72 -117 -123t-135 -75t-135 -25l-49 -234h-84l52 239q-173 24 -254.5 154.5t-39.5 322.5zM503 734q-30 -139 6 -239t119 -143l154 727q-97 -34 -174 -123t-105 -222z" />
<glyph unicode="&#xa3;" horiz-adv-x="1081" d="M50 40q7 30 43.5 57t99.5 58q58 36 103 89t76 120.5t52 135t39 154.5l9 40h-148q-9 0 -11 2.5t0 11.5l6 31q4 18 21.5 33.5t45.5 15.5h106l10 47q31 145 82 228t160 173q200 164 446 164q65 0 94 -19l1 -7q-39 -49 -99 -178l-26 -2q-28 77 -109 77q-62 0 -133.5 -44 t-129 -118.5t-74.5 -154.5l-35 -166h289q18 0 15 -14l-11 -52q-2 -13 -22 -20.5t-40 -7.5h-251q-73 -328 -273 -483h12q74 0 126.5 -11t81 -27t52.5 -32t55 -27t73 -11q67 0 138.5 22.5t124.5 78.5l36 -24q-63 -93 -159.5 -148.5t-207.5 -55.5q-58 0 -100 14t-68.5 34 t-53 40.5t-68 34.5t-97.5 14q-55 0 -80.5 -17t-29.5 -40q-9 -39 -39.5 -59.5t-71.5 -20.5q-33 0 -49.5 18t-10.5 46z" />
<glyph unicode="&#xa5;" horiz-adv-x="1081" d="M172.5 314.5q-1.5 2.5 0.5 11.5l7 33q3 18 19 33.5t45 15.5h279q8 33 34 155h-322q-8 0 -10 2.5t1 11.5l7 35q3 18 19.5 33.5t45.5 15.5h246q-25 76 -115.5 377t-118.5 376q40 -9 124 -9q79 0 124 9q37 -211 72 -360.5t94 -311.5q40 47 80.5 101.5t72.5 100.5t74.5 112 t70 110.5t76 123t77.5 124.5q26 -9 90 -9q59 0 92 9q-69 -88 -135.5 -175t-109 -143t-102.5 -136.5t-79.5 -107t-78.5 -106.5t-62 -85h316q8 0 12.5 -3.5t2.5 -10.5l-12 -52q-4 -15 -23 -23.5t-40 -8.5h-296q-10 -49 -31 -155h333q8 0 12.5 -4t2.5 -10l-11 -50 q-3 -15 -23 -23.5t-41 -8.5h-291q-41 -208 -57 -319q-32 7 -111 7q-76 0 -112 -7q26 82 81 319h-320q-8 0 -9.5 2.5z" />
<glyph unicode="&#xa8;" horiz-adv-x="921" d="M433 1414q10 46 50.5 79t86.5 33t72.5 -33.5t16.5 -79t-50.5 -79.5t-86.5 -34t-72.5 34t-16.5 80zM826.5 1414q6.5 30 27.5 56t50.5 41t59.5 15q46 0 72 -33.5t16 -79t-50.5 -79.5t-85.5 -34q-30 0 -53 15.5t-33 42t-3.5 56.5z" />
<glyph unicode="&#xa9;" horiz-adv-x="1555" d="M229.5 568.5q-7.5 88.5 14.5 183.5q30 141 112.5 269.5t195 221t253 147.5t281.5 55q94 0 179 -25t151 -70t117 -108t78.5 -140t35 -165.5t-14.5 -184.5q-24 -113 -81.5 -219t-140 -191.5t-181.5 -150t-212 -100t-226 -35.5q-95 0 -180.5 25.5t-151.5 71t-117 109.5 t-78 141t-34.5 165.5zM306.5 589q6.5 -79 31 -147.5t70 -125t104.5 -96.5t135 -62t161 -22q125 0 249.5 48.5t224.5 131t173.5 197t99.5 239.5q14 74 14 142.5t-18.5 130t-48.5 114.5t-74.5 95.5t-98.5 72.5t-120 46t-139 16q-127 0 -252 -48.5t-225.5 -131t-173.5 -197 t-100 -240.5q-19 -84 -12.5 -163zM563 739q22 102 92 190.5t170.5 141t206.5 52.5q48 0 83 -3.5t54.5 -9t34 -11t30 -9.5t34.5 -4l-7 -192l-50 -10q-7 46 -19.5 77t-35 56t-58.5 37.5t-88 12.5q-31 0 -62.5 -8t-67 -29.5t-64.5 -54.5t-55 -87t-41 -124q-16 -67 -10.5 -125.5 t26.5 -101.5t65 -67.5t105 -24.5q44 0 85.5 13t73 34t52 39t36.5 37l39 -38q-55 -64 -142 -110.5t-181 -46.5q-107 0 -185 51t-109.5 135t-11.5 180z" />
<glyph unicode="&#xab;" horiz-adv-x="1316" d="M221 509l7 39l60 39q85 59 162.5 121t149.5 127t176 166l57 -60q-130 -150 -223.5 -244.5t-184.5 -168.5q61 -75 115 -170.5t119 -242.5l-84 -59q-94 153 -159 240.5t-153 172.5q-28 28 -42 40zM624 509l7 39l59 39q125 86 230.5 176t259.5 238l54 -60 q-131 -150 -224 -244.5t-184 -168.5q60 -75 114 -170.5t120 -242.5l-82 -59q-94 153 -159 240.5t-153 172.5q-28 28 -42 40z" />
<glyph unicode="&#xad;" horiz-adv-x="817" d="M209 580q0 32 31 74t53 42h563q24 0 24 -30q0 -28 -30.5 -73t-55.5 -45h-555q-14 0 -22 9t-8 23z" />
<glyph unicode="&#xae;" horiz-adv-x="1555" d="M229.5 568.5q-7.5 88.5 14.5 183.5q30 141 112.5 269.5t195 221t253 147.5t281.5 55q94 0 179 -25t151 -70t117 -108t78.5 -140t35 -165.5t-14.5 -184.5q-24 -113 -81.5 -219t-140 -191.5t-181.5 -150t-212 -100t-226 -35.5q-95 0 -180.5 25.5t-151.5 71t-117 109.5 t-78 141t-34.5 165.5zM306.5 589q6.5 -79 31 -147.5t70 -125t104.5 -96.5t135 -62t161 -22q125 0 249.5 48.5t224.5 131t173.5 197t99.5 239.5q14 74 14 142.5t-18.5 130t-48.5 114.5t-74.5 95.5t-98.5 72.5t-120 46t-139 16q-127 0 -252 -48.5t-225.5 -131t-173.5 -197 t-100 -240.5q-19 -84 -12.5 -163zM578 420l9 42q1 7 6 8.5t21 3.5l44 5q31 3 42 51l94 443q3 16 1.5 27.5t-8 19t-15.5 11t-21 3.5h-27q-12 0 -15 3t-2 9l8 42l6 5h335q45 0 80 -8.5t56.5 -22.5t37 -33t20.5 -39.5t6.5 -41t-3.5 -38.5q-15 -69 -65.5 -116t-115.5 -67 l74 -201q23 -65 95 -52l1 -42q-45 -17 -92 -17q-99 0 -131 87l-77 196q-5 5 -38 7.5t-51 2.5l-37 -178q-11 -48 18 -51l34 -5h3q10 -2 13.5 -2.5t6 -3.5t1.5 -8l-9 -40l-6 -5q-99 5 -144 5l-151 -5zM866 767h78q32 0 55.5 5t48 19t42.5 44t27 75q14 63 -9.5 93.5t-86.5 30.5 q-98 0 -111 -61z" />
<glyph unicode="&#xb2;" d="M301 894q9 42 35.5 84.5t68 82.5t85.5 74.5t100 71.5q56 38 87.5 63t62 58t47.5 70t28 86q7 44 1 72.5t-25 45t-38 23.5t-38 7q-72 0 -106.5 -21t-40.5 -51q-3 -11 -1 -30.5t1 -28.5q-6 -27 -33 -43t-49 -16q-23 0 -40 18t-12 41q6 26 27 57t56.5 61.5t93.5 51t127 20.5 q39 0 73.5 -6t67.5 -20.5t53 -38t30 -58t-2 -81.5q-17 -80 -84 -146.5t-197 -146.5q-93 -57 -144.5 -109t-64.5 -107h176q81 0 216 10q-9 -20 -16 -50q-3 -11 -6 -49q-85 5 -198 5h-341z" />
<glyph unicode="&#xb3;" d="M302 971q4 18 26.5 33.5t43.5 15.5q16 0 28 -6t16.5 -11.5t11.5 -17.5q14 -22 36.5 -33t76.5 -11q17 0 39 4.5t52 18t56.5 34.5t49.5 58.5t34 85.5q8 30 3.5 53t-12 40t-23 28.5t-30.5 18.5t-34.5 11t-33.5 5.5t-29 1.5q-9 0 -50 -5l7 59q85 11 143.5 58t74.5 122 q12 51 -12 74.5t-66 23.5q-27 0 -58 -8.5t-59.5 -29t-35.5 -48.5q-4 -15 -8.5 -24.5t-13 -22t-23 -18.5t-34.5 -6q-21 0 -33 10t-13.5 19t-0.5 15q2 12 12 28t27.5 35.5t44.5 38.5t60.5 34.5t79.5 25.5t97 10q97 0 145 -39t34 -106q-21 -97 -162 -167q32 -3 61.5 -17 t55 -40.5t35 -65.5t-0.5 -93q-17 -83 -79.5 -148t-151.5 -100t-187 -35q-47 0 -94.5 11.5t-79 33t-26.5 46.5z" />
<glyph unicode="&#xb4;" horiz-adv-x="837" d="M506 1367q2 5 3.5 9.5t2.5 8t4 8t4.5 7t5.5 7.5t6.5 8t8 9.5t9.5 10.5l247 293q17 5 36 5q77 0 123 -57l2 -27l-340 -268q-56 -47 -84 -47q-13 0 -21.5 10t-6.5 23z" />
<glyph unicode="&#xb8;" horiz-adv-x="1328" d="M436 -450q7 39 37 64q51 -21 76 -27.5t59 -6.5q57 0 97 26t50 72q18 86 -63 86q-63 0 -114 -15l-12 15l149 236h84l-97 -164q31 7 66 7q75 0 116 -42t26 -111q-17 -79 -103 -130.5t-199 -51.5q-55 0 -91 9.5t-81 32.5z" />
<glyph unicode="&#xb9;" d="M466 1543q7 3 45.5 16t49 16.5t44.5 15.5t49 17.5t44.5 17t49 20.5t44 21t47.5 24h14q7 0 5 -15q-25 -84 -41 -157l-66 -309q-41 -193 -50 -316l-4 -5q-20 5 -81 5q-28 0 -49 -1t-29 -3l-8 -1l-1 5q48 119 89 316l44 208q17 81 13 94q-4 10 -20 10q-23 0 -85.5 -18 t-94.5 -32z" />
<glyph unicode="&#xbb;" horiz-adv-x="1316" d="M150 115q130 150 223.5 244.5t184.5 168.5q-61 75 -115 170.5t-119 242.5l82 60q64 -104 106 -166.5t93.5 -126t112.5 -121.5q27 -27 42 -39l-8 -39l-58 -40q-127 -87 -232.5 -176.5t-257.5 -236.5zM551 115q130 150 223 244.5t185 168.5q-61 75 -115 170.5t-119 242.5 l84 60q64 -104 106 -166.5t93.5 -126t112.5 -121.5q27 -27 42 -39l-7 -39l-60 -40q-126 -86 -230.5 -175.5t-258.5 -237.5z" />
<glyph unicode="&#xbc;" horiz-adv-x="1621" d="M212 -133l1470 1610l98 -20l-1468 -1609zM433 1423q6 2 41 14t43.5 14.5t39.5 13.5t43.5 15.5t39.5 15t43 17.5t39 17t43 20t40 21h16q6 0 3 -16q-25 -84 -40 -157l-66 -310q-40 -184 -50 -314l-3 -5q-22 5 -83 5q-27 0 -48 -1t-29 -3l-7 -1l-1 5q48 120 89 314l44 209 q0 3 1 7q14 55 13 75.5t-21 20.5q-23 0 -86.5 -17.5t-94.5 -31.5zM952 73q200 222 493 537l71 -26q-82 -94 -235 -258.5t-182 -198.5h228l41 190q4 17 25 42q12 12 25.5 23t28 19.5t22.5 8.5q10 0 19.5 -1t19 -7t6.5 -16l-54 -259h120l-32 -83h-104q-30 -152 -36 -243l-4 -5 q-22 5 -83 5q-27 0 -48 -1.5t-28 -2.5l-8 -1l-1 5q41 102 73 243h-354z" />
<glyph unicode="&#xbd;" horiz-adv-x="1621" d="M154 -133l1467 1610l100 -20l-1471 -1609zM438 1423q10 4 30 10q77 26 119 41t106.5 41.5t116.5 55.5h16q6 0 3 -16q-25 -84 -41 -157l-64 -310q-42 -193 -51 -314l-3 -5q-22 5 -83 5q-27 0 -48 -1t-29 -3l-7 -1l-1 5q47 120 88 314l45 209q0 3 1 7q13 55 12.5 75.5 t-20.5 20.5q-12 0 -36.5 -5t-51.5 -13t-52.5 -16.5t-39.5 -14.5zM949 -194q9 42 36 84t69 82t85.5 74t100.5 72q54 37 86 62.5t62 58.5t47 70.5t28 86.5q7 43 1 71.5t-24.5 45.5t-37.5 24t-38 7q-71 0 -106.5 -21.5t-41.5 -50.5q-3 -11 -1 -30.5t1 -28.5q-6 -27 -33 -43 t-49 -16q-23 0 -39.5 17.5t-10.5 41.5q5 26 26 56.5t56 61.5t93 51t127 20q39 0 73.5 -6t67.5 -20t53 -37.5t30 -58.5t-2 -82q-17 -79 -84 -145.5t-197 -146.5q-93 -58 -144 -110t-63 -106h174q81 0 216 9q-9 -20 -16 -49q-1 -4 -5 -49q-85 5 -198 5h-342z" />
<glyph unicode="&#xbe;" horiz-adv-x="1621" d="M224 -133l1472 1610l96 -20l-1468 -1609zM270 846q4 18 26 33t44 15q23 0 35 -8.5t22 -25.5q4 -6 8 -11t10 -10.5t14.5 -9.5t19.5 -7t26.5 -4.5t34.5 -1.5q13 0 30.5 3.5t41.5 11t47 23t45 36.5t39.5 54t25.5 74q8 30 4 53t-11.5 39.5t-23 28t-30.5 18.5t-34 11t-33 5.5 t-29 1.5q-10 0 -50 -5l7 59q85 11 143 58t74 122q5 28 1.5 47t-16 30t-28 15.5t-34.5 4.5q-11 0 -23 -1.5t-26 -4.5t-27 -8t-26 -12t-23 -15.5t-17.5 -20t-10.5 -23.5q-4 -15 -8.5 -25t-13 -22t-23.5 -18.5t-35 -6.5q-21 0 -32.5 10t-13 19t-0.5 15q2 14 15 34t40 45 t62.5 45.5t89.5 34.5t114 14q64 0 107 -17t61.5 -50t9.5 -78q-8 -34 -31.5 -66t-56 -57t-73.5 -45q32 -3 61.5 -17t55 -40.5t35 -65.5t-0.5 -93q-17 -83 -79.5 -148t-151.5 -99.5t-188 -34.5q-46 0 -94 11.5t-79.5 33.5t-26.5 46zM962 79q166 184 494 535l70 -24 q-62 -72 -151 -168.5t-163 -176t-102 -112.5h228l41 189q4 16 25 42q19 19 41.5 35t34.5 16q10 0 19.5 -1t18.5 -7t7 -16l-54 -258h120l-32 -84h-105q-29 -152 -36 -243l-3 -5q-22 5 -83 5q-27 0 -48 -1.5t-29 -2.5l-7 -1l-1 5q40 102 73 243h-354z" />
<glyph unicode="&#xc0;" horiz-adv-x="1555" d="M43 -7q647 967 1071 1625h68q35 -170 87.5 -442.5t92.5 -483t82 -412.5t66 -287q-41 7 -146 7q-81 0 -124 -7q-15 218 -71 569q-139 3 -287 3q-178 0 -318 -3q-234 -378 -325 -569q-28 7 -108 7q-57 0 -88 -7zM637 678q23 0 119 -2.5t137 -2.5q134 0 257 4 q-55 313 -120 606h-5q-39 -61 -117 -181.5t-145.5 -226t-125.5 -197.5zM846 1900q90 72 210 110l254 -206q31 -26 26 -52q-3 -14 -16.5 -25t-28.5 -11q-37 0 -99 29z" />
<glyph unicode="&#xc2;" horiz-adv-x="1555" d="M43 -7q647 967 1071 1625h68q35 -170 87.5 -442.5t92.5 -483t82 -412.5t66 -287q-41 7 -146 7q-81 0 -124 -7q-15 218 -71 569q-139 3 -287 3q-178 0 -318 -3q-234 -378 -325 -569q-28 7 -108 7q-57 0 -88 -7zM637 678q23 0 119 -2.5t137 -2.5q134 0 257 4 q-55 313 -120 606h-5q-39 -61 -117 -181.5t-145.5 -226t-125.5 -197.5zM884 1747q125 81 293 232h106q76 -123 199 -232l-50 -51q-136 69 -228 152q-140 -88 -296 -152z" />
<glyph unicode="&#xc4;" horiz-adv-x="1555" d="M43 -7q647 967 1071 1625h68q35 -170 87.5 -442.5t92.5 -483t82 -412.5t66 -287q-41 7 -146 7q-81 0 -124 -7q-15 218 -71 569q-139 3 -287 3q-178 0 -318 -3q-234 -378 -325 -569q-28 7 -108 7q-57 0 -88 -7zM637 678q23 0 119 -2.5t137 -2.5q134 0 257 4 q-55 313 -120 606h-5q-39 -61 -117 -181.5t-145.5 -226t-125.5 -197.5zM763 1742.5q10 45.5 50.5 78t86.5 32.5t71.5 -32.5t16 -78t-49 -78t-85.5 -32.5t-73 32.5t-17 78zM1354 1742q9 46 49.5 78.5t86.5 32.5t71.5 -32.5t15.5 -78t-49.5 -78t-85.5 -32.5q-30 0 -52.5 14.5 t-32.5 40t-3 55.5z" />
<glyph unicode="&#xc6;" horiz-adv-x="1970" d="M43 -7q68 92 332 459.5t455 620t407 513.5l6 6q40 -7 124 -7h523q88 0 149 7l3 -7q-3 -13 -8 -29.5t-8.5 -27.5t-4.5 -20q-6 -27 -9 -63l-7 -10q-185 25 -444 25q-96 0 -142.5 -10t-66 -34t-24.5 -76q-3 -246 3 -522q128 0 240 4.5t164.5 8t152.5 11.5l6 -7 q-16 -34 -23 -68q-7 -33 -7 -69l-9 -8q-212 22 -522 25q7 -313 22 -578q110 4 242 10t209 11l77 4l2 -10q-11 -30 -21 -81q-4 -17 -11 -71l-6 -7q-58 7 -147 7h-336h-3h-132q-82 0 -125 -7q26 117 40 693q-54 2 -162 2q-152 0 -291 -4q-289 -416 -452 -691q-28 7 -108 7 q-57 0 -88 -7zM773 800q216 -3 219 -3q100 0 154 1q1 48 2.5 146t3 189.5t2.5 178.5h-4q-166 -213 -377 -512z" />
<glyph unicode="&#xc7;" horiz-adv-x="1597" d="M234.5 591q0.5 95 21.5 193q30 142 99 272t164.5 231t209 176t239 115t249.5 40q84 0 165 -11.5t136.5 -28t99.5 -33t65 -28.5l21 -11l4 -7q-13 -28 -34 -73.5t-29 -64t-20.5 -54.5t-24.5 -81l-30 -2q-43 148 -143 212.5t-270 64.5q-64 0 -134 -22t-147.5 -74t-145 -128 t-124.5 -194.5t-88 -261.5q-19 -92 -23.5 -178.5t6 -167.5t41 -148.5t78 -118.5t120.5 -79t166 -28q173 0 293 50.5t279 192.5l54 -46q-293 -301 -624 -321l-82 -141q30 7 64 7q76 0 117 -42t26 -111q-17 -79 -103 -130.5t-199 -51.5q-39 0 -69 5t-51.5 13.5t-52.5 23.5 q8 38 38 64q52 -21 77 -27.5t59 -6.5q56 0 96.5 26t49.5 72q9 41 -6.5 63.5t-56.5 22.5q-64 0 -114 -15l-11 15l133 212q-122 4 -221 39t-167 92.5t-114 134t-66.5 165.5t-20 184z" />
<glyph unicode="&#xc8;" horiz-adv-x="1282" d="M211 0q60 165 130 492l127 601q69 321 80 492l6 7q40 -7 124 -7h647q87 0 149 7l3 -7q-3 -13 -8.5 -29.5t-8.5 -27.5t-4 -20q-7 -27 -9 -63l-7 -10q-333 30 -661 30q-19 -38 -53 -172.5t-47 -199.5l-42 -201q70 0 134 1t103.5 2t95 4.5t74 5t77 6.5t69.5 6l6 -7 q-14 -33 -22 -70q-8 -32 -8 -68l-8 -8q-77 8 -187.5 14t-201 8t-155.5 2l-62 -296q-61 -304 -56 -359q146 0 320.5 7.5t275.5 14.5l102 7l4 -10q-14 -37 -23 -81q-2 -11 -3.5 -20.5t-3 -23.5t-3.5 -27l-7 -7q-58 7 -145 7h-671q-38 0 -70.5 -2t-45.5 -3l-14 -2zM818 1897 q90 72 210 111l255 -207q31 -26 25 -51q-3 -15 -16.5 -26.5t-27.5 -11.5q-35 0 -100 30z" />
<glyph unicode="&#xc9;" horiz-adv-x="1282" d="M211 0q60 165 130 492l127 601q69 321 80 492l6 7q40 -7 124 -7h647q87 0 149 7l3 -7q-3 -13 -8.5 -29.5t-8.5 -27.5t-4 -20q-7 -27 -9 -63l-7 -10q-333 30 -661 30q-19 -38 -53 -172.5t-47 -199.5l-42 -201q70 0 134 1t103.5 2t95 4.5t74 5t77 6.5t69.5 6l6 -7 q-14 -33 -22 -70q-8 -32 -8 -68l-8 -8q-77 8 -187.5 14t-201 8t-155.5 2l-62 -296q-61 -304 -56 -359q146 0 320.5 7.5t275.5 14.5l102 7l4 -10q-14 -37 -23 -81q-2 -11 -3.5 -20.5t-3 -23.5t-3.5 -27l-7 -7q-58 7 -145 7h-671q-38 0 -70.5 -2t-45.5 -3l-14 -2zM892 1752 q3 15 12 26t34 26l351 211q94 -48 125 -127l-384 -143q-76 -29 -110 -29q-15 0 -23 10.5t-5 25.5z" />
<glyph unicode="&#xca;" horiz-adv-x="1282" d="M211 0q60 165 130 492l127 601q69 321 80 492l6 7q40 -7 124 -7h647q87 0 149 7l3 -7q-3 -13 -8.5 -29.5t-8.5 -27.5t-4 -20q-7 -27 -9 -63l-7 -10q-333 30 -661 30q-19 -38 -53 -172.5t-47 -199.5l-42 -201q70 0 134 1t103.5 2t95 4.5t74 5t77 6.5t69.5 6l6 -7 q-14 -33 -22 -70q-8 -32 -8 -68l-8 -8q-77 8 -187.5 14t-201 8t-155.5 2l-62 -296q-61 -304 -56 -359q146 0 320.5 7.5t275.5 14.5l102 7l4 -10q-14 -37 -23 -81q-2 -11 -3.5 -20.5t-3 -23.5t-3.5 -27l-7 -7q-58 7 -145 7h-671q-38 0 -70.5 -2t-45.5 -3l-14 -2zM802 1747 q124 81 292 232h106q76 -123 199 -232l-50 -51q-139 71 -229 152q-143 -90 -294 -152z" />
<glyph unicode="&#xcb;" horiz-adv-x="1282" d="M211 0q60 165 130 492l127 601q69 321 80 492l6 7q40 -7 124 -7h647q87 0 149 7l3 -7q-3 -13 -8.5 -29.5t-8.5 -27.5t-4 -20q-7 -27 -9 -63l-7 -10q-333 30 -661 30q-19 -38 -53 -172.5t-47 -199.5l-42 -201q70 0 134 1t103.5 2t95 4.5t74 5t77 6.5t69.5 6l6 -7 q-14 -33 -22 -70q-8 -32 -8 -68l-8 -8q-77 8 -187.5 14t-201 8t-155.5 2l-62 -296q-61 -304 -56 -359q146 0 320.5 7.5t275.5 14.5l102 7l4 -10q-14 -37 -23 -81q-2 -11 -3.5 -20.5t-3 -23.5t-3.5 -27l-7 -7q-58 7 -145 7h-671q-38 0 -70.5 -2t-45.5 -3l-14 -2zM749 1846 q10 47 52.5 82t90 35t75 -35t17.5 -82.5t-52.5 -82.5t-90.5 -35q-31 0 -54.5 16t-34 43t-3.5 59zM1213 1845.5q10 47.5 52.5 82.5t90.5 35t75.5 -35t18 -82.5t-53 -82.5t-90.5 -35q-48 0 -75.5 35t-17.5 82.5z" />
<glyph unicode="&#xce;" horiz-adv-x="720" d="M236 0q57 157 129 492l128 601q67 312 79 492l8 7q39 -7 123 -7q39 0 71 2t46 4l13 1v-7q-55 -150 -129 -492l-128 -601q-67 -312 -79 -492l-7 -7q-40 7 -124 7q-38 0 -70.5 -2t-45.5 -3l-14 -2v7zM433 1747q121 78 292 232h105q75 -120 201 -232l-51 -51 q-138 71 -229 152q-140 -88 -295 -152z" />
<glyph unicode="&#xcf;" horiz-adv-x="720" d="M236 0q57 157 129 492l128 601q67 312 79 492l8 7q39 -7 123 -7q39 0 71 2t46 4l13 1v-7q-55 -150 -129 -492l-128 -601q-67 -312 -79 -492l-7 -7q-40 7 -124 7q-38 0 -70.5 -2t-45.5 -3l-14 -2v7zM402 1843q10 48 52.5 83t90 35t75 -35t17.5 -82.5t-52.5 -82.5t-90 -35 t-75 34.5t-17.5 82.5zM866 1843q10 48 52.5 83t90.5 35t75.5 -35t17.5 -82.5t-52.5 -82.5t-90.5 -35q-31 0 -55 16t-34 43t-4 58z" />
<glyph unicode="&#xd4;" horiz-adv-x="1698" d="M242 557q0 135 32 263.5t88 235.5t127 195t155 159q119 99 257.5 153.5t285.5 54.5q280 0 441.5 -160.5t161.5 -435.5q0 -104 -21 -209t-57 -194t-83.5 -171t-99 -145t-106.5 -111q-118 -105 -266.5 -160.5t-316.5 -55.5q-180 0 -314.5 69t-209 200.5t-74.5 311.5z M500 566q0 -117 30.5 -209t85.5 -151.5t130 -90.5t166 -31q240 0 402 218q92 123 159.5 341.5t67.5 424.5q0 440 -409 440q-196 0 -348 -157q-40 -41 -79.5 -100.5t-76.5 -138.5t-65.5 -165t-45.5 -185.5t-17 -195.5zM852 1762q125 80 293 231h105q76 -122 200 -231l-51 -52 q-135 70 -228 152q-140 -88 -295 -152z" />
<glyph unicode="&#xd6;" horiz-adv-x="1698" d="M242 557q0 135 32 263.5t88 235.5t127 195t155 159q119 99 257.5 153.5t285.5 54.5q280 0 441.5 -160.5t161.5 -435.5q0 -104 -21 -209t-57 -194t-83.5 -171t-99 -145t-106.5 -111q-118 -105 -266.5 -160.5t-316.5 -55.5q-180 0 -314.5 69t-209 200.5t-74.5 311.5z M500 566q0 -117 30.5 -209t85.5 -151.5t130 -90.5t166 -31q240 0 402 218q92 123 159.5 341.5t67.5 424.5q0 440 -409 440q-196 0 -348 -157q-40 -41 -79.5 -100.5t-76.5 -138.5t-65.5 -165t-45.5 -185.5t-17 -195.5zM650 1742q7 30 28 55.5t50 40.5t59 15q46 0 71.5 -32.5 t15.5 -78.5t-49 -78t-85 -32t-72.5 32.5t-17.5 77.5zM1560 1742.5q6 30.5 26.5 55.5t49 40t58.5 15q46 0 71.5 -32.5t15.5 -78t-49.5 -78t-85.5 -32.5q-30 0 -52 14.5t-31 40t-3 56z" />
<glyph unicode="&#xd9;" horiz-adv-x="1623" d="M314.5 427q2.5 71 20.5 153l109 513q67 312 79 492l7 7q40 -7 124 -7q38 0 70.5 2t45.5 4l14 1l1 -7q-58 -158 -130 -492l-92 -432q-7 -30 -11.5 -54.5t-10 -69.5t-6 -81t4.5 -83t17.5 -83t37 -73t59.5 -61.5t88 -39.5t120 -15t126 11t105 29.5t86 48.5t69 61.5 t54.5 74.5t43 81.5t33.5 89.5t25.5 90.5t21.5 92.5l87 413q67 312 79 492l8 7q24 -7 84 -7q11 0 22 0.5t19.5 1t16 1.5t12.5 1.5t9 1.5t6 1h2l1 -7q-58 -158 -129 -492l-78 -368q-21 -98 -46 -180t-61 -160t-80.5 -139t-104 -113t-131 -85.5t-162 -52.5t-196.5 -19 q-39 0 -77.5 4t-81 14.5t-80.5 26.5t-74.5 41.5t-65.5 58.5t-50.5 79t-32 101t-8 126zM895 1900q90 72 210 110l255 -206q30 -26 25 -52q-3 -14 -16.5 -25t-28.5 -11q-37 0 -99 29z" />
<glyph unicode="&#xdb;" horiz-adv-x="1623" d="M314.5 427q2.5 71 20.5 153l109 513q67 312 79 492l7 7q40 -7 124 -7q38 0 70.5 2t45.5 4l14 1l1 -7q-58 -158 -130 -492l-92 -432q-7 -30 -11.5 -54.5t-10 -69.5t-6 -81t4.5 -83t17.5 -83t37 -73t59.5 -61.5t88 -39.5t120 -15t126 11t105 29.5t86 48.5t69 61.5 t54.5 74.5t43 81.5t33.5 89.5t25.5 90.5t21.5 92.5l87 413q67 312 79 492l8 7q24 -7 84 -7q11 0 22 0.5t19.5 1t16 1.5t12.5 1.5t9 1.5t6 1h2l1 -7q-58 -158 -129 -492l-78 -368q-21 -98 -46 -180t-61 -160t-80.5 -139t-104 -113t-131 -85.5t-162 -52.5t-196.5 -19 q-39 0 -77.5 4t-81 14.5t-80.5 26.5t-74.5 41.5t-65.5 58.5t-50.5 79t-32 101t-8 126zM931 1747q125 81 293 232h106q76 -123 199 -232l-51 -51q-135 69 -228 152q-140 -88 -295 -152z" />
<glyph unicode="&#xdc;" horiz-adv-x="1623" d="M314.5 427q2.5 71 20.5 153l109 513q67 312 79 492l7 7q40 -7 124 -7q38 0 70.5 2t45.5 4l14 1l1 -7q-58 -158 -130 -492l-92 -432q-7 -30 -11.5 -54.5t-10 -69.5t-6 -81t4.5 -83t17.5 -83t37 -73t59.5 -61.5t88 -39.5t120 -15t126 11t105 29.5t86 48.5t69 61.5 t54.5 74.5t43 81.5t33.5 89.5t25.5 90.5t21.5 92.5l87 413q67 312 79 492l8 7q24 -7 84 -7q11 0 22 0.5t19.5 1t16 1.5t12.5 1.5t9 1.5t6 1h2l1 -7q-58 -158 -129 -492l-78 -368q-21 -98 -46 -180t-61 -160t-80.5 -139t-104 -113t-131 -85.5t-162 -52.5t-196.5 -19 q-39 0 -77.5 4t-81 14.5t-80.5 26.5t-74.5 41.5t-65.5 58.5t-50.5 79t-32 101t-8 126zM916 1742q6 31 26.5 56t49 40t58.5 15q46 0 71.5 -32.5t16 -78t-49 -78t-85.5 -32.5t-71.5 32.5t-15.5 77.5zM1319 1742q6 31 26.5 56t49 40t58.5 15q46 0 71.5 -32.5t15.5 -78.5 t-49 -78t-85 -32t-71.5 32.5t-15.5 77.5z" />
<glyph unicode="&#xdf;" horiz-adv-x="1306" d="M-287 -533q33 46 101 202l24 2q7 -25 24.5 -46t45 -34t57.5 -13q38 0 69 18t56 55t44.5 79t40.5 103q16 46 37.5 137t38.5 175t44.5 222t42.5 213l74 327q5 23 0 31t-22 8h-110q-17 0 -17 13l12 61q8 35 50 35q63 0 107 19q24 40 36 98q16 77 49.5 149.5t71.5 125 t82 96.5q173 173 362 173q76 0 124 -12t84 -41q47 -37 67 -88t20 -104q0 -230 -344 -453l-1 -5q53 -41 90.5 -73t83.5 -82t75 -97t49 -109t20 -128q0 -60 -10 -114.5t-25.5 -97.5t-39 -84t-47 -71.5t-53.5 -62.5q-56 -60 -131 -89t-179 -29q-56 0 -113 15.5t-84.5 29 t-41.5 23.5l-1 8q11 13 19 25.5t15.5 26.5t12.5 24.5t14 30.5t16 35l27 3q15 -44 61 -87.5t94 -43.5q52 0 94.5 33.5t73.5 92.5q71 133 71 282q0 136 -74 266t-196 240l7 33q1 1 22 13.5t41 25.5t51.5 38t57.5 50.5t54.5 62.5t48.5 75.5t33 88t13 101.5q0 73 -33.5 117.5 t-104.5 44.5q-34 0 -78 -22.5t-87 -63.5t-69 -90q-9 -15 -16.5 -32.5l-13.5 -31.5t-13.5 -36.5l-11.5 -34.5t-11 -38.5t-10 -36.5t-10 -40.5t-9 -37.5t-9.5 -41t-8.5 -39l-207 -922q-36 -164 -104 -311t-143 -233q-161 -188 -368 -188q-31 0 -64.5 8.5t-46.5 18.5z" />
<glyph unicode="&#xe0;" horiz-adv-x="1164" d="M148 288q0 93 31.5 191.5t83.5 183.5t119.5 161.5t139 130.5t143 85.5t129.5 31.5q130 0 196 -8q26 -4 103 2t84 6l-174 -732q-20 -88 -20 -158q0 -39 19.5 -59t52.5 -20q54 0 117 17l5 -7v-64q-32 -17 -47 -24t-50 -21.5t-68.5 -21t-68.5 -6.5q-29 0 -55 7t-48.5 21.5 t-35.5 40.5t-13 61q0 41 18 115l31 128l-5 5q-32 -48 -54 -79.5t-51.5 -71.5t-52 -65t-50.5 -54t-53 -46.5t-54 -32.5t-59 -22t-63 -7q-59 0 -104.5 19.5t-72.5 50t-44 73.5t-23 83.5t-6 85.5zM349 326q0 -106 27 -157t88 -51q40 0 112 58t153 157.5t139 205.5 q27 70 48.5 171.5t29.5 168.5l8 67q-65 25 -152 25q-81 0 -165 -64.5t-146 -160t-102 -209.5t-40 -211zM714 1571l11 26q89 57 171 57q17 0 36 -5l107 -310q9 -29 3 -59q-2 -9 -16 -18t-28 -9q-20 0 -61 49z" />
<glyph unicode="&#xe2;" horiz-adv-x="1164" d="M148 288q0 93 31.5 191.5t83.5 183.5t119.5 161.5t139 130.5t143 85.5t129.5 31.5q130 0 196 -8q26 -4 103 2t84 6l-174 -732q-20 -88 -20 -158q0 -39 19.5 -59t52.5 -20q54 0 117 17l5 -7v-64q-32 -17 -47 -24t-50 -21.5t-68.5 -21t-68.5 -6.5q-29 0 -55 7t-48.5 21.5 t-35.5 40.5t-13 61q0 41 18 115l31 128l-5 5q-32 -48 -54 -79.5t-51.5 -71.5t-52 -65t-50.5 -54t-53 -46.5t-54 -32.5t-59 -22t-63 -7q-59 0 -104.5 19.5t-72.5 50t-44 73.5t-23 83.5t-6 85.5zM349 326q0 -106 27 -157t88 -51q40 0 112 58t153 157.5t139 205.5 q27 70 48.5 171.5t29.5 168.5l8 67q-65 25 -152 25q-81 0 -165 -64.5t-146 -160t-102 -209.5t-40 -211zM510 1288q57 51 86 77.5t77 72.5t86.5 86t72.5 80h122q52 -127 181 -316l-59 -35q-48 42 -78 70.5t-67.5 69t-67.5 82.5q-130 -111 -311 -222z" />
<glyph unicode="&#xe4;" horiz-adv-x="1164" d="M148 288q0 93 31.5 191.5t83.5 183.5t119.5 161.5t139 130.5t143 85.5t129.5 31.5q130 0 196 -8q26 -4 103 2t84 6l-174 -732q-20 -88 -20 -158q0 -39 19.5 -59t52.5 -20q54 0 117 17l5 -7v-64q-32 -17 -47 -24t-50 -21.5t-68.5 -21t-68.5 -6.5q-29 0 -55 7t-48.5 21.5 t-35.5 40.5t-13 61q0 41 18 115l31 128l-5 5q-32 -48 -54 -79.5t-51.5 -71.5t-52 -65t-50.5 -54t-53 -46.5t-54 -32.5t-59 -22t-63 -7q-59 0 -104.5 19.5t-72.5 50t-44 73.5t-23 83.5t-6 85.5zM349 326q0 -106 27 -157t88 -51q40 0 112 58t153 157.5t139 205.5 q27 70 48.5 171.5t29.5 168.5l8 67q-65 25 -152 25q-81 0 -165 -64.5t-146 -160t-102 -209.5t-40 -211zM541 1414q10 46 50.5 79t86.5 33t72.5 -33.5t16.5 -79t-50.5 -79.5t-86.5 -34t-72.5 34t-16.5 80zM954 1426q10 46 50.5 79t86.5 33t72 -33.5t16.5 -79t-50 -79 t-86.5 -33.5t-72.5 33.5t-16.5 79.5z" />
<glyph unicode="&#xe6;" horiz-adv-x="1687" d="M149 248q33 156 216 256t495 122q23 115 19 191t-46.5 113.5t-130.5 37.5q-76 0 -163.5 -63t-160.5 -155l-31 2l-5 165l10 9q38 27 69 46.5t85.5 47.5t116.5 43.5t125 15.5q20 0 39 -1.5t51.5 -6.5t61 -16.5t58 -29.5t53 -48.5t37.5 -69.5q77 82 178.5 127t207.5 45 q51 0 94.5 -10.5t75 -28t58 -40.5t42 -49t28 -53.5t16 -52.5t5.5 -47.5t-3 -37.5q-28 -124 -102 -178q-35 -17 -94.5 -25t-119.5 -9.5t-180 -4t-221 -8.5q-41 -195 17 -311t197 -116q91 0 174 45.5t164 121.5l34 -69q-76 -101 -195.5 -165.5t-239.5 -64.5q-46 0 -86 7 t-68 15.5t-53.5 25.5t-40 28.5t-31 33t-22 30.5t-17.5 29q-212 -169 -404 -169q-188 0 -264.5 71.5t-48.5 200.5zM353 260q-35 -162 140 -162q71 0 145.5 39.5t113.5 108.5q19 33 43.5 112t44.5 170q-121 -11 -212.5 -36.5t-147 -62t-86.5 -78t-41 -91.5zM1056 634 q58 3 119 4t99.5 1t78.5 1t64 4t47.5 10t36.5 19.5t23.5 31.5t16.5 47q5 20 4 44t-5 48t-15.5 46.5t-26.5 39.5t-38.5 27.5t-51.5 10.5q-77 0 -145.5 -40t-121.5 -115.5t-85 -178.5z" />
<glyph unicode="&#xe7;" horiz-adv-x="969" d="M188 382q0 154 55 280t147 221q89 93 197.5 144.5t209.5 51.5q81 0 156.5 -19t120.5 -50l5 -7l-96 -201l-27 -3q-26 86 -73.5 133.5t-110.5 47.5q-66 0 -128.5 -42.5t-114.5 -121.5q-32 -51 -59 -116t-45 -148t-18 -161q0 -138 61 -215.5t161 -77.5q44 0 81.5 8t84 31.5 t94.5 64.5h9l31 -52q-80 -87 -161.5 -128t-174.5 -46l-79 -136q30 8 64 8q76 0 116.5 -42t25.5 -111q-17 -79 -102.5 -130.5t-198.5 -51.5q-56 0 -91.5 9.5t-81.5 32.5q8 40 38 65q32 -13 42 -16.5t29 -9.5t33 -7.5t32 -1.5q37 0 67 11t51 33.5t27 53.5q18 85 -62 85 q-64 0 -114 -14l-11 14l132 212q-147 18 -234.5 125t-87.5 277z" />
<glyph unicode="&#xe8;" horiz-adv-x="1048" d="M190 350q0 79 18.5 162t53.5 165t91 154.5t126 127.5t163.5 87.5t198.5 32.5q130 0 190 -51.5t60 -137.5q0 -25 -4 -49.5t-20 -62t-43 -69.5t-78 -67.5t-120 -61.5t-175.5 -45.5t-236.5 -24.5q0 -5 -2 -27.5t-3.5 -43.5t-1.5 -31q0 -155 58.5 -234.5t146.5 -79.5 t196.5 71.5t161.5 163.5l14 -3q2 -9 5.5 -38t8 -52t10.5 -34q-74 -103 -204 -164.5t-283 -61.5q-100 0 -176.5 52t-115.5 136.5t-39 185.5zM426 595q89 4 160.5 16t132.5 35t102 56.5t63.5 82t22.5 109.5q0 49 -29.5 72.5t-92.5 23.5q-39 0 -74.5 -9t-77.5 -35t-77.5 -68.5 t-70 -114.5t-59.5 -168zM624 1571l10 26q89 57 172 57q16 0 35 -5l107 -310q9 -29 2 -59q-1 -9 -15 -18t-28 -9q-7 0 -15 4.5t-18.5 15t-26.5 29.5z" />
<glyph unicode="&#xe9;" horiz-adv-x="1048" d="M190 350q0 79 18.5 162t53.5 165t91 154.5t126 127.5t163.5 87.5t198.5 32.5q130 0 190 -51.5t60 -137.5q0 -25 -4 -49.5t-20 -62t-43 -69.5t-78 -67.5t-120 -61.5t-175.5 -45.5t-236.5 -24.5q0 -5 -2 -27.5t-3.5 -43.5t-1.5 -31q0 -155 58.5 -234.5t146.5 -79.5 t196.5 71.5t161.5 163.5l14 -3q2 -9 5.5 -38t8 -52t10.5 -34q-74 -103 -204 -164.5t-283 -61.5q-100 0 -176.5 52t-115.5 136.5t-39 185.5zM426 595q89 4 160.5 16t132.5 35t102 56.5t63.5 82t22.5 109.5q0 49 -29.5 72.5t-92.5 23.5q-39 0 -74.5 -9t-77.5 -35t-77.5 -68.5 t-70 -114.5t-59.5 -168zM642 1276q1 5 2.5 10t4 10t4.5 8t6.5 9t6.5 8.5t9 10.5t10 12l247 293q17 5 36 5q76 0 123 -57l2 -27l-339 -268q-56 -47 -84 -47q-13 0 -22 10t-6 23z" />
<glyph unicode="&#xea;" horiz-adv-x="1048" d="M190 350q0 79 18.5 162t53.5 165t91 154.5t126 127.5t163.5 87.5t198.5 32.5q130 0 190 -51.5t60 -137.5q0 -25 -4 -49.5t-20 -62t-43 -69.5t-78 -67.5t-120 -61.5t-175.5 -45.5t-236.5 -24.5q0 -5 -2 -27.5t-3.5 -43.5t-1.5 -31q0 -155 58.5 -234.5t146.5 -79.5 t196.5 71.5t161.5 163.5l14 -3q2 -9 5.5 -38t8 -52t10.5 -34q-74 -103 -204 -164.5t-283 -61.5q-100 0 -176.5 52t-115.5 136.5t-39 185.5zM426 595q89 4 160.5 16t132.5 35t102 56.5t63.5 82t22.5 109.5q0 49 -29.5 72.5t-92.5 23.5q-39 0 -74.5 -9t-77.5 -35t-77.5 -68.5 t-70 -114.5t-59.5 -168zM432 1288q71 64 113.5 103.5t102.5 100t104 112.5h123q51 -127 181 -316l-59 -35q-73 64 -121 112.5t-92 109.5q-134 -113 -310 -222z" />
<glyph unicode="&#xeb;" horiz-adv-x="1048" d="M190 350q0 79 18.5 162t53.5 165t91 154.5t126 127.5t163.5 87.5t198.5 32.5q130 0 190 -51.5t60 -137.5q0 -25 -4 -49.5t-20 -62t-43 -69.5t-78 -67.5t-120 -61.5t-175.5 -45.5t-236.5 -24.5q0 -5 -2 -27.5t-3.5 -43.5t-1.5 -31q0 -155 58.5 -234.5t146.5 -79.5 t196.5 71.5t161.5 163.5l14 -3q2 -9 5.5 -38t8 -52t10.5 -34q-74 -103 -204 -164.5t-283 -61.5q-100 0 -176.5 52t-115.5 136.5t-39 185.5zM426 595q89 4 160.5 16t132.5 35t102 56.5t63.5 82t22.5 109.5q0 49 -29.5 72.5t-92.5 23.5q-39 0 -74.5 -9t-77.5 -35t-77.5 -68.5 t-70 -114.5t-59.5 -168zM480 1414q10 46 50.5 79t86.5 33t72 -33.5t16.5 -79t-50 -79.5t-86.5 -34t-72.5 34t-16.5 80zM893 1426q10 46 50.5 79t86.5 33t72 -33.5t16 -79t-50.5 -79t-86 -33.5t-72 33.5t-16.5 79.5z" />
<glyph unicode="&#xee;" horiz-adv-x="657" d="M206 0q59 164 119 443l29 134q67 311 70 445l6 8q111 8 226 49q24 0 18 -24q-36 -108 -59.5 -199.5t-55.5 -238.5l-37 -174q-32 -150 -47.5 -246.5t-22.5 -196.5l-6 -7q-33 7 -117 7q-39 0 -69 -2t-41 -3l-11 -2zM263 1288q71 64 113.5 103.5t102.5 100t104 112.5h123 q51 -127 181 -316l-59 -35q-48 42 -78 70.5t-67.5 69t-68.5 82.5q-133 -113 -309 -222z" />
<glyph unicode="&#xef;" horiz-adv-x="657" d="M206 0q59 164 119 443l29 134q67 311 70 445l6 8q111 8 226 49q24 0 18 -24q-36 -108 -59.5 -199.5t-55.5 -238.5l-37 -174q-32 -150 -47.5 -246.5t-22.5 -196.5l-6 -7q-33 7 -117 7q-39 0 -69 -2t-41 -3l-11 -2zM286 1414q4 22 18 43t32 36t41 24t45 9q46 0 72.5 -33.5 t16.5 -79t-50.5 -79.5t-86 -34t-72 34t-16.5 80zM698.5 1426q9.5 46 50 79t86.5 33t72.5 -33.5t16.5 -79t-50.5 -79t-86.5 -33.5t-72 33.5t-16.5 79.5z" />
<glyph unicode="&#xf4;" horiz-adv-x="1203" d="M182 383q0 140 48.5 258.5t128.5 209.5q89 103 213 165.5t264 62.5q74 0 135.5 -15.5t105 -43t76.5 -65t52.5 -83.5t28.5 -95t9 -103q0 -167 -81 -330.5t-216 -261.5q-145 -106 -350 -106q-101 0 -181 32t-130 88t-76.5 129t-26.5 158zM410 394q0 -318 231 -318 q59 0 123 30.5t117 97.5q31 39 54 81t44.5 100.5t33 137t11.5 172.5q0 283 -221 283q-68 0 -130.5 -35t-110 -94t-82 -133t-52.5 -156q-18 -84 -18 -166zM535 1288q71 64 114 103.5t102.5 100t104.5 112.5h122q52 -127 181 -316l-59 -35q-73 64 -121 112.5t-92 109.5 q-130 -111 -311 -222z" />
<glyph unicode="&#xf6;" horiz-adv-x="1203" d="M182 383q0 140 48.5 258.5t128.5 209.5q89 103 213 165.5t264 62.5q74 0 135.5 -15.5t105 -43t76.5 -65t52.5 -83.5t28.5 -95t9 -103q0 -167 -81 -330.5t-216 -261.5q-145 -106 -350 -106q-101 0 -181 32t-130 88t-76.5 129t-26.5 158zM410 394q0 -318 231 -318 q59 0 123 30.5t117 97.5q31 39 54 81t44.5 100.5t33 137t11.5 172.5q0 283 -221 283q-68 0 -130.5 -35t-110 -94t-82 -133t-52.5 -156q-18 -84 -18 -166zM567.5 1413.5q9.5 45.5 51 79t87.5 33.5t72 -33.5t16 -79t-50.5 -79.5t-85.5 -34q-46 0 -73 34t-17.5 79.5zM982 1426 q10 46 50.5 79t86 33t72 -33.5t16.5 -79t-50.5 -79t-86.5 -33.5t-72 33.5t-16 79.5z" />
<glyph unicode="&#xf9;" horiz-adv-x="1262" d="M260 211.5q1 46.5 12 98.5l64 302q34 161 49.5 253.5t20.5 189.5l7 7q32 -7 116 -7q39 0 69 1.5t41 3.5l11 2l2 -7q-35 -90 -60 -185.5t-59 -257.5l-52 -244q-14 -65 -16.5 -110.5t4 -74.5t25.5 -45t44 -22t63 -6q39 0 82.5 17t87 47.5t75 57t68.5 61.5l69 319 q23 109 34.5 170.5t21.5 133t13 139.5l6 7q33 -7 117 -7q38 0 68.5 1.5t42.5 3.5l11 2l1 -7q-34 -90 -59 -185.5t-59 -257.5l-30 -140q-54 -251 -59 -472l-6 -7q-47 7 -108 7q-19 0 -87 -7q-22 0 -20 7l22 157h-5q-81 -70 -155 -112t-127.5 -55.5t-108.5 -13.5 q-67 0 -114.5 19t-73.5 50.5t-37.5 75.5t-10.5 90.5zM690 1571l11 26q89 57 171 57q17 0 36 -5l106 -310q9 -29 2 -59q-1 -9 -14.5 -18t-27.5 -9q-20 0 -61 49z" />
<glyph unicode="&#xfb;" horiz-adv-x="1262" d="M260 211.5q1 46.5 12 98.5l64 302q34 161 49.5 253.5t20.5 189.5l7 7q32 -7 116 -7q39 0 69 1.5t41 3.5l11 2l2 -7q-35 -90 -60 -185.5t-59 -257.5l-52 -244q-14 -65 -16.5 -110.5t4 -74.5t25.5 -45t44 -22t63 -6q39 0 82.5 17t87 47.5t75 57t68.5 61.5l69 319 q23 109 34.5 170.5t21.5 133t13 139.5l6 7q33 -7 117 -7q38 0 68.5 1.5t42.5 3.5l11 2l1 -7q-34 -90 -59 -185.5t-59 -257.5l-30 -140q-54 -251 -59 -472l-6 -7q-47 7 -108 7q-19 0 -87 -7q-22 0 -20 7l22 157h-5q-81 -70 -155 -112t-127.5 -55.5t-108.5 -13.5 q-67 0 -114.5 19t-73.5 50.5t-37.5 75.5t-10.5 90.5zM580 1288q71 64 113.5 103.5t102.5 100t104 112.5h122q52 -127 182 -316l-59 -35q-73 64 -121.5 112.5t-92.5 109.5q-130 -111 -311 -222z" />
<glyph unicode="&#xfc;" horiz-adv-x="1262" d="M260 211.5q1 46.5 12 98.5l64 302q34 161 49.5 253.5t20.5 189.5l7 7q32 -7 116 -7q39 0 69 1.5t41 3.5l11 2l2 -7q-35 -90 -60 -185.5t-59 -257.5l-52 -244q-14 -65 -16.5 -110.5t4 -74.5t25.5 -45t44 -22t63 -6q39 0 82.5 17t87 47.5t75 57t68.5 61.5l69 319 q23 109 34.5 170.5t21.5 133t13 139.5l6 7q33 -7 117 -7q38 0 68.5 1.5t42.5 3.5l11 2l1 -7q-34 -90 -59 -185.5t-59 -257.5l-30 -140q-54 -251 -59 -472l-6 -7q-47 7 -108 7q-19 0 -87 -7q-22 0 -20 7l22 157h-5q-81 -70 -155 -112t-127.5 -55.5t-108.5 -13.5 q-67 0 -114.5 19t-73.5 50.5t-37.5 75.5t-10.5 90.5zM588 1414q10 46 50.5 79t86.5 33t72 -33.5t16.5 -79t-50 -79.5t-86.5 -34t-72.5 34t-16.5 80zM1001 1426q10 46 50.5 79t86.5 33t72 -33.5t16 -79t-50.5 -79t-86 -33.5t-72 33.5t-16.5 79.5z" />
<glyph unicode="&#xff;" horiz-adv-x="1194" d="M107 -582q218 269 389 535q-27 165 -105 547t-121 562q32 -7 126 -7q89 0 122 7q6 -51 14 -107.5t14.5 -99.5t18.5 -110t17.5 -99t21 -111t19.5 -101t22.5 -113t21.5 -106h5q233 341 503 847q23 -7 93 -7q81 0 107 7q-147 -208 -553 -826t-509 -818q-15 5 -55 8.5 t-62 3.5q-45 0 -89 -12zM586 1414q4 22 18 43t32 36t41 24t45 9q46 0 72.5 -33.5t16.5 -79t-50.5 -79.5t-86 -34t-72 34t-16.5 80zM998 1426q7 30 28 56t50 41t59 15q46 0 72.5 -33.5t16.5 -79t-50.5 -79t-86.5 -33.5t-72 33.5t-17 79.5z" />
<glyph unicode="&#x152;" horiz-adv-x="2059" d="M248 569.5q-4 101.5 21 211.5q35 166 116.5 313t197 256.5t268 173.5t319.5 64q174 -3 286 -3h645q88 0 149 7l4 -7q-19 -68 -21 -77q-8 -35 -9 -63l-6 -10q-335 30 -663 30q-19 -37 -52 -170.5t-46 -201.5l-43 -201q60 0 112.5 0.5t99 2t79.5 3t74.5 4.5t62.5 4.5 t64.5 5t60.5 5.5l6 -7q-15 -33 -23 -70q-7 -32 -7 -68l-9 -8q-112 12 -273.5 18t-268.5 6l-64 -296q-60 -304 -56 -359q146 0 320.5 7.5t276.5 14.5l101 7l4 -10q-11 -30 -22 -81q-3 -17 -10 -71l-6 -7q-58 7 -147 7h-671l-259 -5q-114 1 -210.5 28.5t-168.5 78 t-124.5 121.5t-78 158t-29.5 188.5zM497 534.5q4 -117.5 32.5 -201.5t82 -137.5t119.5 -79t144 -25.5h32q72 0 103 22.5t42 76.5l257 1208q12 55 -10.5 73t-94.5 18h-87q-75 0 -142.5 -20.5t-136 -70t-125 -126t-105.5 -196t-81 -272.5q-34 -152 -30 -269.5z" />
<glyph unicode="&#x153;" horiz-adv-x="1904" d="M176.5 335q-3.5 80 14.5 171q17 81 47 152.5t69 129t87 105t101 81.5t110.5 58t116 35.5t117.5 11.5q72 0 128.5 -12.5t92.5 -31.5t64.5 -50t44.5 -59.5t31 -67.5q96 105 214.5 163t225.5 58q94 0 162.5 -26.5t105.5 -69t54.5 -101t16.5 -118.5t-15 -126q-8 -40 -52 -40 h-662q-17 -92 -17.5 -163t17.5 -124t44 -89.5t62.5 -59t72 -32.5t71.5 -10q101 0 186.5 33.5t165.5 104.5l34 -64q-95 -99 -216.5 -158.5t-248.5 -59.5q-146 0 -244 54.5t-144 151.5q-46 -52 -86.5 -86t-94.5 -63t-121.5 -43t-153.5 -14q-92 0 -166 26t-123 73.5 t-78.5 113.5t-33 146zM405 387q-1 -89 20 -161t73.5 -112.5t133.5 -40.5q39 0 77 9.5t83.5 37.5t83.5 72.5t73.5 121t56.5 176.5q25 112 21 196t-22.5 140.5t-52 91.5t-67.5 50t-69 15q-60 0 -116.5 -25.5t-100 -67t-79 -94.5t-58 -107.5t-34.5 -106.5q-22 -106 -23 -195z M1280 706h446q34 0 42 33q12 55 7.5 96t-17.5 69t-37 45t-49 24t-53 7q-15 0 -31.5 -1.5t-43.5 -8t-52 -17.5t-55.5 -32t-57 -49t-53 -71t-46.5 -95z" />
<glyph unicode="&#x178;" horiz-adv-x="1452" d="M378 1592q41 -7 138 -7q98 0 142 7q27 -90 62 -193.5t62.5 -177t73.5 -195t72 -190.5q361 425 590 756q28 -7 102 -7q71 0 104 7q-90 -104 -211.5 -243.5t-185.5 -213t-139 -161.5t-125.5 -151.5t-91.5 -120.5q-115 -568 -132 -709q-39 7 -126 7t-127 -7q47 151 162 683 q-32 83 -106 271t-153.5 382.5t-110.5 262.5zM831.5 1845.5q9.5 45.5 51 79t87.5 33.5t72 -33.5t16 -79t-50.5 -79t-86 -33.5t-72.5 33.5t-17.5 79zM1225 1846q10 46 50.5 79t86.5 33t73 -33.5t17 -78.5q-5 -23 -18.5 -44t-32.5 -36t-41.5 -24t-45.5 -9q-46 0 -72.5 33.5 t-16.5 79.5z" />
<glyph unicode="&#x2b0;" d="M234 894l10 44q3 14 13 14h19q43 1 55 13t21 53l135 636q9 27 4.5 45.5t-28.5 18.5q-29 0 -68 -10l7 54q113 13 205 54h35l-83 -390q21 19 44 36.5t55.5 39.5t68.5 35t67 13q184 0 136 -225l-65 -307q-3 -16 -4.5 -26.5t0.5 -18t5 -11t11 -6t15.5 -3.5t21.5 -1h16 q13 0 10 -14l-10 -44q-94 4 -152 4l-160 -4l10 44q3 14 14 14h28q38 2 52.5 13t22.5 53l60 282q36 168 -87 168q-25 0 -56.5 -17.5t-57 -39t-60.5 -55.5l-72 -338q-9 -39 2.5 -52.5t45.5 -13.5h26q4 0 7.5 -3.5t2.5 -10.5l-10 -44q-100 4 -161 4z" />
<glyph unicode="&#x2b2;" horiz-adv-x="507" d="M155 727q6 29 23.5 45t41.5 16q45 0 50 -70q-1 -7 1.5 -12.5t7 -8.5t10.5 -3q53 0 88.5 70.5t72.5 243.5l85 397q14 67 -23 67q-36 0 -90 -18l4 50q143 26 229 62h34l-108 -509q-34 -159 -63 -227t-90 -122q-67 -61 -141 -61q-54 0 -97 23t-35 57zM580 1745q6 30 30 50.5 t58 20.5q38 0 51.5 -21t7.5 -50q-6 -28 -31.5 -48.5t-57 -20.5t-48.5 20.5t-10 48.5z" />
<glyph unicode="&#x2b3;" horiz-adv-x="603" d="M252 898l10 45q2 13 18 13h44q42 0 54.5 12t19.5 50l83 387q14 67 -20 67t-93 -18l6 50q147 28 227 62h36l-35 -145h5q131 145 217 145q91 0 75 -77q-6 -31 -28 -47t-56 -16q-42 0 -59 26q-12 16 -29 16q-13 0 -44 -23t-67 -64q-23 -23 -29 -54l-66 -309q-9 -41 2 -51.5 t47 -10.5h43q4 0 7.5 -4t2.5 -9l-10 -45l-181 2z" />
<glyph unicode="&#x2b7;" horiz-adv-x="1093" d="M349 1506l10 42l2 2q66 -2 125 -2l154 2l1 -2l-9 -42q0 -5 -4 -8.5t-8 -3.5h-22q-43 0 -47 -22q-4 -18 3 -54l63 -376l183 318l-10 56q-8 48 -22 63t-48 15q-13 0 -10 12l10 42l2 2q94 -2 141 -2l135 2l4 -2l-8 -42q-2 -12 -15 -12q-36 0 -51 -5t-18 -21q-3 -12 1 -50 l60 -376l223 369q20 32 23 46q3 13 -3 21.5t-19.5 12t-36.5 3.5h-22q-3 0 -5.5 4t-1.5 8l9 42l2 2q99 -2 150 -2l101 2l2 -2l-8 -42q-3 -12 -21 -12q-28 0 -55 -19.5t-56 -69.5l-299 -491q-23 -34 -59 -34q-19 0 -25 32l-61 364l-211 -362q-20 -34 -59 -34q-19 0 -25 32 l-81 504q-8 50 -22 64t-46 14q-6 0 -11.5 3.5t-4.5 8.5z" />
<glyph unicode="&#x2b8;" horiz-adv-x="830" d="M235 666q5 21 21.5 36.5t33.5 22.5t30 7q31 0 42 -19q1 -1 3.5 -4.5t3.5 -4.5l3.5 -3.5l3.5 -3.5t3.5 -3t3.5 -3t3.5 -2.5t4 -2t3.5 -1t4 -0.5q16 0 58.5 50.5t87.5 122.5q12 20 19 47q6 28 -5 87l-98 417q-5 20 -7 28.5t-7 21t-10 17t-13.5 10t-20 7t-28.5 1.5 q-5 0 -9 4t-3 8l9 42l6 5q65 -5 111 -5l198 5l2 -5l-9 -40q-1 -6 -7.5 -10t-12.5 -4q-65 0 -70 -26q-1 -4 -0.5 -14t1.5 -16l84 -371l245 366q11 15 15 35q3 15 -11.5 20.5t-44.5 5.5h-8q-5 0 -9 4t-3 8l10 42l3 5q102 -5 156 -5l107 5l4 -5l-9 -40q-3 -14 -20 -14 q-68 0 -127 -91q-178 -255 -405 -617q-29 -46 -54 -78t-57 -62.5t-67.5 -46t-74.5 -15.5q-12 0 -28 5t-32 14.5t-24.5 26t-4.5 36.5z" />
<glyph unicode="&#x2c6;" horiz-adv-x="856" d="M404 1325q71 64 114 103.5t103 100t104 113.5h123q54 -132 180 -317l-58 -35q-74 64 -122 113t-92 109q-133 -113 -310 -222z" />
<glyph unicode="&#x2da;" horiz-adv-x="886" d="M582 1649q12 55 51.5 102t94.5 74.5t111 27.5q86 0 137 -59.5t33 -144.5q-18 -83 -93.5 -143.5t-163.5 -60.5q-85 0 -136.5 60t-33.5 144zM672 1649q-7 -35 1 -66t32 -51t61 -20q54 0 97.5 41.5t54.5 95.5q8 37 -0.5 68.5t-33 50.5t-60.5 19q-55 0 -97.5 -40.5 t-54.5 -97.5z" />
<glyph unicode="&#x2dc;" horiz-adv-x="717" d="M314 1423q50 112 108 165.5t136 53.5q49 0 86 -18t76 -51q58 -54 116 -54q43 0 76.5 26.5t73.5 100.5l57 -14q-92 -221 -262 -221q-63 0 -144 64q-75 54 -121 54q-47 0 -80 -27.5t-65 -90.5z" />
<glyph unicode="&#x2e1;" horiz-adv-x="394" d="M234 894l10 44q3 12 13 14l19 2q45 5 56 15.5t20 50.5l123 580q15 77 10 99t-31 22l-51 2q-4 0 -6.5 2t-1.5 5l7 45q52 4 123 16.5t101 24.5q21 0 17 -17q-19 -64 -41 -167l-129 -612q-8 -36 3 -48.5t44 -17.5l19 -2q4 0 7.5 -3.5t1.5 -10.5l-9 -44q-94 4 -154 4z" />
<glyph unicode="&#x2e2;" horiz-adv-x="621" d="M275 910q18 89 33 216h54q-6 -23 0 -68.5t27 -72.5q16 -16 45 -30t66 -14q49 0 88 23.5t49 69.5t-11 81.5t-98 71.5q-22 10 -37 17.5t-32.5 17.5t-29 19t-23 20.5t-17.5 24t-10 27.5t-3.5 32.5t4.5 38.5q16 76 96.5 129t172.5 53q53 0 112.5 -14t78.5 -28l-17 -185 l-57 -2q-2 50 -15 85.5t-34 52t-40 23t-40 6.5q-48 0 -86 -25.5t-48 -73.5q-9 -43 8.5 -65.5t75.5 -49.5q56 -25 83.5 -40t62 -42.5t44.5 -61t1 -77.5q-10 -43 -35 -77t-56 -54.5t-68 -34t-68 -18.5t-59 -5q-40 0 -94.5 17t-75.5 17q-16 0 -47 -4z" />
<glyph unicode="&#x2e3;" d="M226 902l7 32q4 20 31 20q15 0 25.5 1.5t21.5 5t22.5 10.5t25 18t32.5 29q185 176 193 183l-121 249q-25 49 -68 49q-21 0 -27 4t-4 14l7 31l3 5q50 -3 147 -3q101 0 161 3l1 -7l-7 -29q-4 -18 -38 -18q-24 0 -28 -19q-2 -7 7 -47l65 -136l150 163q12 11 14 20t-7.5 14 t-33.5 5q-12 0 -17.5 4t-2.5 14l6 31l3 5q87 -5 125 -5q33 0 136 5l1 -7l-6 -27q-2 -9 -3.5 -12t-8.5 -5.5t-22 -2.5q-16 0 -27.5 -2t-21.5 -6t-22.5 -14t-24 -21t-32.5 -33l-179 -189l111 -212q7 -15 14 -25.5t18 -21t26.5 -16t34.5 -5.5q20 0 25 -5.5t3 -14.5l-7 -32 l-4 -8q-57 6 -137 6q-88 0 -175 -6l-1 6l5 24q7 30 33 30q35 0 37 14q2 8 -6 27q-66 121 -74 140l-137 -138q-20 -22 -21 -31q-2 -8 6.5 -10t32.5 -2q14 0 17 -5t1 -15l-7 -29l-4 -7q-49 2 -127 2q-35 0 -146 -6z" />
<glyph unicode="&#x2000;" horiz-adv-x="1007" />
<glyph unicode="&#x2001;" horiz-adv-x="2015" />
<glyph unicode="&#x2002;" horiz-adv-x="1007" />
<glyph unicode="&#x2003;" horiz-adv-x="2015" />
<glyph unicode="&#x2004;" horiz-adv-x="671" />
<glyph unicode="&#x2005;" horiz-adv-x="503" />
<glyph unicode="&#x2006;" horiz-adv-x="335" />
<glyph unicode="&#x2007;" horiz-adv-x="335" />
<glyph unicode="&#x2008;" horiz-adv-x="251" />
<glyph unicode="&#x2009;" horiz-adv-x="403" />
<glyph unicode="&#x200a;" horiz-adv-x="111" />
<glyph unicode="&#x2010;" horiz-adv-x="817" d="M209 580q0 32 31 74t53 42h563q24 0 24 -30q0 -28 -30.5 -73t-55.5 -45h-555q-14 0 -22 9t-8 23z" />
<glyph unicode="&#x2011;" horiz-adv-x="817" d="M209 580q0 32 31 74t53 42h563q24 0 24 -30q0 -28 -30.5 -73t-55.5 -45h-555q-14 0 -22 9t-8 23z" />
<glyph unicode="&#x2012;" horiz-adv-x="817" d="M209 580q0 32 31 74t53 42h563q24 0 24 -30q0 -28 -30.5 -73t-55.5 -45h-555q-14 0 -22 9t-8 23z" />
<glyph unicode="&#x2013;" horiz-adv-x="1311" d="M244 626q4 24 31 52t49 28h994q34 0 25 -42q-5 -25 -31.5 -52.5t-49.5 -27.5h-993q-33 0 -25 42z" />
<glyph unicode="&#x2014;" horiz-adv-x="1822" d="M196 584l25 122h1681l-25 -122h-1681z" />
<glyph unicode="&#x2018;" horiz-adv-x="657" d="M486 1383.5q-1 42.5 10 103.5q17 82 75.5 151.5t133 111.5t153.5 56q21 -23 0 -61q-93 -23 -168.5 -86.5t-84.5 -108.5q-2 -15 -2.5 -25.5t4.5 -17.5t10 -11t14 -6t15.5 -2.5t15.5 -0.5q60 -14 83 -35.5t25 -79.5l-1 -10q-28 -49 -65 -80t-97 -53h-9q-33 13 -55.5 31.5 t-39 49.5t-17.5 73.5z" />
<glyph unicode="&#x2019;" horiz-adv-x="657" d="M430 1156q-21 22 1 61q48 11 94 36t78.5 53.5t54 56.5t25.5 48q2 11 2.5 20t-1.5 15.5t-5 11.5t-8.5 8t-10 4.5t-11.5 2.5t-12 1.5t-12 0.5q-60 14 -82.5 35t-25.5 80l3 10q28 49 64.5 80t95.5 53h10q33 -13 55.5 -31.5t39 -50t17.5 -74t-10 -102.5q-18 -82 -76 -152 t-132.5 -111.5t-153.5 -55.5z" />
<glyph unicode="&#x201a;" horiz-adv-x="657" d="M115 -265q93 22 168.5 86t84.5 108q2 15 3 25.5t-4.5 17.5t-10 11.5t-14 6.5t-16 2.5t-15.5 0.5q-60 14 -83 35t-25 80l1 10q28 49 65.5 80t96.5 53h10q32 -13 54.5 -31.5t39 -50t17.5 -74t-9 -102.5q-18 -82 -76.5 -152t-133 -111.5t-153.5 -55.5q-21 23 0 61z" />
<glyph unicode="&#x201c;" horiz-adv-x="921" d="M425 1386.5q-1 42.5 9 102.5q18 82 76.5 152t133 111.5t153.5 55.5q21 -23 0 -61q-93 -22 -168.5 -86t-84.5 -108q-4 -13 -3 -22.5t2.5 -16.5t7.5 -11.5t10.5 -7t12.5 -4t13.5 -2t13.5 -0.5q60 -14 83 -35t25 -80l-1 -10q-28 -49 -65 -80t-96 -53h-11q-32 13 -54.5 31.5 t-39 50t-17.5 74zM811 1386.5q-1 42.5 10 102.5q18 82 76 152t132.5 111.5t153.5 55.5q20 -22 -1 -61q-93 -22 -168 -86t-84 -108q-4 -13 -2.5 -22.5t3 -16.5t7 -11.5t10 -7t12.5 -4t14 -2t14 -0.5q59 -14 82 -35t26 -80l-3 -10q-28 -49 -64.5 -80t-96.5 -53h-9 q-33 13 -55.5 31.5t-39 50t-17.5 74z" />
<glyph unicode="&#x201d;" horiz-adv-x="921" d="M371 1156q-20 22 1 61q48 11 94 36t78.5 53.5t54 56.5t25.5 48q4 13 2.5 22.5t-3 16.5t-7 11.5t-10 7t-12.5 4t-14 2t-14 0.5q-59 14 -82 35t-26 80l3 10q19 33 40.5 56.5t51 42.5t69.5 34h9q33 -13 55.5 -31.5t39 -50t17.5 -74t-10 -102.5q-18 -82 -76 -152 t-132.5 -111.5t-153.5 -55.5zM757 1156q-21 23 0 61q93 22 168.5 86t84.5 108q4 13 3 22.5t-2.5 16.5t-7.5 11.5t-10.5 7t-12.5 4t-13.5 2t-13.5 0.5q-31 7 -48 13.5t-32 19t-21.5 32t-7.5 50.5l2 10q28 49 65 80t96 53h11q32 -13 54.5 -31.5t39 -50t17.5 -74t-9 -102.5 q-18 -82 -76.5 -152t-133 -111.5t-153.5 -55.5z" />
<glyph unicode="&#x201e;" horiz-adv-x="921" d="M55 -329q-20 22 1 61q48 12 94.5 37t79 53.5t53.5 56.5t25 48q2 15 3 25.5t-4.5 17.5t-10 11t-14 6t-16 2.5t-15.5 0.5q-60 14 -83 35.5t-25 80.5l2 9q29 50 65.5 80.5t95.5 52.5h10q32 -13 54.5 -31.5t39 -49.5t17.5 -73.5t-9 -103.5q-18 -82 -76.5 -151.5t-133 -111.5 t-153.5 -56zM442 -268q92 23 167.5 86.5t85.5 108.5q1 15 2 25.5t-4.5 17.5t-10 11t-13.5 6t-15.5 2.5t-16.5 0.5q-60 14 -82.5 35.5t-25.5 80.5l1 9q29 50 66 80.5t96 52.5h10q33 -13 55.5 -31.5t39 -49.5t17.5 -73.5t-10 -103.5q-11 -50 -37 -96t-62 -82.5t-80 -65.5 t-90.5 -47.5t-92.5 -27.5q-21 23 0 61z" />
<glyph unicode="&#x2022;" horiz-adv-x="861" d="M272.5 565q24.5 116 124 198.5t215.5 82.5t180.5 -82.5t40.5 -198.5t-124 -197.5t-216 -81.5t-180.5 81.5t-40 197.5z" />
<glyph unicode="&#x202f;" horiz-adv-x="403" />
<glyph unicode="&#x2039;" horiz-adv-x="872" d="M270 481l20 96q289 173 642 480l-28 -133q-237 -256 -428 -396q131 -127 261 -392l-29 -134q-224 346 -438 479z" />
<glyph unicode="&#x203a;" horiz-adv-x="872" d="M167 0l29 133q230 249 428 395q-132 128 -262 394l29 133q225 -347 439 -480l-20 -96q-297 -178 -643 -479z" />
<glyph unicode="&#x205f;" horiz-adv-x="503" />
<glyph unicode="&#x2070;" d="M339.5 1132q-8.5 72 9.5 151q18 85 58 161t91.5 130t114 85.5t125.5 31.5q45 0 83.5 -12.5t72.5 -41t52.5 -74.5t23 -112.5t-15.5 -155.5q-18 -85 -51 -155t-73 -117t-87 -79.5t-93 -47t-91 -14.5q-62 0 -110.5 33.5t-74.5 89t-34.5 127.5zM491 1271q-69 -330 83 -330 q35 0 65 14t53 42.5t40.5 61t33 79.5t26 87.5t22.5 94.5q11 54 14 105.5t-3.5 99.5t-32 77.5t-67.5 29.5q-32 0 -60 -13.5t-48.5 -34.5t-39 -53.5t-31 -62t-24 -69.5t-18 -66.5t-13.5 -61.5z" />
<glyph unicode="&#x2071;" horiz-adv-x="476" d="M264 898l11 45q2 13 17 13h44q42 0 54.5 12t19.5 50l83 387q14 67 -23 67q-31 0 -90 -18l6 50q147 28 227 62h34l-117 -548q-8 -41 4 -51.5t48 -10.5h44q4 0 7.5 -4t2.5 -9l-11 -45l-181 2zM538 1745q3 15 10.5 27.5t19 22.5t27.5 15.5t34 5.5q24 0 39 -11t17.5 -26.5 t-0.5 -33.5q-6 -29 -30 -49t-55 -20q-32 0 -50.5 20.5t-11.5 48.5z" />
<glyph unicode="&#x2074;" d="M330 1170q203 225 492 535l71 -24q-41 -47 -92 -103.5t-98 -107t-90.5 -97t-80 -86.5t-56.5 -63h230l39 190q3 13 27 40q51 52 74 52q7 0 14.5 -1t16 -3t13 -7t3.5 -13l-55 -258h120l-33 -84h-104q-28 -143 -35 -242l-4 -6q-21 6 -82 6q-28 0 -49 -1.5t-29 -3.5l-8 -1 l-1 6q44 111 75 242h-354z" />
<glyph unicode="&#x2075;" d="M325 973q5 23 25 37.5t40 14.5q12 0 21.5 -3t17 -9t12.5 -11t13 -14q12 -15 20 -23t27.5 -16t44.5 -8q78 0 127.5 55.5t66.5 138.5q5 20 7.5 35.5t3.5 39.5t-2.5 42t-13 38t-25.5 33t-43.5 22t-64.5 9q-70 0 -147 -34l-13 7l129 352h376l-30 -84l-1 -3h-308l-72 -199 q19 11 58.5 19.5t66.5 8.5q56 0 100 -14.5t70.5 -39t43 -58t17.5 -71t-6 -78.5q-24 -113 -124.5 -195.5t-225.5 -82.5q-45 0 -94.5 10t-85.5 32t-31 49z" />
<glyph unicode="&#x2076;" d="M356.5 1096.5q-1.5 49.5 10.5 113.5q14 62 44.5 124.5t83.5 123.5t122 109.5t165.5 82t206.5 41.5l-10 -47q-337 -57 -457 -354q36 30 86 53.5t93 23.5q49 0 87 -11t61 -28.5t38 -41t21.5 -45.5t8 -45.5t0.5 -38.5t-4 -27q-6 -28 -21.5 -59.5t-43 -65.5t-62.5 -61 t-85 -44.5t-106 -17.5q-32 0 -63 6.5t-62.5 21.5t-54.5 40t-40 61t-18.5 85.5zM485 1113.5q-1 -41.5 6 -69.5t19 -48.5t29 -32t34 -17t35 -5.5q39 0 68 13.5t47 40.5t28.5 55.5t18.5 67.5q4 15 6 28.5t2.5 33t-2 36.5t-10 34.5t-20 29.5t-34.5 20t-51 8q-70 0 -152 -58 q-2 -4 -12 -45q-11 -50 -12 -91.5z" />
<glyph unicode="&#x2077;" d="M421 898q101 191 227 389.5t199 290.5q-199 0 -421 -12q9 25 18 64q4 16 8 58q80 -9 408 -9h158q-141 -177 -280 -386.5t-233 -394.5h-84z" />
<glyph unicode="&#x2078;" d="M348 1084q13 61 87 124t164 105l-27 14q-122 65 -97 181q7 33 26 62t47 50.5t62 37.5t72.5 24.5t77.5 8.5q95 0 149.5 -46t39.5 -119q-4 -19 -11.5 -35t-26.5 -43t-59 -56.5t-97 -59.5l85 -52q104 -65 79 -178q-5 -26 -20 -54t-43.5 -58t-66 -53.5t-92.5 -39t-119 -15.5 q-35 0 -68.5 5t-68.5 19.5t-58.5 36t-34 58t-0.5 83.5zM469 1084q-8 -40 1 -69.5t30 -45.5t45 -23.5t48 -7.5q71 0 120.5 33.5t65.5 104.5q4 22 6 37.5t0.5 36t-9 36.5t-24 33t-42.5 31l-63 35q-43 -21 -104.5 -83t-73.5 -118zM593 1531q-20 -86 73 -143l44 -24 q23 12 48.5 36t47.5 58.5t29 67.5q24 108 -97 108q-56 0 -95 -25t-50 -78z" />
<glyph unicode="&#x2079;" d="M330 882l10 47q332 56 457 354q-38 -30 -88.5 -53t-92.5 -23q-44 0 -78.5 8.5t-56.5 23t-38.5 32t-24.5 38.5t-12.5 40t-4.5 39t1.5 32t3.5 22q5 24 16.5 50t30 54.5t45 53.5t58.5 46t74.5 33t89.5 12q28 0 54.5 -4.5t55 -15t51.5 -27.5t43.5 -42t30 -59t12 -78 t-10.5 -98q-13 -63 -44 -125.5t-85 -124t-123.5 -110t-166 -82.5t-207.5 -43zM537 1382.5q0 -22.5 6.5 -41.5t18.5 -36t36 -27t57 -10q75 0 155 54q1 4 2.5 14.5t3.5 19.5t4 16q10 49 11 89.5t-6 68.5t-19 48.5t-29 31.5t-34 16.5t-35 5.5q-31 0 -56.5 -10t-42 -25.5 t-29.5 -39.5t-20.5 -48t-14.5 -55q-4 -16 -6 -32.5t-2 -39z" />
<glyph unicode="&#x207a;" d="M324 1199l20 96h263l57 263h94l-55 -263h261l-21 -96h-260l-55 -261h-96l55 261h-263z" />
<glyph unicode="&#x207c;" d="M343 1165l18 83h565l-18 -83h-565zM382 1344l18 84h565l-18 -84h-565z" />
<glyph unicode="&#x207d;" horiz-adv-x="483" d="M360 1278q28 133 135 264t266 220l31 -27q-143 -122 -207.5 -220.5t-93.5 -236.5q-31 -137 -10 -229.5t117 -222.5l-42 -24q-138 102 -181.5 219t-14.5 257z" />
<glyph unicode="&#x207e;" horiz-adv-x="483" d="M240 830q104 90 161 157.5t87 133t51 162.5q29 136 6.5 235t-112.5 222l43 28q121 -89 172 -220.5t23 -264.5q-30 -140 -123.5 -257t-275.5 -220z" />
<glyph unicode="&#x207f;" horiz-adv-x="807" d="M262 898l9 40q4 14 15 14h18q42 1 53.5 12.5t20.5 53.5l83 385q8 28 4 46.5t-28 18.5q-25 0 -69 -11l8 55q118 14 205 54h35l-28 -128q20 19 44 38t56.5 41t68.5 35.5t67 13.5q184 0 136 -227l-68 -321q-4 -19 -4.5 -30.5t1.5 -18.5t10.5 -10.5t17 -5t25.5 -1.5h14 q13 0 10 -14l-8 -40l-2 -4q-92 4 -151 4l-156 -4l-1 4l8 40q4 14 14 14h26q40 2 54.5 13t23.5 53l64 297q18 89 -6 128t-84 39q-35 0 -78 -29.5t-96 -80.5l-75 -354q-8 -39 3.5 -52.5t43.5 -13.5h28q4 0 7.5 -3.5t1.5 -10.5l-9 -40l-3 -4q-98 4 -159 4l-148 -4z" />
<glyph unicode="&#x2080;" d="M90.5 -38q-8.5 72 10.5 151q24 114 84 207.5t140.5 147t164.5 53.5q44 0 82.5 -12.5t72.5 -41t52.5 -74.5t23 -112.5t-16.5 -155.5q-18 -85 -51 -155t-73 -117t-87 -79.5t-93 -47t-90 -14.5q-62 0 -110.5 33.5t-74.5 89t-34.5 127.5zM242 101q-68 -329 83 -329 q35 0 65 14t53 42.5t41 61t33.5 79t26 87t21.5 94.5q12 54 15 105.5t-4 99.5t-32.5 77.5t-67.5 29.5q-31 0 -59 -13.5t-48.5 -34.5t-39.5 -53.5t-31 -62t-24 -69.5t-18 -66.5t-14 -61.5z" />
<glyph unicode="&#x2081;" d="M217 376q10 3 41 13.5t43.5 14.5t40 13.5t43 15.5t40.5 15.5t42.5 17t40 17t42.5 19.5t40 21h15q7 0 5 -14q-26 -84 -41 -157l-66 -310q-40 -185 -49 -314l-4 -5q-22 5 -83 5q-27 0 -48 -1.5t-28 -2.5l-8 -1l-2 5q48 120 89 314l45 209q14 59 13.5 81t-21.5 22 q-15 0 -51.5 -9t-73 -20.5t-55.5 -19.5z" />
<glyph unicode="&#x2082;" d="M52 -275q9 43 35.5 85t68.5 82t85.5 73.5t100.5 71.5q55 38 86.5 63t61.5 58t47.5 70t27.5 86q7 44 1 72.5t-24.5 45t-37 23.5t-37.5 7q-72 0 -106.5 -20.5t-41.5 -50.5q-2 -11 0 -31t0 -29q-4 -18 -19.5 -32t-32 -20.5t-29.5 -6.5q-24 0 -40.5 18t-11.5 41q5 26 26 57 t57 61.5t94 51t127 20.5q38 0 72.5 -6t67.5 -20.5t53 -38t30 -58t-1 -81.5q-17 -80 -84.5 -146.5t-196.5 -146.5q-93 -57 -145 -109t-64 -107h175q82 0 216 10q-8 -20 -15 -50q-3 -12 -6 -48q-86 5 -198 5h-342z" />
<glyph unicode="&#x2083;" d="M54 -199q4 18 26 33.5t42 15.5q17 0 29 -6t17 -12t12 -17q6 -10 13 -17t19 -13.5t32 -9.5t49 -3q17 0 38.5 4.5t52 18t56.5 34t49.5 58t33.5 85.5q8 30 4 53t-11.5 40t-23.5 28.5t-31 19t-34 11.5t-33.5 5.5t-28.5 1.5q-8 0 -15.5 -1t-17.5 -2.5t-18 -2.5l8 60 q56 7 101 30t75.5 61t41.5 88q5 28 1.5 47t-16.5 30.5t-28.5 16t-34.5 4.5q-20 0 -43 -5t-46 -15t-41 -27.5t-24 -38.5q-4 -15 -8 -24.5t-12.5 -22t-23.5 -18.5t-35 -6q-21 0 -32.5 10t-13.5 19t-1 15q3 14 16 34t40 44.5t62.5 45t89 34.5t114.5 14q96 0 144 -38.5 t34 -106.5q-22 -97 -161 -167q31 -3 61 -17t55.5 -40.5t34.5 -65.5t0 -93q-18 -83 -80.5 -148t-151.5 -100t-187 -35q-46 0 -94 11.5t-79 33t-26 46.5z" />
<glyph unicode="&#x2084;" d="M82 0q203 225 492 535l70 -24q-62 -72 -151 -169t-163 -176t-102 -112h228l41 190q3 14 26 42q52 51 75 51q9 0 19.5 -1.5t20 -7.5t6.5 -16l-55 -258h120l-32 -84h-105q-29 -153 -36 -242l-3 -5q-21 5 -82 5q-27 0 -48.5 -1.5t-28.5 -2.5l-8 -1l-1 5q41 104 73 242h-354z " />
<glyph unicode="&#x2085;" d="M76 -197q5 23 25.5 37.5t40.5 14.5q15 0 27.5 -6t19 -12.5t16.5 -18.5q12 -15 20.5 -22.5t27.5 -15.5t45 -8q77 0 126.5 55t67.5 138q4 20 6.5 36t3.5 39.5t-2 42t-12.5 38.5t-26 33.5t-44 22t-63.5 8.5q-68 0 -148 -35l-13 7l129 352h376l-30 -84l-1 -3h-307l-72 -199 q12 7 35 13.5t47 10.5t42 4q56 0 100 -14.5t70.5 -39t43 -58t17.5 -71t-6 -78.5q-24 -113 -124.5 -195.5t-224.5 -82.5q-45 0 -95 10t-86.5 32t-30.5 49z" />
<glyph unicode="&#x2086;" d="M91.5 -73.5q-1.5 49.5 10.5 113.5q13 62 44 124.5t84 123.5t121.5 109.5t164.5 82t206 41.5l-9 -47q-336 -57 -456 -354q36 30 85.5 53.5t91.5 23.5q49 0 87.5 -11t61.5 -28.5t38.5 -41t21.5 -45.5t8 -45.5t0.5 -38.5t-3.5 -27q-6 -28 -21.5 -59.5t-43 -65.5t-62.5 -61 t-85 -44.5t-106 -17.5q-32 0 -63 6.5t-62.5 21.5t-54.5 40t-40 61t-18.5 85.5zM219.5 -72q2.5 -45 12.5 -75t29 -48t39 -25.5t42 -7.5q39 0 68 13.5t47 40t29 55t19 67.5q4 17 6 33.5t2.5 40t-6 42.5t-18 36.5t-35.5 27.5t-58 10q-72 0 -152 -56q-1 -2 -12 -47 q-15 -62 -12.5 -107z" />
<glyph unicode="&#x2087;" d="M173 -272q101 191 227 390t198 290q-198 0 -420 -12q9 25 18 64q3 16 8 58q80 -9 408 -9h157q-141 -177 -279.5 -386.5t-232.5 -394.5h-84z" />
<glyph unicode="&#x2088;" d="M85 -86q14 61 87.5 124t162.5 105l-27 14q-122 65 -96 183q18 80 100.5 130.5t184.5 50.5q95 0 149 -46t39 -119q-3 -15 -7 -26.5t-17.5 -33t-32.5 -41t-54 -44.5t-82 -49l84 -52q105 -66 80 -178q-5 -26 -20 -54t-44 -58t-66.5 -53.5t-92.5 -39t-119 -15.5 q-35 0 -68.5 5t-68 19.5t-58 36t-34 58t-0.5 83.5zM205 -86q-8 -40 1 -69.5t30 -45.5t45 -23.5t48 -7.5q72 0 122 33.5t65 104.5q6 28 7 47.5t-3.5 44t-22.5 45.5t-49 39l-65 33q-43 -21 -104.5 -83t-73.5 -118zM330 361q-19 -86 73 -143l43 -24q37 18 76 65.5t50 96.5 q24 108 -97 108q-56 0 -95 -25t-50 -78z" />
<glyph unicode="&#x2089;" d="M64 -288l10 47q331 56 456 354q-38 -30 -88.5 -53t-92.5 -23q-49 0 -87 11t-60.5 28t-37.5 40.5t-21 45.5t-7.5 45.5t0 38t3.5 26.5q6 29 21.5 60.5t42.5 65.5t62 61t84.5 44.5t105.5 17.5q32 0 63.5 -6.5t64 -21t56 -39t41.5 -60.5t20 -84.5t-10 -112.5 q-13 -63 -44.5 -125.5t-85 -124t-123 -110t-166.5 -82.5t-207 -43zM272 213q0 -23 6.5 -42t18.5 -36t36 -27t57 -10q73 0 154 54l10 50q14 60 12 105t-12.5 74.5t-29.5 47.5t-39 25.5t-42 7.5q-39 0 -68 -13.5t-47 -40t-29 -55t-19 -67.5q-4 -17 -6 -33.5t-2 -39.5z" />
<glyph unicode="&#x208a;" d="M74 28l21 94h260l57 264h96l-57 -264h263l-20 -94h-263l-55 -262h-96l55 262h-261z" />
<glyph unicode="&#x208c;" d="M95 -7l17 83h565l-17 -83h-565zM132 169l18 87h565l-18 -87h-565z" />
<glyph unicode="&#x208d;" horiz-adv-x="483" d="M113 115q28 133 135 265t266 220l31 -28q-143 -122 -207.5 -220.5t-93.5 -236.5q-31 -137 -9.5 -229t117.5 -223l-42 -24q-138 103 -182.5 220t-14.5 256z" />
<glyph unicode="&#x208e;" horiz-adv-x="483" d="M-7 -337q103 89 160.5 156.5t87 133t49.5 162.5q30 136 7.5 235.5t-111.5 221.5l42 28q120 -89 171.5 -220.5t22.5 -264.5q-29 -139 -123 -256t-275 -220z" />
<glyph unicode="&#x2090;" d="M61 -118q31 146 300 212l151 37q7 30 9.5 55.5t2 45t-4.5 35t-10 26.5t-14 19t-16.5 13t-18.5 7.5t-19 3.5t-19 1q-40 0 -73 -9t-52 -24t-23 -34q-5 -19 -2 -31q5 -9 0 -33q-1 -7 -6.5 -15.5t-15 -17t-24 -13.5t-30.5 -5q-29 0 -43 17t-8 46q10 46 61.5 88t115.5 66 t116 24q27 0 51.5 -3.5t49.5 -12t44 -22t34.5 -35.5t23.5 -50.5t8 -69t-11 -88.5l-38 -183q-29 -141 5 -141q17 0 31 12l17 -39q-24 -20 -59 -36t-65 -16q-44 0 -66 28.5t-20 67.5q-75 -56 -121 -76t-106 -20q-81 0 -126 47.5t-29 122.5zM191 -110q-9 -44 11.5 -72.5 t77.5 -28.5q15 0 30.5 3t31 9.5t34 16.5t37.5 23t44 32l41 193q-84 -21 -139.5 -40.5t-91 -40.5t-53 -43.5t-23.5 -51.5z" />
<glyph unicode="&#x2091;" d="M82 -63.5q0 48.5 10 103.5q20 91 73 172t132.5 132.5t164.5 51.5q61 0 103 -16.5t64 -42.5t31.5 -65.5t8 -79t-9.5 -89.5h-418q-3 -6 -14 -51q-23 -106 3 -170q13 -27 33 -48t44.5 -33t50.5 -12q33 0 63 8t57 25t46 32t46 40l41 -39q-66 -70 -133.5 -106.5t-147.5 -36.5 q-61 0 -108.5 17t-76.5 46.5t-46 71t-17 90zM263 172h270q8 49 6.5 80.5t-16.5 50t-33 25.5t-42 7q-53 0 -107.5 -52.5t-77.5 -110.5z" />
<glyph unicode="&#x2092;" d="M65 -57q-1 46 7 94q10 46 27.5 91.5t50 95t73.5 87t102 61.5t132 24q54 0 96 -12.5t69 -33.5t45 -50.5t26 -60.5t10 -66.5t-1 -66.5t-10 -62q-13 -61 -45 -119t-79.5 -106.5t-115 -77.5t-142.5 -29q-58 0 -104.5 18.5t-75 50.5t-46.5 74t-19 88zM223 66q-29 -138 9 -215 t118 -77q55 0 110 58t78 166q19 98 13 173t-38 119.5t-83 44.5q-30 0 -58 -13.5t-56 -43t-52.5 -84t-40.5 -128.5z" />
<glyph unicode="&#x2093;" d="M-28 -268l8 32q4 20 31 20q36 0 58.5 11t67.5 53q186 177 194 184l-122 248q-26 49 -67 49q-22 0 -28 4t-4 14l8 31l3 5q49 -3 147 -3q100 0 160 3v-7l-6 -29q-3 -18 -37 -18q-24 0 -29 -19q-2 -10 6 -47l66 -136l149 163q12 11 15 20q1 6 -2.5 10t-12.5 6.5t-25 2.5 q-12 0 -18 4t-4 14l8 31l3 5q87 -5 124 -5q33 0 137 5l1 -7l-6 -27q-3 -9 -4.5 -12t-8 -5.5t-21.5 -2.5q-37 0 -59 -13.5t-70 -62.5l-178 -189l109 -212q16 -32 36.5 -50t57.5 -18q20 0 25.5 -5.5t3.5 -14.5l-8 -32l-3 -7q-46 5 -137 5q-106 0 -175 -5l-3 5l6 24q8 30 33 30 q35 0 38 14q1 7 -7 28q-65 120 -73 139l-137 -137q-20 -21 -22 -32q-1 -8 7 -10t32 -2q13 0 16.5 -5t1.5 -15l-6 -29l-4 -7q-49 2 -127 2q-58 0 -146 -5z" />
<glyph unicode="&#x20ac;" horiz-adv-x="1076" d="M116 548l5 22l61 62h76q5 29 8 44q8 33 21 81h-91l7 24l60 60h49q93 266 269 423t390 157q68 0 126 -11t92 -26.5t58.5 -31t33.5 -26.5l9 -11l2 -7q-13 -29 -31.5 -66.5t-25 -52t-17 -44.5t-22.5 -73l-25 -3q-11 53 -20 86.5t-23 64.5t-31 48t-43 30t-59.5 17.5 t-80.5 4.5q-48 0 -101 -28.5t-107 -84t-105 -150.5t-87 -216h552l-63 -84h-512q-4 -15 -11 -49q-9 -38 -14 -76h470l-64 -84h-418q-7 -75 -7 -143.5t15 -126.5t40.5 -100.5t69.5 -67t102 -24.5q45 0 78 4t63.5 16t53.5 27t51 45t53 62.5t63 85.5l24 -2q-7 -43 -9 -73 t-1.5 -44.5t3 -51t3.5 -66.5l-7 -7q-7 -5 -19 -12t-50.5 -25t-78.5 -32t-99.5 -25.5t-116.5 -11.5q-105 0 -186 27.5t-133 78.5t-84 122t-38.5 157.5t2.5 186.5h-130z" />
<glyph unicode="&#x2122;" horiz-adv-x="1953" d="M336 1428l94 221l54 -19l-2.5 -5t-2.5 -6t-2.5 -6t-2.5 -5.5t-2 -4t-2 -1.5h574q-1 0 -1.5 5t-0.5 12.5v10.5l66 19l-2 -223l-58 -12q-3 43 -6.5 66t-12 37t-20.5 17.5t-33 3.5h-106q-21 0 -30 -10t-16 -41l-138 -649q-6 -30 7.5 -44.5t54.5 -14.5h34q12 0 10 -12l-6 -33 l-4 -2q-153 2 -202 2l-203 -2l-1 2l6 33q2 12 15 12h34q41 0 61.5 13t27.5 46l138 651q5 30 0 39.5t-23 9.5h-126q-40 0 -63 -22t-60 -102zM977 734l5 21q3 17 46 17h35q18 0 43 74q32 111 96.5 333.5t92.5 319.5q0 2 1 7l1 6q8 41 -13 41h-40q-40 3 -38 15l4 20l15 14h219 l136 -650l100 160t104 167t99 160.5t99 162.5h202l4 -14l-4 -20q-1 -5 -10.5 -9t-18.5 -5t-17 -1h-36q-22 0 -31 -39l-2 -15l-83 -653q-4 -30 -2 -52t15 -22h35q23 0 34 -4t9 -13l-3 -21l-18 -14q-109 5 -160 5l-163 -5l-11 14l4 21q3 17 45 17h35q14 0 26 56q1 2 2 9t2 9 l61 484l-371 -598q-14 -24 -44 -24q-9 0 -20.5 6.5t-15.5 17.5q-72 352 -121 586q-74 -274 -136 -476q-2 -7 -3 -14q-12 -56 6 -56h36q15 0 27.5 -4.5t10.5 -12.5l-4 -21l-10 -14q-95 5 -149 5l-117 -5z" />
<glyph unicode="&#x2153;" horiz-adv-x="1621" d="M154 -133l1467 1610l100 -20l-1471 -1609zM406 1423q10 4 40.5 14t43 14.5t40.5 14t43 15t40 15t43 17t40 17.5t42.5 20t40.5 21h14q8 0 5 -16q-25 -84 -41 -157l-66 -310q-40 -184 -49 -314l-5 -5q-20 5 -81 5q-28 0 -49 -1t-29 -3l-8 -1l-1 5q48 120 89 314l44 209 q1 3 2 7q13 55 12.5 75.5t-21.5 20.5q-23 0 -85.5 -17.5t-94.5 -31.5zM950 -118q4 18 26.5 34t43.5 16q16 0 28 -6t16.5 -11.5t11.5 -17.5q9 -14 19 -22.5t34 -15.5t61 -7q17 0 39 4.5t52 18.5t56 35t49 58.5t34 85.5q8 30 3.5 53t-12 39.5t-23 28t-30.5 19t-34.5 11.5 t-33.5 5t-29 1q-9 0 -50 -5l8 59q56 7 101 30.5t75.5 62t40.5 87.5q12 52 -11.5 75.5t-64.5 23.5q-28 0 -59 -8.5t-59.5 -29t-35.5 -49.5q-4 -14 -8.5 -24t-13 -22t-23 -18.5t-34.5 -6.5q-21 0 -33 10t-14 19t-1 15q3 14 16 34t40 44.5t62.5 45t89.5 34.5t115 14 q96 0 144 -38.5t33 -106.5q-21 -97 -161 -167q32 -2 61.5 -16.5t55 -41t34.5 -66t-1 -93.5q-17 -82 -79.5 -147t-151.5 -100t-187 -35q-47 0 -94.5 12t-79 33.5t-26.5 45.5z" />
<glyph unicode="&#x2154;" horiz-adv-x="1621" d="M154 -133l1467 1610l100 -20l-1471 -1609zM276 776q9 43 35.5 85t68 82t85 74t100.5 71q44 30 71.5 51t55 47t44.5 51t31 57.5t23 72.5q6 43 0 71.5t-24.5 45.5t-37.5 23.5t-38 6.5q-72 0 -106.5 -21t-41.5 -51q-2 -10 0 -29.5t0 -28.5q-3 -14 -12.5 -26t-22 -19 t-25 -10.5t-21.5 -3.5q-24 0 -40.5 17.5t-11.5 41.5q6 26 27 56.5t56.5 61.5t93.5 51t127 20q39 0 73.5 -6t67 -20.5t52.5 -38t30 -58t-1 -81.5q-17 -79 -84.5 -145.5t-196.5 -147.5q-61 -37 -103 -71.5t-69 -70.5t-36 -74h174q82 0 216 10q-8 -20 -15 -49q-3 -12 -6 -49 q-85 4 -198 4h-341zM935 -122q3 17 25.5 33t43.5 16q17 0 28.5 -6t16 -11.5t12.5 -17.5q13 -22 36.5 -33t77.5 -11q17 0 38.5 4t51.5 18t56.5 35t49.5 58.5t33 85.5q4 27 4 47.5t-8 36.5t-17.5 27.5t-24.5 20t-28.5 13.5t-30 7.5t-29 3.5t-24.5 1q-10 0 -51 -4l7 58 q86 11 144.5 58.5t74.5 121.5q11 52 -13 75.5t-65 23.5q-28 0 -58.5 -8.5t-59.5 -29t-36 -49.5q-4 -14 -8 -24t-13 -22.5t-23.5 -19t-34.5 -6.5q-21 0 -32.5 10.5t-13.5 19.5t-1 15q2 11 12 27t27.5 36t45 39t60.5 35t79.5 26t97.5 10q96 0 144.5 -39t34.5 -107 q-22 -97 -161 -166q31 -3 60.5 -17t55 -41t34.5 -66.5t0 -93.5q-18 -82 -80.5 -147t-151.5 -100t-187 -35q-46 0 -94 12t-79 33.5t-26 46.5z" />
<glyph unicode="&#x2155;" horiz-adv-x="1621" d="M154 -133l1467 1610l100 -20l-1471 -1609zM424 1426q7 2 45.5 15t49 16.5t44.5 15.5t49 18t44.5 17.5t49 20t44 20.5t47.5 24h14q8 0 5 -15q-25 -85 -41 -158l-66 -309q-42 -193 -50 -315l-4 -4q-20 4 -81 4q-28 0 -49 -1t-29 -2l-8 -1l-1 4q48 121 89 315l44 209 q1 2 2 6q13 56 12.5 76.5t-21.5 20.5q-23 0 -85.5 -18t-94.5 -31zM955 -120q4 15 15 27.5t24.5 18.5t25.5 6q15 0 27.5 -6t19.5 -12.5t17 -19.5q12 -14 20.5 -22t28 -16t44.5 -8q78 0 126.5 55t66.5 139q5 20 7.5 35.5t3.5 39.5t-2.5 42t-13 38t-25.5 33t-43.5 21.5 t-64.5 8.5q-68 0 -147 -34l-13 8l129 350h376l-30 -82l-1 -3h-308l-70 -199q18 10 57 18t66 8q56 0 100 -14t70.5 -39t43 -58t17.5 -71t-6 -78q-24 -113 -124.5 -195t-225.5 -82q-45 0 -94.5 10t-85.5 32t-31 49z" />
<glyph unicode="&#x2156;" horiz-adv-x="1621" d="M154 -133l1467 1610l100 -20l-1471 -1609zM278 776q9 43 36 85t69 82t85.5 73.5t100.5 71.5q54 38 86 63.5t62 58.5t47 70.5t28 86.5q7 43 1 71.5t-25 45.5t-38 23.5t-38 6.5q-71 0 -106 -21t-41 -51q-3 -10 -1 -29.5t1 -28.5q-6 -27 -33 -43t-49 -16q-23 0 -40 17.5 t-11 41.5q3 16 13.5 35.5t27.5 41.5t42.5 41.5t57 35.5t74 25.5t88.5 9.5q39 0 73.5 -6t67.5 -20.5t53 -38t30 -58t-2 -81.5q-17 -79 -84 -145.5t-197 -147.5q-92 -57 -143.5 -109t-63.5 -107h174q81 0 216 10q-8 -20 -16 -49q-3 -12 -6 -49q-85 4 -197 4h-342zM958 -118 q5 23 25.5 37.5t40.5 14.5q15 0 27.5 -6t18.5 -12t16 -19q9 -11 15 -17t17.5 -14t26.5 -12t35 -4q40 0 73.5 16t56.5 43.5t38.5 61.5t24.5 73q3 18 5.5 31.5t4.5 34t0 36.5t-6.5 35t-15.5 32.5t-27 25.5t-41 18t-57 6q-68 0 -148 -35l-13 8l129 351h375l-30 -83v-2h-307 l-72 -200q18 11 57 19t67 8q56 0 100 -14.5t70.5 -39t43 -58t17.5 -71t-6 -78.5q-24 -113 -124.5 -195t-224.5 -82q-45 0 -95 10t-86.5 32t-30.5 49z" />
<glyph unicode="&#x2157;" horiz-adv-x="1621" d="M154 -133l1467 1610l100 -20l-1471 -1609zM274 851q3 18 25.5 33.5t43.5 15.5q13 0 22 -2.5t16 -9t10 -10.5t9 -13q8 -14 18 -22.5t34 -15t62 -6.5q16 0 38 4.5t52 18t56 34.5t49.5 58.5t33.5 85.5q8 30 3.5 53t-12 40t-23 28.5t-30.5 18.5t-34 11t-33.5 5.5t-29.5 1.5 q-8 0 -49 -5l7 59q85 11 143.5 58t74.5 122q5 28 1.5 47t-16.5 30.5t-28 16t-34 4.5q-28 0 -58.5 -8.5t-59.5 -29t-36 -48.5q-4 -15 -8 -25t-13 -22t-23.5 -18.5t-34.5 -6.5q-21 0 -32.5 10t-13.5 19t-1 15q2 11 12 27.5t27.5 36t45 38.5t60.5 35t79.5 26t97.5 10 q96 0 144 -38.5t33 -106.5q-21 -97 -160 -167q31 -3 61 -17t55.5 -41t34.5 -66.5t0 -92.5q-18 -83 -80.5 -148t-151.5 -99.5t-187 -34.5q-47 0 -94.5 11.5t-79.5 33t-26 46.5zM950 -118q5 23 25 37.5t40 14.5q12 0 21.5 -3t17.5 -9t12.5 -11t12.5 -14q7 -9 11.5 -13.5 t13.5 -12t17.5 -11.5t22 -7t28.5 -3q78 0 127 55.5t67 138.5q4 20 6.5 36t3.5 39.5t-2.5 42t-13 38.5t-25.5 33t-43.5 21.5t-63.5 8.5q-67 0 -147 -35l-13 8l128 351h376l-30 -83v-2h-307l-72 -200q18 11 57 19t66 8q56 0 100 -14.5t71 -39t43.5 -58t17.5 -71t-6 -78.5 q-24 -113 -124.5 -195t-224.5 -82q-46 0 -95.5 10t-86 32t-31.5 49z" />
<glyph unicode="&#x2158;" horiz-adv-x="1621" d="M154 -133l1467 1610l100 -20l-1471 -1609zM283 1052q203 225 492 536l71 -24q-81 -94 -234 -259t-182 -199h228l40 189q5 17 26 42q11 12 25 23t28 19.5t22 8.5q11 0 20.5 -1t19 -7t7.5 -16l-55 -258h120l-33 -84h-104q-29 -152 -36 -243l-4 -5q-20 5 -81 5 q-27 0 -48.5 -1.5t-29.5 -2.5l-7 -1l-2 5q41 102 74 243h-354zM960 -118q5 23 25.5 37.5t40.5 14.5q15 0 27.5 -6t18.5 -12t16 -19q13 -15 21.5 -23t28 -16t44.5 -8q77 0 126 55.5t67 138.5q3 15 5.5 27t4 30t1.5 32.5t-3 32t-9.5 30.5t-18 26t-27 21.5t-38.5 14t-52 5.5 q-68 0 -147 -35l-13 8l128 351h377l-30 -83l-1 -2h-308l-72 -200q19 11 58 19t66 8q56 0 100 -14.5t70.5 -39t43.5 -58t18 -71t-6 -78.5q-16 -73 -66 -136.5t-125.5 -102t-158.5 -38.5q-45 0 -94.5 10t-86.5 32t-31 49z" />
<glyph unicode="&#x2159;" horiz-adv-x="1621" d="M154 -133l1467 1610l100 -20l-1471 -1609zM436 1426q7 2 45.5 15t49 16.5t44.5 15.5t49 18t44.5 17.5t49 20t44 20.5t47.5 24h14q8 0 5 -15q-25 -85 -41 -158l-66 -309q-40 -185 -49 -315l-5 -4q-20 4 -81 4q-28 0 -49 -1t-29 -2l-8 -1l-1 4q48 121 89 315l44 209 q1 2 2 6q13 56 12.5 76.5t-21.5 20.5q-23 0 -85.5 -18t-94.5 -31zM972.5 2q-1.5 49 10.5 113q13 63 44 125t84 124t121.5 110.5t165 82t206.5 41.5l-10 -47q-336 -57 -456 -354q35 29 85.5 52t92.5 23q49 0 87.5 -11t61 -28t38 -40.5t21.5 -45t8 -45.5t0.5 -38.5t-3.5 -26.5 q-4 -20 -13.5 -42t-24.5 -46t-34 -47t-45.5 -43.5t-56 -36t-67 -24.5t-77.5 -9q-33 0 -63.5 6.5t-62 21.5t-54.5 39.5t-40 60.5t-18.5 85zM1100 4q2 -45 12 -75t29.5 -48t39.5 -25.5t42 -7.5q31 0 56 9.5t42 25t30 39.5t20.5 47.5t14.5 54.5q4 17 6 33t2.5 39.5t-6 42.5 t-18.5 37t-36 28t-57 10q-72 0 -153 -57q0 -2 -12 -47q-14 -61 -12 -106z" />
<glyph unicode="&#x215a;" horiz-adv-x="1621" d="M154 -133l1467 1610l100 -20l-1471 -1609zM298 856q5 22 25 36.5t39 14.5q12 0 21.5 -2.5t17.5 -9t13 -11.5t12 -14q12 -15 20.5 -23t28.5 -16t45 -8q77 0 126 55.5t67 139.5q3 17 5.5 30.5t4.5 34t-0.5 36.5t-7 35t-15.5 32.5t-27 25.5t-41 18t-57 6q-68 0 -148 -35 l-13 9l130 350h375l-30 -83l-1 -2h-307l-71 -199q18 10 57 18t67 8q56 0 99.5 -14.5t70 -39t43 -57.5t17.5 -71t-6 -78q-24 -114 -124.5 -196t-224.5 -82q-46 0 -95 10.5t-85.5 32t-30.5 49.5zM971 5q-1 49 11 113q13 62 43.5 124.5t83.5 124t121.5 110t165 82t206.5 41.5 l-10 -47q-336 -57 -456 -354q36 30 86 53t92 23q49 0 87.5 -11t61 -28t38 -40.5t22 -45.5t8 -45.5t0.5 -38.5t-3 -26q-7 -29 -22.5 -60.5t-43 -65.5t-63 -61t-85.5 -44.5t-106 -17.5q-32 0 -62.5 6.5t-62 21.5t-54.5 39.5t-40 61t-18 85.5zM1098 6q2 -45 12.5 -75t29.5 -48 t39 -25.5t43 -7.5q38 0 67 14t47.5 40.5t29 55t19.5 68.5q2 10 4 20.5t3 25t0.5 27.5t-3 27.5t-7.5 27t-14 24t-21.5 19t-31 12.5t-41.5 5q-70 0 -151 -56q-4 -10 -13 -47q-14 -62 -12 -107z" />
<glyph unicode="&#x215b;" horiz-adv-x="1621" d="M154 -133l1467 1610l100 -20l-1471 -1609zM422 1423q7 3 46 15.5t49.5 16.5t44.5 16t49 17.5t44.5 17t49 20.5t44 21t47.5 24h14q7 0 5 -16q-25 -84 -41 -157l-66 -310q-40 -184 -49 -314l-4 -5q-22 5 -83 5q-27 0 -48 -1t-28 -3l-8 -1l-1 5q48 120 89 314l44 209 q14 60 13.5 81.5t-21.5 21.5q-23 0 -86 -17.5t-94 -31.5zM971 -12q13 61 86.5 123.5t162.5 104.5l-26 16q-122 64 -96 181q12 53 55 95.5t103.5 64.5t125.5 22q95 0 149.5 -46.5t39.5 -118.5q-5 -20 -12 -36t-26 -42.5t-58.5 -56t-96.5 -59.5l84 -51q105 -66 80 -180 q-5 -26 -20.5 -53.5t-44 -57.5t-66 -53.5t-93 -39t-118.5 -15.5q-35 0 -69 5.5t-68.5 19.5t-57.5 36t-33.5 58.5t-0.5 82.5zM1089 -69.5q6 -24.5 18.5 -41.5t32 -27t38.5 -14.5t38 -4.5q71 0 120.5 33t65.5 105q6 27 7 46.5t-3.5 44t-22.5 45t-50 38.5l-63 35 q-44 -22 -105.5 -84t-73.5 -118q-8 -33 -2 -57.5zM1216 434q-20 -85 73 -141l43 -25q37 17 76 64.5t50 97.5q24 109 -97 109q-56 0 -95 -26t-50 -79z" />
<glyph unicode="&#x215c;" horiz-adv-x="1621" d="M154 -133l1467 1610l100 -20l-1471 -1609zM281 848q2 12 13.5 23.5t27 19t28.5 7.5q17 0 28.5 -6t16 -11.5t12.5 -17.5q13 -22 36.5 -33.5t77.5 -11.5q17 0 38.5 4.5t51.5 18.5t56.5 35t49.5 58.5t33 85.5q4 26 4 47t-8 37t-17.5 27.5t-24.5 19.5t-28.5 13.5t-30 8 t-29 3.5t-24.5 1q-10 0 -51 -5l9 59q85 11 143 58.5t74 121.5q11 52 -13 74.5t-65 22.5q-28 0 -58.5 -8t-59.5 -28t-36 -49q-4 -15 -8 -24.5t-12.5 -22t-23 -19t-34.5 -6.5q-21 0 -33 10.5t-14 19.5t-1 15q3 14 16 34t40 44.5t62.5 45t89 34.5t114.5 14q96 0 144.5 -38.5 t34.5 -106.5q-22 -97 -161 -167q31 -2 60.5 -16.5t55 -41t34.5 -66t0 -93.5q-18 -82 -80.5 -147t-151.5 -100t-187 -35q-46 0 -94 12t-79 33.5t-26 45.5zM970 -7q13 61 86.5 123.5t162.5 104.5l-26 15q-122 65 -96 182q17 80 100 131t184 51q95 0 149.5 -46.5t39.5 -119.5 q-5 -18 -12.5 -34.5t-26.5 -43t-58.5 -56t-97.5 -59.5l85 -51q106 -66 81 -180q-6 -26 -21 -53.5t-43.5 -57.5t-66.5 -53.5t-93 -39t-118 -15.5q-36 0 -69.5 5.5t-68 19.5t-58 35.5t-33.5 58t0 83.5zM1090 -7q-9 -39 0 -69t30.5 -45.5t45 -23t47.5 -7.5q72 0 122 33t65 105 q6 27 7.5 46.5t-3.5 43.5t-23 45t-49 39l-65 34q-43 -21 -104 -83t-73 -118zM1214 440q-19 -86 74 -142l43 -26q37 18 76 65.5t50 96.5q24 110 -97 110q-57 0 -95.5 -25.5t-50.5 -78.5z" />
<glyph unicode="&#x215d;" horiz-adv-x="1621" d="M154 -133l1467 1610l100 -20l-1471 -1609zM290 856q5 22 25 36.5t40 14.5q15 0 28 -6t19.5 -12.5t16.5 -18.5q12 -15 20 -22.5t27.5 -16t44.5 -8.5q78 0 127.5 55.5t67.5 139.5q3 17 5.5 30.5t4 34t-0.5 36.5t-6.5 35t-15.5 32.5t-27 25.5t-41 18t-57 6q-68 0 -148 -35 l-13 9l128 350h377l-30 -83l-1 -2h-307l-72 -199q12 6 35 12.5t47.5 10t41.5 3.5q56 0 100 -14.5t70.5 -39t43 -57.5t17.5 -71t-6 -78q-12 -55 -44.5 -106t-78.5 -88.5t-105 -60.5t-121 -23q-46 0 -95.5 10.5t-85.5 32t-31 49.5zM956 -10q14 62 87.5 124t162.5 104l-26 16 q-122 64 -96 181q17 81 100 132t184 51q95 0 149 -46.5t39 -119.5q-4 -19 -11 -35t-26 -42.5t-58.5 -56.5t-97.5 -59l85 -52q105 -65 80 -180q-5 -21 -16.5 -44t-30.5 -48t-47.5 -47t-63.5 -40t-82.5 -28.5t-100.5 -10.5q-36 0 -69.5 5t-68 19t-58.5 36t-34.5 58.5 t-0.5 82.5zM1075 -67.5q6 -24.5 18.5 -41t31.5 -27t38 -15t38 -4.5q47 0 83.5 13t64.5 45t38 80q6 28 7.5 47.5t-3.5 43.5t-23 45t-49 38l-64 35q-43 -21 -105 -83t-74 -119q-7 -33 -1 -57.5zM1201 438q-19 -86 73 -143l45 -25q23 11 48.5 35t47 58.5t29.5 68.5 q23 109 -98 109q-56 0 -95 -25.5t-50 -77.5z" />
<glyph unicode="&#x215e;" horiz-adv-x="1621" d="M154 -133l1467 1610l100 -20l-1471 -1609zM400 779q101 192 227 391.5t197 289.5q-177 0 -421 -13q12 32 19 65q2 6 8 59q90 -11 408 -11h157q-141 -177 -280 -386.5t-233 -394.5h-82zM982 -7q13 61 86.5 123.5t162.5 104.5l-26 15q-122 65 -96 182q17 80 100 131t184 51 q95 0 149.5 -46.5t39.5 -119.5q-5 -19 -12 -35t-26 -42.5t-58.5 -56t-97.5 -59.5l86 -51q104 -66 79 -180q-6 -26 -21 -53.5t-43.5 -57.5t-66.5 -53.5t-93 -39t-118 -15.5q-36 0 -69.5 5.5t-68 19.5t-58 35.5t-33.5 58t0 83.5zM1102 -7q-9 -39 0.5 -69t31 -45.5t45 -23 t47.5 -7.5q72 0 121.5 33t64.5 105q6 27 7.5 46.5t-3.5 43.5t-23 45t-49 39l-64 34q-43 -21 -104.5 -83t-73.5 -118zM1226 440q-19 -86 74 -142l43 -26q37 18 76 65.5t50 96.5q24 110 -97 110q-57 0 -95.5 -25.5t-50.5 -78.5z" />
<glyph unicode="&#x215f;" horiz-adv-x="864" d="M154 -133l1467 1610l100 -20l-1471 -1609zM416 1426q6 2 41 13.5t43.5 14.5t39.5 13.5t43.5 15.5t39.5 15t43 17t39.5 17.5t43 20t39.5 20.5h16q6 0 4 -15q-26 -85 -41 -158l-65 -309q-42 -193 -50 -315l-4 -4q-22 4 -83 4q-27 0 -48 -1t-28 -2l-8 -1l-1 4q48 121 89 315 l44 209q1 2 2 6q13 56 12 76.5t-21 20.5q-23 0 -86 -18t-94 -31z" />
<glyph unicode="&#x2248;" horiz-adv-x="1294" d="M176 204q34 80 94 151.5t137 117t150 45.5q26 0 57 -12.5t51.5 -26t56.5 -39.5q37 -27 56 -40t50 -27t56 -14q22 0 48 5t57 17.5t60.5 31t60 47t53.5 63.5l38 -14q-31 -63 -67.5 -113t-71 -81t-67 -52.5t-63 -31.5t-51 -13.5t-37.5 -3.5q-43 0 -81.5 21t-85.5 60 q-49 39 -86 58.5t-79 19.5q-68 0 -158.5 -49.5t-147.5 -126.5zM263 563q33 80 93.5 151.5t137.5 117t149 45.5q20 0 40.5 -6t44 -19t39 -23t42.5 -30t41 -30t38 -24.5t44 -20.5t39 -6q27 0 61 8.5t72.5 27t77.5 52t67 76.5l39 -14q-38 -75 -83 -131.5t-83.5 -86.5t-78.5 -49 t-65.5 -24t-47.5 -5q-43 0 -81.5 21.5t-85.5 60.5q-31 25 -53.5 40t-53 26.5t-58.5 11.5q-69 0 -158.5 -49.5t-146.5 -126.5z" />
<glyph unicode="&#x25fc;" horiz-adv-x="1056" d="M0 0v1057h1057v-1057h-1057z" />
<glyph unicode="&#xe010;" horiz-adv-x="1142" d="M246 451q0 126 26 259q34 176 101.5 326.5t150.5 250.5t176 156t182 56q137 0 209 -85q30 -35 54 -81.5t43.5 -131t19.5 -185.5q0 -121 -26 -256q-23 -120 -59 -224.5t-78 -183t-91 -142.5t-98.5 -107t-100 -72t-95.5 -42t-85 -13q-83 0 -146.5 35.5t-103 99.5t-59.5 150 t-20 190zM437 366q0 -295 161 -295q15 0 33.5 4t47 18t56 37.5t59 67.5t57.5 102q40 89 68 193.5t64 285.5q38 197 38 337q0 186 -60 248q-34 39 -96 39q-256 0 -391 -697q-37 -189 -37 -340z" />
<glyph unicode="&#xe011;" horiz-adv-x="891" d="M378 1222v70q107 32 296 108t260 99q6 0 9 -0.5t5 -3.5t1 -8q-42 -123 -96 -399l-121 -624q-31 -163 -46.5 -262t-24.5 -202l-5 -7q-66 7 -112 7q-19 0 -46.5 -2t-45.5 -3l-18 -2l-2 7q56 177 112 464l117 610q6 29 8.5 45.5t6.5 42t4 40t-1.5 30t-8 22.5t-16.5 7 q-20 0 -64.5 -7t-106 -17.5t-105.5 -14.5z" />
<glyph unicode="&#xe012;" horiz-adv-x="1051" d="M138 59q0 35 10 56q20 18 93.5 80t130.5 113t134 123.5t148.5 151t129.5 156.5q129 175 129 402q0 45 -17 85t-43.5 65.5t-58 40t-62.5 14.5q-57 0 -104 -13.5t-94 -52.5t-79.5 -79.5t-64.5 -96.5l-31 2l-28 170q19 21 40 42t53 48t69 49t79 42t92.5 31t102.5 11 q87 0 157 -27t114.5 -73.5t68 -107t23.5 -128.5q0 -43 -6.5 -84t-15.5 -73.5t-27.5 -70t-32.5 -62.5t-41 -62.5t-43 -57.5l-48 -60q-6 -7 -9 -10q-29 -36 -58.5 -70.5t-68.5 -73.5t-60.5 -61.5t-70.5 -67.5t-60.5 -55.5t-69 -62t-59.5 -53.5q-2 -1 -4 -4q-48 -45 -48 -67 q0 -6 1 -8q65 4 193 4q99 0 175 3t116 5.5t113 9.5q20 2 31 3q-7 -18 -24 -96q-7 -33 -7 -101q-280 12 -408 12q-77 0 -146 -2t-156 -5t-146 -5q-12 28 -12 71z" />
<glyph unicode="&#xe013;" horiz-adv-x="1065" d="M160 101l84 185l33 2q1 -4 3 -11q11 -43 17 -63t18.5 -49.5t27 -42t37.5 -27t55 -19.5t76 -5q33 0 71.5 9t90.5 39.5t91 77.5q44 53 75 131.5t31 167.5q0 105 -56 163q-39 40 -95.5 59t-116.5 19q-68 0 -98 -5l19 108q49 -7 84 -7q99 0 170.5 46.5t109.5 126.5 q47 98 47 198q0 45 -12.5 83t-33 63t-48 39t-56.5 14q-68 0 -123 -24t-98 -69t-84 -116l-34 2l-23 158l10 8q39 32 90.5 60.5t134 52.5t164.5 24q99 0 172.5 -34.5t110 -93.5t36.5 -135q0 -148 -104 -277q-33 -40 -72.5 -72.5t-79 -53.5t-75.5 -29v-13q117 -12 189 -88.5 t72 -193.5q0 -220 -190 -383q-88 -74 -193.5 -112t-196.5 -38q-213 0 -326 118z" />
<glyph unicode="&#xe014;" horiz-adv-x="1105" d="M127 413q8 39 49 96q122 161 389 484.5t408 481.5q0 1 2.5 3.5l4.5 4.5l3 1q42 -9 79 -9q19 0 51.5 4.5t42.5 4.5q2 0 2 -9q-46 -150 -84 -364l-120 -624h150q17 0 23.5 -11t2.5 -28q-4 -23 -32.5 -53.5t-51.5 -30.5h-117q-35 -181 -57 -364q0 -2 -2.5 -4.5t-4.5 -2.5 q-9 0 -42 3.5t-54 3.5q-16 0 -44.5 -2t-48.5 -3l-20 -2l-2 7q32 101 48.5 165t42.5 199h-487q-45 0 -74 4t-44.5 15.5t-12.5 29.5zM290 487h479l150 772z" />
<glyph unicode="&#xe015;" horiz-adv-x="1036" d="M108 120l89 197l35 2q4 -14 13 -42q9 -27 13.5 -40t12.5 -35.5t14.5 -33t17 -27t21 -24.5t25.5 -18t32.5 -14.5t39.5 -8t48 -3.5q121 0 214 99.5t126 267.5q14 76 14 136q0 128 -56.5 193.5t-152.5 65.5q-51 0 -108 -12t-96.5 -25.5t-102.5 -37.5l-14 7l216 722 q158 -14 265 -14q194 0 391 24l15 -7l-69 -167q-118 -15 -251 -15q-139 0 -295 22l-135 -434q28 9 72 17.5t95.5 13.5t98.5 5q66 0 121.5 -18t95.5 -49.5t68 -75t41.5 -95.5t13.5 -110q0 -53 -11 -105q-28 -143 -112 -258.5t-207 -181t-261 -65.5q-205 0 -330 137z" />
<glyph unicode="&#xe016;" horiz-adv-x="1098" d="M211 391q0 93 23 207q36 183 132.5 350.5t247.5 299.5q144 125 290.5 183.5t333.5 69.5l-7 -68q-87 -9 -159.5 -28t-146.5 -57.5t-144 -97.5q-105 -89 -189 -217t-132 -281q34 36 90 65.5t114 46t105 16.5q85 0 150.5 -23t103 -58t61 -83.5t31.5 -92.5t8 -91 q0 -55 -7 -89q-11 -57 -35.5 -116.5t-69 -123t-102.5 -112.5t-143 -81t-184 -32q-51 0 -98.5 10t-98.5 38.5t-88.5 73t-61.5 119.5t-24 172zM398 372q0 -72 14 -127.5t36.5 -88.5t53 -54t60 -28.5t62.5 -7.5q44 0 84.5 18.5t78.5 59t68.5 112t49.5 169.5q12 54 12 115 q0 37 -5.5 69.5t-20.5 65t-38.5 55.5t-62.5 37t-89 14q-27 0 -48.5 -2t-57 -10.5t-74.5 -31t-78 -57.5q-7 -24 -21 -90q-24 -121 -24 -218z" />
<glyph unicode="&#xe017;" horiz-adv-x="973" d="M260 -17q297 480 777 1307q-102 5 -325.5 0t-343.5 -22q29 90 35 120q3 17 4.5 33.5t2 37t0.5 33.5q115 -17 659 -17q81 0 155 24l35 -24q-65 -110 -123.5 -211t-116.5 -204t-98.5 -175t-96.5 -176t-82 -152t-83.5 -158t-71.5 -137.5t-76.5 -147.5t-70.5 -136l-175 -10z " />
<glyph unicode="&#xe018;" horiz-adv-x="1090" d="M163 270q0 45 9 89q9 48 35 99t68.5 102t97.5 94q130 103 199 150l-42 34q-148 121 -148 277q0 30 7 65q28 144 147 231.5t297 87.5q153 0 239 -68.5t86 -180.5q0 -31 -5 -58q-33 -174 -332 -357l125 -105q147 -125 147 -280q0 -34 -7 -70q-14 -71 -60.5 -141.5 t-117 -129t-171 -95t-211.5 -36.5q-168 0 -265.5 75.5t-97.5 216.5zM348 277q0 -57 18 -101t47.5 -68.5t63.5 -36.5t71 -12q38 0 72 4.5t77.5 21.5t77 45t62.5 79t43 120q6 36 6 65q0 79 -37 150t-115 122l-96 64q-47 -29 -87 -61.5t-67 -60.5t-49 -60.5t-34.5 -56 t-22.5 -52t-14 -44t-8 -36.5q-8 -42 -8 -82zM560 1144q0 -113 120 -206l65 -44q32 21 65.5 50t69.5 68t63 87t35 95q6 30 6 54q0 49 -17.5 86t-59 60.5t-103.5 23.5q-52 0 -94 -16.5t-70 -46t-46 -66.5t-26 -82q-8 -41 -8 -63z" />
<glyph unicode="&#xe019;" horiz-adv-x="1076" d="M192 -28l7 70q134 13 241 54t209 127q105 89 189.5 218t132.5 281q-34 -35 -90 -64.5t-114.5 -46t-105.5 -16.5q-85 0 -150 23t-102.5 58t-61.5 83.5t-32 92.5t-8 91q0 55 7 89q12 57 36 116.5t68.5 123t102.5 112.5t143.5 80.5t183.5 31.5q31 0 61 -4t62.5 -12.5 t62 -24.5t58 -38t51.5 -54t40 -72t26.5 -93t9.5 -114q0 -93 -23 -207q-36 -183 -132 -351t-248 -300q-144 -126 -290.5 -184.5t-333.5 -69.5zM514 935q0 -37 5.5 -69.5t20 -65t38 -55.5t62.5 -37t90 -14q27 0 48 2t57 10.5t75 31t78 56.5q7 24 20 90q24 122 24 219 q0 52 -7.5 95.5t-19.5 74.5t-30 55t-37.5 39t-42.5 24.5t-44.5 13.5t-44.5 4q-44 0 -84.5 -19t-78 -59.5t-68.5 -112t-49 -169.5q-12 -54 -12 -114z" />
<glyph unicode="&#xe01a;" horiz-adv-x="1447" d="M120 558l74 103h218q4 34 8 52q12 55 19 81h-181q-39 0 60 92l13 12h143q49 125 125.5 234.5t169 191t203 128.5t220.5 47q77 0 149.5 -8.5t121 -20t86.5 -23.5t56 -20l17 -9l5 -7q-4 -10 -15.5 -34.5t-14 -31.5t-11 -26t-11 -25.5t-8.5 -22.5t-9 -26t-8 -26.5 t-9.5 -32.5t-9.5 -36l-25 -3q-40 145 -114.5 199t-228.5 54q-56 0 -122.5 -32.5t-133.5 -93t-130 -159t-103 -217.5h594q-1 -5 -3 -12t-9 -24.5t-15 -31t-20 -25t-25 -11.5h-552q-3 -15 -10 -49q-8 -36 -12 -84h499l-72 -103h-432q2 -129 36.5 -238t103 -178t157.5 -69 q92 0 154.5 11.5t115.5 43t94.5 77t93.5 121.5l21 -2q-7 -49 -10 -71t-5.5 -51.5t-3.5 -45t-5 -67.5l-7 -7q-8 -5 -22.5 -12t-62 -25t-98 -32t-127.5 -25.5t-154 -11.5q-107 0 -193 28.5t-145 80t-97 124t-53 160t-9 189.5h-281z" />
<glyph unicode="&#xe01b;" horiz-adv-x="1198" d="M253 340q-2 3 0 12l7 31q2 8 6.5 16t11.5 15.5t19 12.5t27 5h260q25 122 32 155h-304q-7 0 -9 3t-1 12l8 34q4 19 19.5 34t43.5 15h262q0 3 1.5 9.5t1.5 9.5q-28 77 -94 243t-131 326t-91 221q34 -5 118 -5q86 0 123 5q16 -54 35 -112.5t35.5 -105.5t39.5 -110t38 -104 t42 -113t41 -111q305 378 486 656q22 -5 92 -5q57 0 85 5q-85 -103 -209.5 -254t-181.5 -220t-122 -153t-108 -146q-3 -18 -7 -36h318q9 0 13.5 -3.5t2.5 -10.5l-10 -52q-3 -15 -22.5 -23.5t-39.5 -8.5h-280q-5 -29 -14.5 -82.5t-12.5 -72.5h314q6 0 10 -1.5t5.5 -5 t0.5 -7.5l-10 -50q-2 -10 -13 -17.5t-24 -10.5t-25 -3h-275q-47 -269 -57 -344q-32 7 -108 7q-80 0 -115 -7q23 81 78 344h-302q-8 0 -10 3z" />
<glyph unicode="&#xe02c;" horiz-adv-x="1555" d="M43 -7q647 967 1071 1625h68q35 -170 87.5 -442.5t92.5 -483t82 -412.5t66 -287q-41 7 -146 7q-81 0 -124 -7q-15 218 -71 569q-139 3 -287 3q-178 0 -318 -3q-234 -378 -325 -569q-28 7 -108 7q-57 0 -88 -7zM637 678q23 0 119 -2.5t137 -2.5q134 0 257 4 q-55 313 -120 606h-5q-39 -61 -117 -181.5t-145.5 -226t-125.5 -197.5zM846 1843q5 24 19.5 45.5t34 37.5t43.5 25.5t47 9.5q48 0 75 -35t17.5 -82.5t-52.5 -82.5t-90 -35q-32 0 -56 16t-34 43t-4 58zM1310 1843q10 48 53.5 83t90.5 35q48 0 75.5 -35t17.5 -82.5 t-52.5 -82.5t-90.5 -35q-31 0 -55 16t-34.5 43t-4.5 58z" />
<glyph unicode="&#xe02d;" horiz-adv-x="1771" d="M257.5 435.5q-31.5 145.5 7.5 326.5q25 119 76 230.5t120 205.5t156.5 172t184.5 132.5t205 85t217 30.5q132 0 244 -37.5t194 -107t134 -169.5t63 -224t-18 -271q-39 -183 -129 -337.5t-215.5 -263.5t-285.5 -170.5t-334 -61.5q-158 0 -288 55t-215 157t-116.5 247.5z M509 492.5q18 -134.5 80.5 -225.5t155 -137t204.5 -46q106 0 203.5 44.5t180.5 128.5t147 213.5t98 291.5q39 192 30.5 332.5t-64.5 232.5t-150 136.5t-225 44.5q-74 0 -147.5 -23t-149.5 -76.5t-140.5 -133t-119 -200.5t-85.5 -271q-36 -177 -18 -311.5zM906 1846 q10 47 52.5 82t90.5 35t75.5 -35t17.5 -82q-4 -24 -18.5 -45.5t-34 -37.5t-43.5 -25.5t-48 -9.5q-31 0 -54.5 16t-33.5 43t-4 59zM1370 1845.5q10 47.5 52.5 82.5t90.5 35t76 -35t18 -82.5t-53 -82.5t-91 -35t-75.5 35t-17.5 82.5z" />
<glyph unicode="&#xe02e;" horiz-adv-x="1623" d="M314.5 427q2.5 71 20.5 153l109 513q67 312 79 492l7 7q40 -7 124 -7q38 0 70.5 2t45.5 4l14 1l1 -7q-58 -158 -130 -492l-92 -432q-7 -30 -11.5 -54.5t-10 -69.5t-6 -81t4.5 -83t17.5 -83t37 -73t59.5 -61.5t88 -39.5t120 -15t126 11t105 29.5t86 48.5t69 61.5 t54.5 74.5t43 81.5t33.5 89.5t25.5 90.5t21.5 92.5l87 413q67 312 79 492l8 7q24 -7 84 -7q11 0 22 0.5t19.5 1t16 1.5t12.5 1.5t9 1.5t6 1h2l1 -7q-58 -158 -129 -492l-78 -368q-21 -98 -46 -180t-61 -160t-80.5 -139t-104 -113t-131 -85.5t-162 -52.5t-196.5 -19 q-39 0 -77.5 4t-81 14.5t-80.5 26.5t-74.5 41.5t-65.5 58.5t-50.5 79t-32 101t-8 126zM891.5 1845.5q9.5 47.5 52.5 82.5t90 35q32 0 55.5 -16t33.5 -43t4 -58q-10 -48 -52.5 -83t-90.5 -35t-75 35t-17.5 82.5zM1356 1846q10 47 52.5 82t90 35t75 -35t17.5 -82.5 t-52.5 -82.5t-90.5 -35q-31 0 -54.5 16t-33.5 43t-4 59z" />
<glyph unicode="&#xe03d;" horiz-adv-x="1756" d="M197 511q20 95 66 180.5t108 151t135.5 116t152 80t155.5 37.5q-48 65 -59 141t8 155q11 53 42 103.5t80 94t111 76t141.5 51.5t165.5 19q225 0 316.5 -111t58.5 -317l-39 -233h274q9 0 13 -4.5t2 -11.5l-9 -49q-3 -15 -24 -23t-42 -8h-234l-133 -628 q-26 -114 -19 -169.5t55 -55.5q47 0 90 15.5t99 52.5l35 -41q-176 -163 -340 -163q-179 0 -127 244l159 745h-160q-12 0 -11 9l17 76q2 11 12 11q59 0 107.5 22t79.5 58t50.5 74.5t27.5 78.5q36 168 -38 263t-259 95q-75 0 -147 -21.5t-127.5 -57.5t-93.5 -84t-49 -99 q-40 -195 90 -309q72 -8 137 -28t109 -46l4 -9l-100 -201l-32 -3q-21 56 -51.5 96.5t-71 62t-87.5 21.5q-63 0 -128 -25.5t-124.5 -74t-107 -127.5t-67.5 -176q-23 -108 -10.5 -193t51.5 -143.5t98.5 -89.5t131.5 -31q164 0 303 155h10l41 -40q-84 -121 -201.5 -184 t-234.5 -63q-153 0 -258 67.5t-145 189.5t-7 278z" />
<glyph unicode="&#xe04a;" horiz-adv-x="1306" d="M254 968l17 76q2 11 10 11q61 0 104.5 17.5t74 55t50 87.5t35.5 124l11 47l152 49l-80 -380h616q25 0 55.5 2t53 5t40.5 5t19 2q14 0 22.5 -3.5t6.5 -10.5q-5 -21 -77 -103l-446 -542q109 0 189.5 -61t113.5 -165.5t7 -225.5q-22 -103 -79 -200.5t-135.5 -171.5 t-180.5 -118.5t-207 -44.5q-73 0 -135.5 24.5t-99.5 60t-55 74t-12 69.5q8 36 34.5 62.5t62.5 26.5q43 0 65 -20.5t28 -63.5q2 -22 12.5 -46.5t28 -48t47.5 -38.5t65 -15q41 0 93 29.5t103.5 80t95.5 130.5t63 170q24 121 18.5 211.5t-49.5 143.5t-122 53q-23 0 -151 -26 l-34 40l500 621l-577 -2l-133 -628q-16 -74 -24 -125.5t-10.5 -82.5t1.5 -48t11 -22.5t20 -5.5h15l-3 -59q-54 -18 -93 -18q-89 0 -121.5 58t-5.5 186l158 745h-159q-10 0 -9 9z" />
<glyph unicode="&#xe04b;" horiz-adv-x="1228" d="M197 0q58 156 128 492l148 692q68 324 73 462l7 8q29 2 55.5 6.5t51.5 12t42 13t44 16t39 14.5q22 0 17 -25q-66 -197 -123 -462l-63 -295q109 81 189.5 116.5t162.5 35.5q43 0 80.5 -8t73.5 -27t63.5 -47.5t48 -73t29 -101t4.5 -132.5t-24 -167q-41 -194 -110.5 -360.5 t-151 -285t-180.5 -214t-194.5 -155.5t-198.5 -102l-20 66q95 59 169.5 120t149 149t132 195t109.5 253.5t90 326.5q24 123 21.5 207.5t-29 136.5t-62.5 75.5t-80 23.5q-54 0 -124 -32.5t-174 -119.5l-68 -322q-33 -156 -53 -275t-26 -217l-7 -7q-33 7 -117 7 q-38 0 -68.5 -2t-41.5 -3l-11 -2z" />
<glyph unicode="&#xe04d;" horiz-adv-x="1693" d="M134 -5q29 139 57 349l67 3q-2 -35 -2.5 -76t10 -88t30.5 -73q50 -70 155 -70q45 0 92.5 22t86.5 66.5t50 99.5q12 53 5 95.5t-50 82.5t-129 81q-45 22 -74 38.5t-57 38t-42 43t-23 50.5t-8 65t11 82q16 76 73.5 141t141 103t173.5 38q86 0 141 -14.5t111 -46.5 q-4 -133 -27 -251l-67 -2q-2 57 -15.5 102t-33 70t-44 41.5t-44 22t-37.5 5.5q-37 0 -69 -8.5t-61.5 -27.5t-51 -54t-31.5 -83q-16 -75 10 -116t118 -77q36 -15 65.5 -29t58 -31t50.5 -35t40.5 -39.5t30 -45.5t18 -52t5.5 -60.5t-9 -68.5q-14 -67 -51.5 -122.5t-84 -90.5 t-100.5 -59t-99.5 -34t-83.5 -10q-104 0 -202 28q-34 4 -46 4q-23 0 -58 -7zM923 -5q32 154 57 349l66 3q-5 -57 3.5 -127t35.5 -110q7 -11 13 -18t19 -18t26.5 -17.5t36 -11.5t48.5 -5q42 0 90 22.5t89 67.5t52 98q12 52 1 95t-56 83t-133 81q-46 22 -74.5 38.5t-56.5 38 t-42 43t-23.5 50.5t-8 65t11.5 82q16 77 71 141.5t138.5 102.5t177.5 38q88 0 149.5 -15t117.5 -46q-4 -118 -29 -251l-65 -2q-2 48 -13 87.5t-27.5 64.5t-36 43.5t-40.5 28t-37.5 13.5t-31.5 4q-76 0 -136 -44t-78 -129q-11 -48 -3.5 -83t37.5 -60t91 -50q37 -15 66.5 -29 t59.5 -31t52.5 -35t42.5 -39.5t32.5 -45.5t20 -52t7 -60.5t-7.5 -68.5q-14 -67 -52 -122.5t-84.5 -90.5t-100.5 -59t-99 -34t-80 -10q-59 0 -100 6.5t-93 21.5q-29 4 -45 4q-21 0 -59 -7z" />
<glyph unicode="&#xe050;" horiz-adv-x="1773" d="M182 291.5q-7 70.5 8 148.5q18 86 49.5 162.5t71.5 136t87 110t99 87t104.5 64t106 44t102 24.5t92.5 8q28 0 54 -12l228 290q3 3 8 10q21 27 31 41.5t21 35.5t15 39q6 31 -16 54.5t-59 23.5q-50 0 -86.5 -35.5t-48.5 -92.5q-1 -4 -2 -10t-1.5 -12t-1.5 -10l-55 -5 q3 39 6 52q20 95 91 149.5t172 54.5q62 0 91 -33t19 -80q-4 -21 -32.5 -66.5t-61.5 -88.5l-871 -1113q88 -123 259 -123q87 0 168 20t149 56t129 83.5t111 106t92.5 121t75 130t56.5 131t40 126.5q-46 44 -96.5 70t-121.5 26q-74 0 -83 -42q-6 -25 1.5 -38.5t26.5 -27.5 l3 -3q6 -6 9 -10t8 -12t6 -14t2.5 -17.5t-2.5 -22.5q-8 -38 -42.5 -69.5t-67.5 -31.5q-42 0 -65.5 29.5t-9.5 96.5q11 53 37 99t66 82t98.5 56.5t128.5 20.5q77 0 139.5 -26t125.5 -70q5 -3 13 -7.5t12.5 -7.5t11 -7t11 -6.5t10.5 -5t10.5 -4.5t9.5 -3.5t9.5 -2t8.5 -0.5 q28 0 32 19q3 17 -8 47q-12 43 -6 77q10 44 36.5 68.5t59.5 24.5q37 0 57.5 -24t11.5 -69q-11 -54 -36 -99t-53.5 -73.5t-60.5 -48.5t-58 -28.5t-45 -8.5q-83 0 -123 26q-45 -165 -125 -310.5t-180.5 -254t-216.5 -188t-237.5 -119.5t-237.5 -40q-75 0 -140.5 24 t-112.5 66.5t-78.5 101.5t-38.5 129.5zM343 468.5q2 -34.5 10 -73.5t23 -73l441 565q-7 18 -20 32t-34 23.5t-47 9.5q-59 0 -121 -34.5t-111 -88.5t-85 -120t-50 -129q-4 -20 -6 -48.5t0 -63z" />
<glyph unicode="&#xe051;" horiz-adv-x="1228" d="M38 -5q391 581 770 1170h140q28 -138 81 -416.5t92.5 -476t61.5 -277.5q-29 5 -156 5q-59 0 -89 -5q-9 150 -49 396q-137 5 -212 5q-100 0 -234 -5q-163 -264 -226 -396q-21 5 -79 5q-77 0 -100 -5zM504 490q22 -1 58.5 -2.5t69.5 -2.5t56 -1q67 0 184 4q-39 223 -86 436 h-5q-15 -24 -118.5 -185t-158.5 -249z" />
<glyph unicode="&#xe052;" horiz-adv-x="1210" d="M187 0q35 93 60 189t58 251l53 250q32 153 48.5 251t20.5 189l4 8q32 -8 119 -8q204 8 272 8q74 0 133.5 -9.5t99 -24.5t67.5 -37t42.5 -45t21 -51.5t5.5 -53.5t-7 -52q-10 -47 -44 -97t-83.5 -91t-102.5 -63q237 -57 185 -307q-8 -38 -30 -76t-54.5 -72.5t-77.5 -64.5 t-97.5 -52t-115.5 -34.5t-130 -12.5q-78 0 -187 2.5t-137 2.5q-39 0 -69.5 -2t-41.5 -3l-12 -2v7zM441 118q1 -17 12 -28.5t43.5 -17.5t90.5 -6q72 0 129 17t91.5 42t60 62t37 68.5t19.5 68.5q14 60 11 106t-24.5 78t-72.5 48t-134 16h-170l-88 -415q-6 -22 -5 -39zM552 656 h170q81 0 134 21t85.5 66t48.5 120q6 45 7 77.5t-14 55t-31 36.5t-43 22t-51 10.5t-54 2.5q-49 0 -78 -2t-49 -5.5t-29.5 -13t-14 -19.5t-8.5 -30z" />
<glyph unicode="&#xe053;" horiz-adv-x="1238" d="M212 425.5q1 59.5 12 120.5q28 132 99 246t167.5 193.5t215.5 125t242 45.5q66 0 122 -5.5t90.5 -12t69.5 -20.5t48.5 -21t41 -24t34.5 -21l3 -8l-99 -202l-33 -2q-10 29 -18.5 48.5t-22.5 45.5t-28.5 43.5t-36.5 36.5t-47 30t-59.5 18t-75.5 7q-60 0 -114 -11.5 t-114 -45.5t-108 -87.5t-90.5 -144.5t-67.5 -210q-14 -63 -17 -122t3.5 -115.5t29 -103.5t57.5 -82.5t91 -55.5t129 -20q119 0 204.5 41.5t195.5 145.5l39 -61q-113 -118 -221.5 -169.5t-250.5 -51.5q-79 0 -148.5 16.5t-122 47t-95.5 72t-68.5 91.5t-41.5 106.5t-15 116z " />
<glyph unicode="&#xe054;" horiz-adv-x="1390" d="M187 0q35 93 60 189t58 251l53 250q32 153 48.5 251t20.5 189l4 8q32 -8 119 -8q47 1 122 3t129 3.5t82 1.5q91 0 169 -21t136.5 -58.5t102.5 -90.5t66 -118t27 -140t-14 -157q-16 -79 -44 -147t-64.5 -121t-79.5 -97t-92 -75t-100 -54t-105 -37t-106 -20.5t-105 -6.5 q-115 0 -233 2.5t-131 2.5q-39 0 -69.5 -2t-41.5 -3l-12 -2v7zM446 130.5q3 -20.5 19 -35t57 -22t109 -7.5q106 0 186 21.5t147 71.5t113.5 137.5t73.5 214.5q10 50 14.5 98t3 97t-12 93.5t-28.5 85.5t-48.5 73.5t-69.5 57t-93.5 38t-119.5 13.5q-157 0 -174 -82l-173 -809 q-7 -25 -4 -45.5z" />
<glyph unicode="&#xe055;" horiz-adv-x="1156" d="M187 0q35 93 60 189t58 251l53 250q32 153 48.5 251t20.5 189l4 8q37 -8 123 -8h500q87 0 148 8l4 -8q-19 -70 -20 -75q-6 -25 -8 -52l-6 -11q-21 4 -62.5 9t-178 13t-282.5 8q-19 -37 -48 -153t-42 -181l-9 -46q131 0 193.5 3t120 10.5t98.5 10.5l6 -7q-15 -34 -22 -69 q-6 -27 -6 -69l-10 -7q-248 25 -403 25l-21 -96q-52 -264 -48 -323q147 0 286.5 7.5t206.5 14.5l67 8l2 -10q-11 -28 -20 -76q-3 -14 -10 -64l-6 -7q-58 7 -146 7h-524q-40 0 -72 -2t-43 -3l-12 -2v7z" />
<glyph unicode="&#xe056;" horiz-adv-x="1076" d="M187 0q35 93 60 189t58 251l53 250q32 153 48.5 251t20.5 189l4 8q37 -8 123 -8h500q87 0 148 8l4 -8q-19 -70 -20 -75q-6 -25 -8 -52l-6 -11q-21 4 -62.5 9t-178 13t-282.5 8q-19 -37 -48 -153t-42 -181l-9 -46q131 0 193.5 3t120 10.5t98.5 10.5l6 -7q-15 -34 -22 -69 q-6 -27 -6 -69l-10 -7q-248 25 -402 25l-22 -99q-33 -158 -48.5 -253t-19.5 -187l-5 -7q-32 7 -123 7q-40 0 -70.5 -2t-41.5 -3l-11 -2v7z" />
<glyph unicode="&#xe057;" horiz-adv-x="1351" d="M213 356q-9 84 9 179q30 144 104 262t176.5 196t228.5 120.5t261 42.5q51 0 95 -3t76 -7t62 -11.5t48.5 -13t40 -16t31.5 -16t28.5 -17t25.5 -15.5l4 -8l-100 -201l-32 -2q-12 33 -22.5 56t-27.5 51t-38 47t-49 36t-66.5 25t-85.5 8q-194 0 -342.5 -139t-196.5 -362 q-7 -31 -10 -63.5t-2 -67t6 -68.5t14.5 -67t25 -63.5t35 -57.5t46.5 -49t58.5 -37.5t71.5 -24.5t85 -9q131 0 242 91l3 10q27 130 34.5 185t15.5 171l7 8q30 -8 114 -8q39 0 71 2t46 4l13 2v-8q-6 -16 -17.5 -47.5t-14.5 -39t-10.5 -30t-10.5 -33.5t-9.5 -37t-12 -52 t-14.5 -68l-1 -2q-6 -27 18 -57q-136 -82 -275.5 -129t-261.5 -47q-103 0 -191.5 28t-151 78.5t-104 120t-50.5 153.5z" />
<glyph unicode="&#xe058;" horiz-adv-x="1383" d="M185 0q35 93 60 189t57 251l53 250q33 153 49.5 251t20.5 189l3 8q35 -8 122 -8q37 0 67.5 2t42.5 4l12 2l4 -8q-25 -66 -46.5 -142.5t-33 -124.5t-39.5 -173l-16 -73h563l16 73q32 153 48.5 251t20.5 189l4 8q35 -8 121 -8q37 0 68 2t42 4l12 2l4 -8q-24 -66 -46 -142.5 t-33 -124.5t-40 -173l-53 -250q-33 -157 -48.5 -250t-20.5 -190l-6 -7q-35 7 -119 7q-38 0 -69.5 -2t-43.5 -3l-12 -2v7q35 93 60 189t58 251l15 76h-562l-16 -76q-34 -157 -49.5 -250t-20.5 -190l-6 -7q-35 7 -118 7q-39 0 -70 -2t-43 -3l-12 -2v7z" />
<glyph unicode="&#xe059;" horiz-adv-x="619" d="M185 0q35 93 60 189t57 251l53 250q33 153 49.5 251t20.5 189l3 8q35 -8 122 -8q37 0 67.5 2t42.5 4l12 2l4 -8q-25 -66 -46.5 -142.5t-33 -124.5t-39.5 -173l-53 -250q-34 -157 -49.5 -250t-20.5 -190l-6 -7q-35 7 -118 7q-39 0 -70 -2t-43 -3l-12 -2v7z" />
<glyph unicode="&#xe05a;" horiz-adv-x="636" d="M-307 -396q40 51 111 202l28 2q29 -85 124 -85q40 0 76 17.5t64 45.5t53 70.5t43 85t34.5 97t27.5 98.5t22 97l88 413q67 313 79 491l7 7q35 -7 119 -7q38 0 69.5 1.5t43.5 3.5l12 2v-7q-56 -153 -129 -491l-77 -359q-23 -111 -42 -177t-49.5 -127.5t-67.5 -108 t-102 -114.5q-180 -186 -429 -186q-75 0 -105 22v7z" />
<glyph unicode="&#xe05b;" horiz-adv-x="1260" d="M185 0q35 93 60 189t57 251l53 250q33 153 49.5 251t20.5 189l3 8q35 -8 122 -8q37 0 67.5 2t42.5 4l12 2l4 -8q-25 -66 -46.5 -142.5t-33 -124.5t-39.5 -173l-13 -66q49 2 103 40q94 60 255.5 202.5t272.5 263.5q194 0 245 8l-8 -8q-183 -133 -627 -513 q64 -106 128.5 -197.5t108.5 -146.5t106.5 -133.5t107.5 -139.5l-6 -7q-36 7 -137 7t-165 -7q-38 75 -73 136t-74.5 118.5t-63 90.5t-74.5 99.5t-74 97.5q-18 20 -40 22l-25 -117q-34 -157 -49.5 -250t-20.5 -190l-6 -7q-35 7 -118 7q-39 0 -70 -2t-43 -3l-12 -2v7z" />
<glyph unicode="&#xe05c;" horiz-adv-x="1063" d="M185 0q35 93 60 189t57 251l53 250q33 153 49.5 251t20.5 189l3 8q35 -8 122 -8q37 0 67.5 2t42.5 4l12 2l4 -8q-37 -98 -62 -192.5t-57 -247.5l-53 -250q-7 -34 -17.5 -88.5t-21.5 -130t-9 -101.5q146 0 286 7.5t206 14.5l67 8l3 -10q-14 -35 -22 -76q-2 -11 -3 -19 t-2.5 -19.5t-2.5 -25.5l-6 -7q-58 7 -147 7h-523q-41 0 -72.5 -2t-43.5 -3l-11 -2v7z" />
<glyph unicode="&#xe05d;" horiz-adv-x="1646" d="M127 -5q273 736 408 1161h89q119 -424 268 -870l656 870h79q-12 -133 -38 -381t-42.5 -428.5t-28.5 -351.5q-26 5 -113 5q-63 0 -91 -5q66 510 95 803q-10 -12 -82 -107.5t-89.5 -119t-78 -104.5t-88.5 -120.5t-76.5 -107t-87 -124t-77.5 -115.5h-61q-19 73 -41.5 153 t-47.5 164t-46 154t-50 167t-48 159l-18 -57q-187 -582 -224 -745q-17 5 -71 5q-75 0 -96 -5z" />
<glyph unicode="&#xe05e;" horiz-adv-x="1341" d="M185 0q36 98 91 352l91 427q49 224 58 351l3 5q32 -5 93 -5l86 5l435 -779q0 -1 2 -3q5 -10 8 -14.5t8.5 -11t9.5 -6.5t8.5 2t8.5 12t7 26l89 418q49 224 58 351l6 5q18 -5 62 -5l90 5l-1 -5q-44 -126 -92 -351l-158 -742q-3 -16 -17 -30.5t-30.5 -22.5t-28.5 -8 q-25 0 -43.5 9.5t-34.5 38.5l-448 775q-20 34 -33.5 27t-24.5 -57l-88 -417q-49 -225 -58 -352l-5 -7q-27 7 -69 7q-18 0 -38.5 -2t-32.5 -3l-12 -2v7z" />
<glyph unicode="&#xe05f;" horiz-adv-x="1400" d="M217.5 312q-22.5 104 5.5 229q29 134 98 248.5t165 194.5t215.5 126t246.5 46q119 0 218 -42t163 -119t89 -184.5t-3 -238.5q-21 -96 -64 -184t-109.5 -163.5t-149.5 -130.5t-189.5 -86.5t-224.5 -31.5q-123 0 -221 41t-157.5 116t-82 179zM439 306q24 -111 101 -173 t196 -62q166 0 286.5 122t167.5 346q26 123 15.5 219.5t-50 163t-104 101t-146.5 34.5q-71 0 -140.5 -30t-132 -88.5t-112 -153.5t-75.5 -215q-30 -153 -6 -264z" />
<glyph unicode="&#xe060;" horiz-adv-x="1068" d="M185 0q35 93 60 189t57 251l53 250q33 153 49.5 251t20.5 189l3 8q33 -8 119 -8q33 0 126.5 4t141.5 4q72 0 130 -10.5t96.5 -27.5t65.5 -41.5t40.5 -50.5t19 -57t4 -58.5t-7.5 -57.5q-11 -49 -30.5 -96.5t-59 -100.5t-92.5 -92t-136 -65t-183 -26t-150 24l-8 -39 q-34 -157 -49.5 -250t-20.5 -190l-6 -7q-35 7 -118 7q-40 0 -71 -2t-43 -3l-11 -2v7zM529 558q53 -23 155 -23q74 0 126.5 28.5t87 88t55.5 154.5q9 45 11 80.5t-2 61.5t-15 45t-26.5 30.5t-37.5 19t-46 10t-55 2.5q-25 0 -73.5 -6.5t-78.5 -14.5z" />
<glyph unicode="&#xe061;" horiz-adv-x="1400" d="M217.5 312q-22.5 104 5.5 229q29 134 98 248.5t165 194.5t215.5 126t246.5 46q119 0 218 -42t163 -119t89 -184.5t-3 -238.5q-32 -152 -121 -281.5t-224 -210.5q256 -163 428 -235l-3 -14q-170 -80 -249 -133q-28 24 -73 64t-61.5 54.5t-49 41.5t-56.5 43.5t-60.5 41 t-83.5 53.5q-89 -20 -184 -20q-123 0 -221 41t-157.5 116t-82 179zM439 306q24 -111 101 -173t196 -62q166 0 286.5 122t167.5 346q26 123 15.5 219.5t-50 163t-104 101t-146.5 34.5q-71 0 -140.5 -30t-132 -88.5t-112 -153.5t-75.5 -215q-30 -153 -6 -264z" />
<glyph unicode="&#xe062;" horiz-adv-x="1132" d="M185 0q35 93 60 189t57 251l53 250q33 153 49.5 251t20.5 189l3 8q35 -8 122 -8q50 0 131.5 4t108.5 4q89 0 159 -18t117 -52.5t65 -90t3 -126.5q-48 -228 -278 -307q42 -78 129 -274.5t136 -269.5l-6 -7q-46 7 -120 7q-90 0 -136 -7q-1 34 -15.5 82.5t-27 78.5t-34.5 77 q-1 3 -2 4.5t-2 4t-2 4.5q-13 29 -37 87.5t-44 100t-42 76.5q-15 -2 -45 -2h-90l-14 -66q-34 -157 -49.5 -250t-20.5 -190l-6 -7q-35 7 -118 7q-40 0 -71 -2t-43 -3l-11 -2v7zM535 590h82q73 0 125.5 12.5t94.5 42.5t69.5 80.5t43.5 125.5q10 56 3.5 94t-33 61t-60.5 33 t-79 10q-47 0 -77.5 -4.5t-48 -15t-25.5 -22.5t-12 -31z" />
<glyph unicode="&#xe063;" horiz-adv-x="960" d="M90 44l86 209l38 3q25 -84 97 -133.5t162 -49.5q99 0 172.5 60.5t96.5 164.5q4 20 4 37.5t-2 31.5t-11 27.5t-16 23t-23.5 20.5t-27 17.5t-33 17t-36 16l-40.5 16.5q-3 1 -5 2t-5 2l-6 2q-3 2 -10 5q-34 14 -51.5 22t-46 23t-45.5 28t-34.5 33t-28.5 42q-35 63 -12 171 q17 79 66.5 142t116.5 101t140.5 58t144.5 20q86 0 161.5 -24.5t130.5 -59.5l3 -8l-86 -177l-35 -3q-6 31 -21 60t-39.5 56t-62.5 43.5t-83 16.5q-84 0 -154.5 -48.5t-86.5 -127.5q-24 -109 94 -170q26 -14 83 -36q32 -12 55.5 -21t51.5 -22t47.5 -25t40.5 -29t34.5 -34.5 t25 -40.5t15.5 -48t3.5 -56.5t-8.5 -66.5q-8 -39 -24 -77.5t-42 -80t-65.5 -76.5t-90 -64t-121 -45t-152.5 -16q-199 0 -365 68z" />
<glyph unicode="&#xe064;" horiz-adv-x="1110" d="M269 976q19 56 32 154l6 5q72 -5 135 -5h708q62 0 136 5l4 -5q-30 -107 -34 -154l-6 -8q-8 3 -29 7.5t-119 12t-234 7.5l-118 -552q-34 -161 -49.5 -253.5t-20.5 -189.5l-6 -7q-35 7 -118 7q-39 0 -70 -2t-43 -3l-12 -2l-1 7q24 64 44.5 136t36 136.5t37.5 170.5l118 552 q-137 0 -235 -6.5t-128 -13.5l-31 -7z" />
<glyph unicode="&#xe065;" horiz-adv-x="1353" d="M293.5 286.5q-4.5 69.5 12.5 158.5l52 243q33 156 49 253.5t20 188.5l4 8q35 -8 121 -8q37 0 68 2t42 4l12 2l4 -8q-36 -99 -61 -194t-58 -248l-41 -191q-11 -55 -18 -97t-10 -89.5t2 -82.5t20 -68.5t40.5 -54.5t66.5 -33.5t96 -12.5q51 0 95 9t78 24t64 39.5t51.5 49 t40.5 59.5t31.5 65t24.5 71t19 71t16 71l36 170q33 156 49.5 253.5t20.5 188.5l3 8q59 -8 83 -8l82 8l3 -8q-36 -99 -61 -194t-57 -248l-29 -137q-23 -109 -53 -192t-78.5 -157.5t-112.5 -122.5t-156 -75.5t-209 -27.5q-44 0 -89.5 10t-93 32.5t-84 58.5t-64 88t-32 121.5z " />
<glyph unicode="&#xe066;" horiz-adv-x="1262" d="M296 1138q41 -8 134 -8q88 0 124 8q46 -445 148 -899h22q36 53 74 112t80.5 130t74 123.5t81.5 139t73.5 128t79 139.5t72.5 127q23 -8 83 -8q82 0 109 8q-40 -61 -147.5 -223.5t-161 -244t-138 -213t-152.5 -243.5t-131 -221q-20 7 -95 7q-66 0 -94 -7 q-108 626 -236 1145z" />
<glyph unicode="&#xe067;" horiz-adv-x="1948" d="M296 1138q55 -10 134 -10q76 0 124 10q28 -270 59 -483.5t78 -418.5h33q152 224 334 536q-43 212 -81 368q54 -10 135 -10q80 0 128 10q55 -533 140 -901h37q62 90 136.5 213.5t127 216t139 247.5t125.5 224q31 -10 79 -10q78 0 113 10q-61 -93 -186.5 -281t-200 -300.5 t-174.5 -272t-177 -293.5q-23 7 -102 7q-68 0 -97 -7q-82 471 -110 621q-159 -252 -370 -624q-20 8 -108 8q-54 0 -83 -8q-115 668 -233 1148z" />
<glyph unicode="&#xe068;" horiz-adv-x="1198" d="M50 -7l556 555l-328 590q41 -8 152 -8q93 0 139 8q16 -43 34.5 -85t43 -92t39 -78.5t47 -91.5t42.5 -83l104.5 104.5l112.5 112.5t97 100.5t104 112.5q27 -8 92 -8q88 0 119 8l-577 -531q97 -203 326 -614q-38 7 -128 7q-111 0 -151 -7q-29 67 -61.5 135.5t-83.5 171 t-67 134.5q-321 -346 -405 -441q-25 7 -114 7q-64 0 -93 -7z" />
<glyph unicode="&#xe069;" horiz-adv-x="1098" d="M296 1138q47 -8 114 -8q72 0 117 8q14 -51 31.5 -103t36.5 -105t36 -98t39.5 -106t38.5 -104q254 303 400 516q32 -8 87 -8q56 0 90 8q-64 -75 -150.5 -174.5t-133 -153t-100 -116.5t-89.5 -108.5t-65 -86.5q-32 -156 -59 -302.5t-34 -203.5q-39 7 -104 7q-63 0 -108 -7 q31 97 116 488q-40 108 -135 347t-128 310z" />
<glyph unicode="&#xe06a;" horiz-adv-x="1093" d="M53 5q12 9 23.5 21.5t26.5 29.5t25 28l814 913q-135 -2 -286 -8.5t-235 -12.5l-84 -5l-6 7q17 44 24 82q2 10 3 20t2.5 23t3.5 27l8 8q58 -8 146 -8h536q33 0 84 4.5t90 8.5t43 4q7 0 10.5 -4.5t1.5 -12.5q-14 -11 -106 -110l-789 -887q141 0 307 6.5t261 13.5l95 7l4 -8 q-12 -30 -22 -81q-3 -17 -11 -71l-6 -7q-57 7 -146 7h-595q-34 0 -87.5 -2t-90.5 -3l-37 -2z" />
<glyph unicode="&#xe06d;" horiz-adv-x="817" d="M203 554.5q-3 9.5 0 20.5q6 30 32.5 60.5t48.5 30.5h563q17 0 22.5 -13t1.5 -31q-5 -24 -33 -56.5t-51 -32.5h-555q-11 0 -18.5 6t-10.5 15.5z" />
<glyph unicode="&#xe070;" horiz-adv-x="1228" d="M38 -5q391 581 770 1170h140q28 -138 81 -416.5t92.5 -476t61.5 -277.5q-29 5 -156 5q-59 0 -89 -5q-9 150 -49 396q-137 5 -212 5q-100 0 -234 -5q-163 -264 -226 -396q-21 5 -79 5q-77 0 -100 -5zM504 490q22 -1 58.5 -2.5t69.5 -2.5t56 -1q67 0 184 4q-39 223 -86 436 h-5q-15 -24 -118.5 -185t-158.5 -249zM772 1573l10 27q90 56 172 56q17 0 36 -5l107 -309q8 -27 1 -59q-2 -10 -15 -18.5t-27 -8.5q-21 0 -61 48z" />
<glyph unicode="&#xe072;" horiz-adv-x="1228" d="M38 -5q391 581 770 1170h140q28 -138 81 -416.5t92.5 -476t61.5 -277.5q-29 5 -156 5q-59 0 -89 -5q-9 150 -49 396q-137 5 -212 5q-100 0 -234 -5q-163 -264 -226 -396q-21 5 -79 5q-77 0 -100 -5zM504 490q22 -1 58.5 -2.5t69.5 -2.5t56 -1q67 0 184 4q-39 223 -86 436 h-5q-15 -24 -118.5 -185t-158.5 -249zM587 1283q75 68 115 104.5t101 98t105 114.5h123q51 -127 181 -317l-59 -35q-73 64 -121 113t-92 109q-131 -110 -311 -222z" />
<glyph unicode="&#xe074;" horiz-adv-x="1228" d="M38 -5q391 581 770 1170h140q28 -138 81 -416.5t92.5 -476t61.5 -277.5q-29 5 -156 5q-59 0 -89 -5q-9 150 -49 396q-137 5 -212 5q-100 0 -234 -5q-163 -264 -226 -396q-21 5 -79 5q-77 0 -100 -5zM504 490q22 -1 58.5 -2.5t69.5 -2.5t56 -1q67 0 184 4q-39 223 -86 436 h-5q-15 -24 -118.5 -185t-158.5 -249zM622 1409q10 46 50.5 79.5t86 33.5t72 -33.5t16.5 -79.5t-50.5 -80t-86 -34t-72 34t-16.5 80zM1014 1409q10 46 51 79.5t87 33.5t72.5 -33.5t16.5 -79.5t-50.5 -80t-86.5 -34q-30 0 -53 15.5t-33 42t-4 56.5z" />
<glyph unicode="&#xe076;" horiz-adv-x="1766" d="M85 -5q359 485 780 1140q100 -5 294 -5h499q88 0 149 8l4 -8q-4 -13 -9 -29t-8 -27t-5 -19q-4 -18 -6 -52l-7 -11q-8 2 -23 4t-66 7t-107.5 9t-145 7t-180.5 3q-10 -20 -25 -69.5t-28.5 -105t-23 -97t-13.5 -62.5l-10 -46q132 0 194.5 3t119.5 10.5t99 10.5l6 -7 q-15 -34 -23 -69q-7 -32 -7 -69l-8 -7q-249 25 -403 25l-21 -96q-53 -264 -48 -323q146 0 286 7.5t207 14.5l66 8l3 -10q-14 -35 -22 -76q-1 -9 -2.5 -16t-1.5 -12t-1.5 -15t-2.5 -21l-6 -7q-58 7 -147 7h-523q-40 0 -72 -2t-43 -3l-12 -2l-1 7q35 94 61 192t58 248l20 99 h-323q-264 -408 -343 -544q-22 5 -79 5q-77 0 -100 -5zM674 642h279l67 319q5 29 6 45.5t-5.5 25.5t-14.5 11.5t-22 2.5q-13 0 -28 -7.5t-34.5 -26t-38.5 -46.5q-34 -54 -209 -324z" />
<glyph unicode="&#xe077;" horiz-adv-x="1238" d="M212 413q-4 66 12 133q28 132 99 246t167.5 193.5t215.5 125t242 45.5q66 0 122 -5.5t90.5 -12t69.5 -20.5t48.5 -21t41 -24t34.5 -21l3 -8l-99 -202l-33 -2q-10 29 -18.5 48.5t-22.5 45.5t-28.5 43.5t-36.5 36.5t-47 30t-59.5 18t-75.5 7q-60 0 -114 -11.5t-114 -45.5 t-108 -87.5t-90.5 -144.5t-67.5 -210q-14 -63 -17 -122t3.5 -115.5t29 -103.5t57.5 -82.5t91 -55.5t129 -20q119 0 204.5 41.5t195.5 145.5l39 -61q-108 -113 -211.5 -165t-235.5 -56l-82 -140q30 7 66 7q75 0 115.5 -42t25.5 -111q-17 -79 -102.5 -130.5t-198.5 -51.5 q-56 0 -91.5 9.5t-81.5 32.5q8 39 37 64q52 -21 77 -27.5t59 -6.5q56 0 96.5 26t49.5 72q18 86 -62 86q-64 0 -114 -15l-12 15l134 214q-82 7 -152 33.5t-119.5 67t-86.5 93.5t-53.5 114t-20.5 127z" />
<glyph unicode="&#xe078;" horiz-adv-x="1156" d="M187 0q35 93 60 189t58 251l53 250q32 153 48.5 251t20.5 189l4 8q37 -8 123 -8h500q87 0 148 8l4 -8q-19 -70 -20 -75q-6 -25 -8 -52l-6 -11q-21 4 -62.5 9t-178 13t-282.5 8q-19 -37 -48 -153t-42 -181l-9 -46q131 0 193.5 3t120 10.5t98.5 10.5l6 -7q-15 -34 -22 -69 q-6 -27 -6 -69l-10 -7q-248 25 -403 25l-21 -96q-52 -264 -48 -323q147 0 286.5 7.5t206.5 14.5l67 8l2 -10q-11 -28 -20 -76q-3 -14 -10 -64l-6 -7q-58 7 -146 7h-524q-40 0 -72 -2t-43 -3l-12 -2v7zM701 1597l11 28q89 56 171 56q17 0 36 -5l106 -309q9 -29 2 -59 q-2 -9 -15 -18.5t-27 -9.5q-20 0 -61 50z" />
<glyph unicode="&#xe079;" horiz-adv-x="1156" d="M187 0q35 93 60 189t58 251l53 250q32 153 48.5 251t20.5 189l4 8q37 -8 123 -8h500q87 0 148 8l4 -8q-19 -70 -20 -75q-6 -25 -8 -52l-6 -11q-21 4 -62.5 9t-178 13t-282.5 8q-19 -37 -48 -153t-42 -181l-9 -46q131 0 193.5 3t120 10.5t98.5 10.5l6 -7q-15 -34 -22 -69 q-6 -27 -6 -69l-10 -7q-248 25 -403 25l-21 -96q-52 -264 -48 -323q147 0 286.5 7.5t206.5 14.5l67 8l2 -10q-11 -28 -20 -76q-3 -14 -10 -64l-6 -7q-58 7 -146 7h-524q-40 0 -72 -2t-43 -3l-12 -2v7zM692 1268q2 6 3.5 11t4 10l4 8t6 9t6.5 8.5t9 10.5t11 12l247 293 q17 4 36 4q76 0 122 -56l3 -28l-340 -267q-56 -47 -84 -47q-13 0 -21.5 10t-6.5 22z" />
<glyph unicode="&#xe07a;" horiz-adv-x="1156" d="M187 0q35 93 60 189t58 251l53 250q32 153 48.5 251t20.5 189l4 8q37 -8 123 -8h500q87 0 148 8l4 -8q-19 -70 -20 -75q-6 -25 -8 -52l-6 -11q-21 4 -62.5 9t-178 13t-282.5 8q-19 -37 -48 -153t-42 -181l-9 -46q131 0 193.5 3t120 10.5t98.5 10.5l6 -7q-15 -34 -22 -69 q-6 -27 -6 -69l-10 -7q-248 25 -403 25l-21 -96q-52 -264 -48 -323q147 0 286.5 7.5t206.5 14.5l67 8l2 -10q-11 -28 -20 -76q-3 -14 -10 -64l-6 -7q-58 7 -146 7h-524q-40 0 -72 -2t-43 -3l-12 -2v7zM559 1280q76 68 115.5 104.5t101 98.5t105.5 114h122q52 -127 181 -317 l-58 -34q-74 64 -122 112.5t-92 109.5q-130 -111 -311 -222z" />
<glyph unicode="&#xe07b;" horiz-adv-x="1156" d="M187 0q35 93 60 189t58 251l53 250q32 153 48.5 251t20.5 189l4 8q37 -8 123 -8h500q87 0 148 8l4 -8q-19 -70 -20 -75q-6 -25 -8 -52l-6 -11q-21 4 -62.5 9t-178 13t-282.5 8q-19 -37 -48 -153t-42 -181l-9 -46q131 0 193.5 3t120 10.5t98.5 10.5l6 -7q-15 -34 -22 -69 q-6 -27 -6 -69l-10 -7q-248 25 -403 25l-21 -96q-52 -264 -48 -323q147 0 286.5 7.5t206.5 14.5l67 8l2 -10q-11 -28 -20 -76q-3 -14 -10 -64l-6 -7q-58 7 -146 7h-524q-40 0 -72 -2t-43 -3l-12 -2v7zM593 1411q10 46 50.5 79.5t86.5 33.5t72 -33.5t16 -79.5t-50.5 -80 t-86 -34t-72 34t-16.5 80zM985 1411q10 46 51 79.5t87 33.5t72.5 -33.5t16.5 -79.5t-51 -80t-87 -34t-72.5 34t-16.5 80z" />
<glyph unicode="&#xe07e;" horiz-adv-x="619" d="M185 0q35 93 60 189t57 251l53 250q33 153 49.5 251t20.5 189l3 8q35 -8 122 -8q37 0 67.5 2t42.5 4l12 2l4 -8q-25 -66 -46.5 -142.5t-33 -124.5t-39.5 -173l-53 -250q-34 -157 -49.5 -250t-20.5 -190l-6 -7q-35 7 -118 7q-39 0 -70 -2t-43 -3l-12 -2v7zM305 1283 q71 64 113.5 103.5t102.5 100t104 113.5h123q51 -127 181 -317l-59 -35q-36 32 -59.5 53.5t-52 50t-53.5 57.5t-49 61q-133 -113 -309 -222z" />
<glyph unicode="&#xe07f;" horiz-adv-x="619" d="M185 0q35 93 60 189t57 251l53 250q33 153 49.5 251t20.5 189l3 8q35 -8 122 -8q37 0 67.5 2t42.5 4l12 2l4 -8q-25 -66 -46.5 -142.5t-33 -124.5t-39.5 -173l-53 -250q-34 -157 -49.5 -250t-20.5 -190l-6 -7q-35 7 -118 7q-39 0 -70 -2t-43 -3l-12 -2v7zM321.5 1411 q9.5 46 51 79.5t87.5 33.5t72 -33.5t16 -79.5t-51 -80t-86.5 -34t-72 34t-17 80zM715 1411q10 46 50.5 79.5t86.5 33.5t72.5 -33.5t16.5 -79.5t-50.5 -80t-86.5 -34t-72.5 34t-16.5 80z" />
<glyph unicode="&#xe084;" horiz-adv-x="1400" d="M217.5 312q-22.5 104 5.5 229q29 134 98 248.5t165 194.5t215.5 126t246.5 46q119 0 218 -42t163 -119t89 -184.5t-3 -238.5q-21 -96 -64 -184t-109.5 -163.5t-149.5 -130.5t-189.5 -86.5t-224.5 -31.5q-123 0 -221 41t-157.5 116t-82 179zM439 306q24 -111 101 -173 t196 -62q166 0 286.5 122t167.5 346q26 123 15.5 219.5t-50 163t-104 101t-146.5 34.5q-71 0 -140.5 -30t-132 -88.5t-112 -153.5t-75.5 -215q-30 -153 -6 -264zM652 1273q71 64 113.5 103.5t102.5 100t104 113.5h122q52 -127 182 -317l-59 -35q-73 65 -121.5 113.5 t-92.5 108.5q-133 -113 -309 -222z" />
<glyph unicode="&#xe086;" horiz-adv-x="1400" d="M217.5 312q-22.5 104 5.5 229q29 134 98 248.5t165 194.5t215.5 126t246.5 46q119 0 218 -42t163 -119t89 -184.5t-3 -238.5q-21 -96 -64 -184t-109.5 -163.5t-149.5 -130.5t-189.5 -86.5t-224.5 -31.5q-123 0 -221 41t-157.5 116t-82 179zM439 306q24 -111 101 -173 t196 -62q166 0 286.5 122t167.5 346q26 123 15.5 219.5t-50 163t-104 101t-146.5 34.5q-71 0 -140.5 -30t-132 -88.5t-112 -153.5t-75.5 -215q-30 -153 -6 -264zM680 1409q7 30 28 56t50 41.5t59 15.5q46 0 72.5 -33.5t16.5 -79.5t-50.5 -80t-86.5 -34t-72.5 34t-16.5 80z M1074 1409q10 46 50.5 79.5t86.5 33.5t72 -33.5t16.5 -79.5t-50 -80t-86.5 -34t-72.5 34t-16.5 80z" />
<glyph unicode="&#xe087;" horiz-adv-x="1780" d="M177 293q-22 99 5 228q28 128 95.5 241t163.5 196.5t222.5 131.5t264.5 48q1 0 43.5 -2t101.5 -4t102 -2h498q87 0 149 8l3 -8q-19 -70 -20 -75q-4 -18 -6 -52l-7 -11q-8 2 -23 4t-66 7t-107.5 9t-145 7t-180.5 3q-14 -26 -35.5 -103t-35.5 -138.5t-21 -92.5l-9 -46 q131 0 193.5 3t120 10.5t99.5 10.5l6 -7q-13 -29 -22 -69q-7 -32 -7 -69l-10 -7q-248 25 -402 25l-20 -96q-1 -2 -2 -8q-52 -259 -47 -315q146 0 285.5 7.5t206.5 14.5l67 8l2 -10q-11 -28 -20 -76q-3 -14 -10 -64l-6 -7q-57 7 -146 7h-523q-55 0 -143.5 -3.5t-104.5 -3.5 q-142 0 -248.5 34t-172.5 100.5t-88 165.5zM390.5 331.5q11.5 -91.5 59.5 -150.5t120 -87t169 -28q62 0 87.5 18.5t35.5 63.5l178 840q5 12 3 21.5t-3 17.5t-8.5 14t-13.5 10t-18 7t-22 4.5t-26 2.5t-30 1.5t-34 0.5q-57 0 -114 -18t-114 -58t-105 -99t-88 -146.5 t-63 -194.5q-25 -128 -13.5 -219.5z" />
<glyph unicode="&#xe089;" horiz-adv-x="1353" d="M293.5 286.5q-4.5 69.5 12.5 158.5l52 243q33 156 49 253.5t20 188.5l4 8q35 -8 121 -8q37 0 68 2t42 4l12 2l4 -8q-36 -99 -61 -194t-58 -248l-41 -191q-11 -55 -18 -97t-10 -89.5t2 -82.5t20 -68.5t40.5 -54.5t66.5 -33.5t96 -12.5q51 0 95 9t78 24t64 39.5t51.5 49 t40.5 59.5t31.5 65t24.5 71t19 71t16 71l36 170q33 156 49.5 253.5t20.5 188.5l3 8q59 -8 83 -8l82 8l3 -8q-36 -99 -61 -194t-57 -248l-29 -137q-23 -109 -53 -192t-78.5 -157.5t-112.5 -122.5t-156 -75.5t-209 -27.5q-44 0 -89.5 10t-93 32.5t-84 58.5t-64 88t-32 121.5z M790 1564l10 26q90 56 172 56q17 0 36 -4l106 -310q8 -29 2 -59q-2 -9 -15 -18t-27 -9q-20 0 -61 49z" />
<glyph unicode="&#xe08b;" horiz-adv-x="1353" d="M293.5 286.5q-4.5 69.5 12.5 158.5l52 243q33 156 49 253.5t20 188.5l4 8q35 -8 121 -8q37 0 68 2t42 4l12 2l4 -8q-36 -99 -61 -194t-58 -248l-41 -191q-11 -55 -18 -97t-10 -89.5t2 -82.5t20 -68.5t40.5 -54.5t66.5 -33.5t96 -12.5q51 0 95 9t78 24t64 39.5t51.5 49 t40.5 59.5t31.5 65t24.5 71t19 71t16 71l36 170q33 156 49.5 253.5t20.5 188.5l3 8q59 -8 83 -8l82 8l3 -8q-36 -99 -61 -194t-57 -248l-29 -137q-23 -109 -53 -192t-78.5 -157.5t-112.5 -122.5t-156 -75.5t-209 -27.5q-44 0 -89.5 10t-93 32.5t-84 58.5t-64 88t-32 121.5z M688 1271q71 64 113.5 103.5t102.5 100t104 113.5h124q53 -132 180 -317l-59 -35q-38 33 -60 53t-51.5 49t-54 58t-48.5 61q-128 -109 -309 -221z" />
<glyph unicode="&#xe08c;" horiz-adv-x="1353" d="M293.5 286.5q-4.5 69.5 12.5 158.5l52 243q33 156 49 253.5t20 188.5l4 8q35 -8 121 -8q37 0 68 2t42 4l12 2l4 -8q-36 -99 -61 -194t-58 -248l-41 -191q-11 -55 -18 -97t-10 -89.5t2 -82.5t20 -68.5t40.5 -54.5t66.5 -33.5t96 -12.5q51 0 95 9t78 24t64 39.5t51.5 49 t40.5 59.5t31.5 65t24.5 71t19 71t16 71l36 170q33 156 49.5 253.5t20.5 188.5l3 8q59 -8 83 -8l82 8l3 -8q-36 -99 -61 -194t-57 -248l-29 -137q-23 -109 -53 -192t-78.5 -157.5t-112.5 -122.5t-156 -75.5t-209 -27.5q-44 0 -89.5 10t-93 32.5t-84 58.5t-64 88t-32 121.5z M732 1409q10 46 50.5 79.5t86.5 33.5t72 -33.5t16.5 -79.5t-50 -80t-86.5 -34t-72.5 34t-16.5 80zM1126 1409q6 30 27 56t50 41.5t59 15.5q46 0 72.5 -33.5t16.5 -79.5t-50.5 -80t-86 -34t-72 34t-16.5 80z" />
<glyph unicode="&#xe08f;" horiz-adv-x="1098" d="M296 1138q47 -8 114 -8q72 0 117 8q14 -51 31.5 -103t36.5 -105t36 -98t39.5 -106t38.5 -104q254 303 400 516q32 -8 87 -8q56 0 90 8q-64 -75 -150.5 -174.5t-133 -153t-100 -116.5t-89.5 -108.5t-65 -86.5q-32 -156 -59 -302.5t-34 -203.5q-39 7 -104 7q-63 0 -108 -7 q31 97 116 488q-40 108 -135 347t-128 310zM575 1409q10 46 50.5 79.5t86.5 33.5t72 -33.5t16 -79.5t-50.5 -80t-86 -34t-72 34t-16.5 80zM968 1409q10 46 50.5 79.5t86.5 33.5t72.5 -33.5t16.5 -79.5t-50.5 -80t-86.5 -34t-72.5 34t-16.5 80z" />
<glyph unicode="&#xe092;" horiz-adv-x="1332" d="M155 0q34 93 60 191t57 249l32 144q18 89 45.5 162.5t67.5 139t94.5 114t123.5 84t158.5 54t196.5 18.5q54 0 128.5 -8.5t148 -23t118.5 -31.5l-9 -38l-346 -384q-3 -2 -7 -8.5t-4 -8.5q-1 -5 1.5 -7.5t7.5 -2.5q106 -4 174 -50.5t91 -117.5t4 -157q-14 -64 -57.5 -126 t-106 -110t-145 -77.5t-167.5 -29.5q-56 0 -116 15.5t-92.5 29.5t-44.5 23l-2 8q14 16 24.5 33.5t16 29t17.5 38t19 41.5l28 3q14 -41 67 -86t102 -45q195 0 248 246q4 16 5 35.5t-2.5 47t-12.5 53.5t-29 52.5t-48.5 46t-74 31.5t-103.5 12q-4 0 -9 -0.5t-11.5 -2.5 t-11.5 -3l-1 45q113 117 223.5 241t115.5 152q4 20 -61.5 33.5t-130.5 13.5q-81 0 -144.5 -22t-117.5 -72t-94 -136.5t-66 -209.5l-40 -184q-32 -151 -47.5 -247.5t-21.5 -197.5l-6 -7q-37 7 -120 7q-39 0 -70 -2t-42 -3l-12 -2z" />
<glyph unicode="&#xe0b6;" horiz-adv-x="619" d="M185 0q35 93 60 189t57 251l53 250q33 153 49.5 251t20.5 189l3 8q35 -8 122 -8q37 0 67.5 2t42.5 4l12 2l4 -8q-25 -66 -46.5 -142.5t-33 -124.5t-39.5 -173l-53 -250q-34 -157 -49.5 -250t-20.5 -190l-6 -7q-35 7 -118 7q-39 0 -70 -2t-43 -3l-12 -2v7zM482 1400 q7 33 30.5 62t56 46.5t65.5 17.5q49 0 79.5 -38t19.5 -87.5t-57 -87t-95.5 -37.5t-79 37.5t-19.5 86.5z" />
<glyph unicode="&#xe0c0;" horiz-adv-x="729" d="M290 1052q31 147 298 212l150 36q11 53 11 91.5t-8.5 59.5t-25 33.5t-31.5 16t-35 3.5q-40 0 -72 -8.5t-51.5 -23.5t-23.5 -34q-5 -20 -2 -33q3 -10 -1 -29q-3 -17 -23.5 -34t-51.5 -17q-29 0 -43 16.5t-8 44.5q10 47 61.5 89.5t116 66.5t116.5 24q28 0 52 -3.5t49 -12 t44 -22t35 -35.5t23.5 -50.5t7.5 -69t-10 -88.5l-39 -183q-30 -141 4 -141q18 0 32 12l17 -39q-24 -21 -59.5 -37.5t-67.5 -16.5q-29 0 -49 15t-27.5 36t-6.5 45q-77 -57 -123 -76.5t-106 -19.5q-80 0 -124.5 47.5t-28.5 124.5zM419 1010.5q4 -22.5 27 -37t63 -14.5 q38 0 76.5 18.5t97.5 61.5l42 195q-162 -40 -227.5 -78t-78.5 -96q-4 -27 0 -49.5z" />
<glyph unicode="&#xe0c1;" horiz-adv-x="729" d="M310 889q13 39 32 129l124 582q14 77 9 99t-31 22l-50 2q-4 0 -7 2t-2 5l7 45q33 2 77 8.5t85.5 15.5t62.5 17q20 0 17 -17q-20 -64 -41 -167l-30 -143q107 61 194 61q56 0 97 -26t61.5 -70.5t26.5 -102t-10 -120.5q-19 -90 -75.5 -171t-135 -130.5t-156.5 -49.5 q-107 0 -162 58q-25 -25 -61 -58zM476.5 1025q4.5 -31 23.5 -49t39 -25.5t43 -7.5q17 0 32.5 3.5t36.5 12.5t40 28t38 46t35.5 70t28.5 98q14 68 13 119t-15 85.5t-36.5 52t-50.5 17.5q-46 0 -78 -11.5t-79 -42.5l-67 -317q-8 -48 -3.5 -79z" />
<glyph unicode="&#xe0c2;" horiz-adv-x="692" d="M314 1106q0 49 10 104q15 68 49 131.5t83 114t117.5 80.5t145.5 30q110 0 162.5 -49t37.5 -117q-8 -35 -28.5 -52.5t-48.5 -17.5t-44.5 14t-13.5 42q4 20 2.5 40.5t-8 36.5t-27 26t-54.5 10q-30 0 -63.5 -16.5t-68 -48.5t-63.5 -88t-44 -127q-22 -103 4 -167 q11 -28 31 -49t44.5 -32.5t51.5 -11.5t53 6.5t44 14.5t42 25t36.5 27t37.5 32l38 -39q-133 -145 -280 -145q-61 0 -108 17t-76 47t-45.5 71.5t-16.5 90.5z" />
<glyph unicode="&#xe0c3;" horiz-adv-x="756" d="M326 1201q13 61 43.5 121.5t74.5 112t106 83.5t130 32q106 0 150 -51l21 101q15 77 10 99t-31 22l-51 2q-4 0 -6.5 2t-2.5 5l8 45q52 4 123 16.5t102 24.5q7 0 11 -2t5 -5.5t0 -9.5q-19 -64 -41 -167l-116 -551q-12 -61 -8 -74t30 -15l75 -7l-5 -44q-158 -28 -216 -61 h-40l22 81h-5q-100 -72 -175 -72q-81 0 -136.5 38t-76.5 109.5t-1 164.5zM451 1100.5q0 -55.5 17.5 -88.5t42 -46.5t58.5 -13.5q39 0 77 18t84 57l76 364q-61 96 -134 96q-69 0 -123.5 -60t-81.5 -189q-16 -82 -16 -137.5z" />
<glyph unicode="&#xe0c4;" d="M314 1106.5q0 48.5 10 103.5q19 91 72.5 172t132.5 132.5t165 51.5q50 0 88 -11t61 -31.5t36.5 -46.5t17.5 -60.5t2 -68.5t-9 -75h-418q-1 -1 -14 -51q-22 -106 4 -170q19 -41 54 -67t73 -26q34 0 63.5 8t57 25t46 32t46.5 40l40 -39q-65 -70 -132.5 -106.5t-147.5 -36.5 q-62 0 -109 17t-76 46.5t-46 71t-17 90zM494 1342h270q9 49 7 80.5t-17.5 49.5t-33.5 25t-42 7q-22 0 -45.5 -10t-44 -27t-39 -38t-32.5 -43.5t-23 -43.5z" />
<glyph unicode="&#xe0c5;" horiz-adv-x="621" d="M262 898l9 40q3 12 15 14l31 4q39 7 54.5 21t23.5 48l79 373h-103q-8 0 -6 7l7 35q2 11 12 20.5t29 9.5h77q18 85 54.5 153t82.5 109t95.5 62.5t98.5 21.5q77 0 123 -41q43 -34 34 -77q-4 -22 -25 -39t-43 -17q-45 0 -57 46q-7 37 -24 51.5t-50 14.5q-17 0 -31.5 -4 t-33.5 -20t-35 -43t-33 -76.5t-32 -116.5l-4 -24h166q6 0 9 -2t2 -5l-9 -45q-3 -10 -14.5 -15t-24.5 -5h-145l-79 -373q-7 -34 3.5 -49.5t45.5 -19.5l50 -4q5 0 9 -3.5t2 -10.5l-9 -40l-3 -4q-133 4 -192 4l-155 -4z" />
<glyph unicode="&#xe0c6;" horiz-adv-x="774" d="M198 686.5q-3 25.5 2 58.5q19 88 161 169q-28 15 -44.5 44t-8.5 67q8 37 38.5 78.5t67.5 71.5q-32 37 -45.5 74.5t-2.5 92.5q11 50 42.5 93.5t74 71.5t92 43.5t97.5 15.5q82 0 132 -37q73 66 151 66q43 0 64 -18.5t17 -42.5q-6 -26 -26 -42.5t-43 -16.5q-12 0 -20.5 3.5 t-13 10t-4.5 15.5q-6 22 -40 22q-21 0 -47 -34q28 -41 37.5 -73.5t-1.5 -81.5q-14 -71 -63.5 -122.5t-111.5 -75t-127 -23.5q-83 0 -128 29q-28 -29 -40 -83q-16 -77 72 -77q2 0 48 5q11 1 26.5 2t26.5 2.5t23.5 2t20.5 0.5q34 0 66.5 -4t72 -19t62.5 -40q51 -57 37 -123 q-13 -59 -58.5 -105.5t-111 -73.5t-139 -41t-148.5 -14q-30 0 -56 3.5t-53 11t-46.5 20t-34.5 31t-18 44zM307 774q-7 -32 2.5 -56t27 -36t43.5 -19.5t44.5 -9t38.5 -1.5q47 0 81 1.5t76 8.5t70.5 19.5t50.5 35.5t29 55q6 28 -6.5 44t-55.5 40q-62 36 -157 36q-29 0 -49 -3 q-12 0 -33.5 -1t-29.5 -1q-24 0 -53 15q-39 -31 -54.5 -58t-24.5 -70zM484 1285q0 -19 3.5 -35.5t11.5 -31.5t20.5 -25.5t31.5 -16.5t44 -6q20 0 34.5 2t34.5 11.5t35 25.5t29.5 47.5t23.5 75.5q10 46 8 80t-15.5 56t-38 33t-58.5 11q-62 0 -100 -35.5t-56 -120.5 q-4 -18 -6 -35t-2 -36z" />
<glyph unicode="&#xe0ca;" horiz-adv-x="781" d="M234 894l10 44q3 12 13 14l19 2q45 5 56 15.5t20 50.5l123 580q15 77 10 99t-31 22l-51 2q-4 0 -6.5 2t-1.5 5l7 45q52 4 123 16.5t101 24.5q21 0 17 -17q-19 -64 -41 -167l-78 -365q55 22 106 57t125 102q76 60 -5 68q-5 1 -8 4.5t-2 7.5l9 42l3 2q74 -2 128 -2l158 2 l4 -2l-9 -42q-1 -5 -7 -8.5t-11 -3.5q-117 -14 -199 -85l-113 -105q-7 -5 -9 -16q-2 -12 3 -20l106 -229q40 -80 122 -87q8 -1 13 -4.5t4 -9.5l-8 -38l-6 -6q-92 4 -150 4l-94 -4l-4 6l9 38q2 11 -1.5 23.5t-19.5 44.5l-76 157q-2 2 -7 11t-7 12t-7 9.5t-8.5 9t-9.5 6t-12 5 t-14 1.5q-9 0 -13 -1l-41 -196q-8 -36 3 -48.5t44 -17.5l19 -2q4 0 7.5 -3.5t1.5 -10.5l-9 -44q-94 4 -154 4z" />
<glyph unicode="&#xe0cc;" horiz-adv-x="1191" d="M262 894l9 44q3 12 15 14l18 2q45 6 56 16t19 50l70 329q15 77 10 99t-31 22l-51 2q-4 0 -6.5 2t-2.5 6l8 44q50 4 122 17t103 25q19 0 16 -18q-13 -41 -28 -108l4 -2q29 28 60 53t81 50t90 25q140 0 147 -127q29 27 62 52.5t83.5 50t90.5 24.5q185 0 137 -227l-68 -319 q-4 -16 -3.5 -27t2.5 -17.5t11 -11t16.5 -6t23.5 -4.5l14 -2q13 -2 10 -14l-10 -44q-92 4 -152 4l-160 -4l10 44q3 12 14 14l28 2q26 2 39 6.5t22 18t15 41.5l62 295q35 167 -88 167q-33 0 -72.5 -27t-89.5 -74q-1 -13 -8 -42l-67 -319q-8 -37 2 -48t47 -18l14 -2 q13 -3 10 -14l-10 -44q-91 4 -151 4l-158 -4l9 44q3 12 14 14l27 2q41 4 55.5 15t22.5 51l63 295q18 89 -6 128t-84 39q-35 0 -78 -29.5t-96 -80.5l-75 -352q-8 -37 4 -50t44 -16l27 -2q4 0 7.5 -3.5t1.5 -10.5l-9 -44q-99 4 -162 4z" />
<glyph unicode="&#xe0ce;" d="M313 1128.5q-2 39.5 7 78.5q8 38 22 76t36 79.5t54 77t71 64.5t91.5 45.5t112.5 16.5q53 0 95 -12.5t69 -33.5t45 -50.5t26 -60.5t10 -66.5t-1.5 -66.5t-9.5 -62q-13 -61 -45 -119t-79.5 -106.5t-115 -77.5t-142.5 -29q-48 0 -89 13t-69 36t-48.5 54.5t-29 67.5 t-10.5 75.5zM464 1075q13 -65 48 -98.5t87 -33.5q54 0 109 58.5t78 166.5q19 98 13 173t-38 119t-83 44q-23 0 -45.5 -8t-46 -27.5t-44 -49t-39.5 -76.5t-31 -107q-21 -96 -8 -161z" />
<glyph unicode="&#xe0cf;" horiz-adv-x="748" d="M172 584l9 47q3 9 15 11l18 2q29 5 42.5 11t19.5 17.5t12 37.5l137 639q14 77 9 99t-31 22l-51 2q-9 0 -8 8l6 44q51 4 123 17t103 25q19 0 16 -18q-14 -41 -28 -108l5 -2q122 112 203 112q52 0 92 -25.5t61.5 -69t28 -100t-7.5 -119.5q-19 -89 -75 -165t-132.5 -120 t-155.5 -44q-36 0 -68.5 13.5t-53.5 35.5l-52 -246q-8 -37 4 -49.5t43 -16.5l26 -2q13 -2 10 -13l-8 -45q-99 3 -162 3zM494.5 1052q4.5 -31 23.5 -49t39 -25t43 -7q15 0 26.5 1t30 6t33.5 14t33 26.5t32 42t28 62t25 84.5q19 90 11 149.5t-32.5 89t-60.5 29.5 q-42 0 -90.5 -31.5t-85.5 -71.5l-52 -242q-8 -47 -3.5 -78z" />
<glyph unicode="&#xe0d0;" horiz-adv-x="756" d="M328 1207q13 61 43 120.5t74.5 110t106.5 81.5t130 31q35 0 66 -7t54.5 -21.5t37.5 -34.5l73 59q31 20 39 20q5 0 8 -6t0 -17l-178 -833q-9 -36 -1.5 -47.5t49.5 -18.5l17 -2q12 -1 10 -11l-10 -47q-91 3 -150 3l-162 -3l9 45q2 11 15 13l28 2q12 2 20.5 3.5t18 6 t16 11.5t12 18.5t8.5 26.5l56 263q-92 -66 -164 -66q-125 0 -190.5 81t-35.5 219zM454 1130q0 -49 9.5 -78.5t28.5 -48t41 -25.5t49 -7q40 0 72.5 14.5t77.5 53.5l74 352q-61 96 -134 96q-69 0 -123 -57.5t-81 -186.5q-14 -64 -14 -113z" />
<glyph unicode="&#xe0d3;" horiz-adv-x="505" d="M352 1482l1 2l12 59q2 7 6 7q72 0 108 42t55 134l6 26l100 32l-50 -234h167q4 0 6.5 -1t4 -3.5t0.5 -4.5l-10 -45q-1 -8 -13.5 -12t-24.5 -4h-145l-81 -376q-16 -70 -11.5 -104t34.5 -34q29 0 52.5 9t59.5 33l31 -42q-56 -48 -105 -67t-103 -19q-56 0 -81.5 36t-9.5 114 l96 450h-98q-7 0 -7 2z" />
<glyph unicode="&#xe0d4;" horiz-adv-x="783" d="M362 1506l9 42l3 2q92 -2 152 -2l55 2l1 -2l-89 -418q-19 -88 5 -126t83 -38q46 0 85.5 12t79.5 49l87 403q8 39 -4 51.5t-47 12.5h-25q-15 0 -12 12l10 42l2 2q99 -2 162 -2l57 2l2 -2l-100 -467q-11 -61 -7 -74t30 -15l76 -7l-5 -44q-160 -29 -217 -61h-40l23 81h-5 q-34 -33 -98.5 -57t-130.5 -24q-185 0 -137 226l70 324q8 42 -1 52t-47 12h-17q-13 0 -10 12z" />
<glyph unicode="&#xe0d5;" horiz-adv-x="771" d="M349 1506l10 42l2 2q96 -2 143 -2l136 2l3 -2l-8 -42q-1 -5 -6 -8.5t-9 -3.5h-27q-16 0 -28.5 -8.5t-16.5 -25.5q-2 -13 4 -42l80 -376l240 369q22 33 26 49q4 20 -12 27t-57 7q-3 0 -5.5 4t-1.5 8l8 42l3 2q86 -2 138 -2l101 2l2 -2l-10 -42q-3 -12 -21.5 -12 t-32.5 -5.5t-34.5 -25.5t-45.5 -58l-316 -491q-19 -34 -58 -34q-9 0 -16 9.5t-10 22.5l-96 484q-8 45 -16 64.5t-20.5 26.5t-38.5 7q-13 0 -10 12z" />
<glyph unicode="&#xe0d9;" horiz-adv-x="673" d="M248 912q4 15 18 31l473 537h-186q-20 0 -37 -4.5t-37.5 -17t-41 -38t-39.5 -64.5l-52 4q50 132 66 208h51q1 -6 11.5 -12t27.5 -6h290q15 0 36.5 1t38 2t30 1.5t14.5 0.5h7t5.5 -0.5t4.5 -2t1 -4.5v-2q-4 -15 -46 -62l-458 -516h181q45 0 72.5 9t49 29t50.5 63l26 42 l52 -9q-60 -116 -93 -208h-485q-17 0 -24.5 5t-5.5 13z" />
<glyph unicode="&#xe0eb;" horiz-adv-x="1536" d="M44 0l10 47q2 9 8 14t14 5h66q72 0 108 28t48 82l262 1235q12 56 -13 82t-96 26h-67q-8 0 -12.5 5.5t-3.5 13.5l11 47l5 3q214 -3 310 -3l316 3l5 -3l-9 -47q-4 -19 -24 -19h-64q-73 0 -110 -27t-48 -81l-111 -519q53 0 108.5 25t101.5 63l455 359q44 36 79.5 75.5 t41.5 67.5q4 17 -6.5 27t-38.5 10h-80q-18 0 -14 19l10 47l4 3q194 -3 290 -3l256 3l5 -3l-11 -47q-3 -19 -24 -19h-43q-36 0 -75 -13t-81.5 -38.5t-71 -45.5t-69.5 -53l-585 -471l283 -532q61 -120 165 -244t189 -166l-34 -62q-69 2 -123.5 12.5t-103 35t-88.5 58 t-82.5 88.5t-81 120t-87.5 158l-180 347q-13 40 -41 59t-89 19l-131 -615q-9 -37 -0.5 -61.5t35.5 -36.5t76 -12h65q5 0 8.5 -2t5.5 -6.5t1 -10.5l-10 -47l-6 -5q-210 5 -308 5l-316 -5z" />
<glyph unicode="&#xe0ec;" horiz-adv-x="1410" d="M42 0l10 47q3 19 24 19h63q73 0 110 28t49 82l262 1235q15 53 5.5 83t-54.5 30q-12 0 -18 -2l-75 -8q-9 0 -13.5 5t-2.5 12l10 47q22 6 123.5 14t176.5 10q106 5 276 5q68 0 119 -4t110.5 -15.5t107 -37.5t81.5 -66q105 -123 65 -307q-42 -197 -246 -342 q-90 -63 -182 -90l165 -541q30 -97 65 -169.5t69.5 -115t74 -68.5t73 -34.5t71.5 -8.5v-49q-74 -29 -149 -29q-262 0 -400 427l-162 509q-4 9 -28.5 16t-79.5 11.5t-134 4.5l-111 -522q-8 -37 0 -61t34.5 -36.5t74.5 -12.5h67q5 0 8.5 -2t5.5 -6.5t1 -10.5l-10 -47l-5 -2 q-214 2 -309 2l-318 -2zM628 791h122q274 0 389 126q103 115 133 258q40 183 -42 275q-10 12 -24 23.5t-41 28t-70 26.5t-94 10q-125 0 -219 -19z" />
<glyph unicode="&#xe0ed;" horiz-adv-x="1016" d="M60 -331q7 33 31.5 58t64.5 25q32 0 54 -9t32 -22.5t15.5 -30.5t8.5 -34t8 -30.5t17.5 -22.5t32.5 -9q56 0 104.5 28.5t101.5 97.5q114 143 173 456q7 29 33 162t32 164l50 240l-297 22l6 50l315 16l6 30q22 99 37 156.5t34.5 114t40 101t56.5 114.5l-1 10 q-14 -10 -41 -10q-31 0 -66 13t-65 32t-64 41t-64 41t-63.5 31.5t-63.5 12.5q-37 0 -63.5 -19t-31.5 -44q-2 -10 6 -21t20 -22.5t24 -24.5t18 -32.5t1 -43.5q-13 -57 -82 -57q-31 0 -50.5 14t-25.5 35t-7.5 44.5t4.5 41.5q8 40 31.5 78t62.5 73.5t102 57t140 21.5 q37 0 82.5 -19t81 -42t83.5 -54t78 -46q7 35 25 70t50.5 63t70.5 28q30 0 50.5 -8.5t27.5 -20.5t10 -26.5t-1 -26.5q-8 -38 -51 -76.5t-109 -83.5q-10 -53 -18 -88q-68 -317 -74 -404q-3 -37 19 -48.5t88 -17.5l-11 -61l-130 -12l-86 -405q-46 -217 -113.5 -378.5 t-150.5 -260t-176 -146t-196 -47.5q-64 0 -119.5 21t-86 58.5t-21.5 81.5z" />
<glyph unicode="&#xe118;" horiz-adv-x="1090" d="M168.5 298.5q-14.5 104.5 11.5 240.5q22 118 78.5 219.5t133 171.5t169.5 109.5t189 39.5q223 0 319.5 -142.5t46.5 -397.5q-25 -132 -81 -239t-133 -177.5t-171 -108.5t-196 -38q-100 0 -177.5 37t-126 109t-63 176.5zM386 539q-93 -478 167 -478q52 0 96 16t78.5 47 t62.5 72t50 96t38.5 114.5t31.5 132.5q21 108 23 188.5t-16 141.5t-63.5 92t-119.5 31q-126 0 -215.5 -117t-132.5 -336z" />
<glyph unicode="&#xe119;" horiz-adv-x="1090" d="M490 887l9 72q161 36 236 57t208 63q6 0 9 -0.5t5.5 -3.5t1.5 -8q-43 -123 -96 -399l-42 -204q-53 -278 -69 -464l-4 -7q-72 7 -119 7q-12 0 -27 -0.5t-28 -2t-24 -2.5t-18 -1l-6 -1l-3 7q53 167 111 464l49 251q4 21 6 34t5.5 32.5t4.5 32t2 28t-0.5 25t-4 18.5t-8 13 t-12.5 4q-46 0 -186 -15z" />
<glyph unicode="&#xe11a;" horiz-adv-x="1090" d="M172 0l10 52l312 246q173 136 257.5 239.5t106.5 214.5q11 49 8.5 91.5t-16 73.5t-46.5 48.5t-84 17.5q-38 0 -73 -14.5t-60 -34.5t-53 -54.5t-45 -61t-41 -68.5l-35 2l-27 170q5 3 13 11q30 27 48 41t54 37.5t69 35.5t82.5 22t104.5 10q182 0 265.5 -81.5t56.5 -213.5 q-32 -163 -241 -334l-357 -293h87q58 0 103 1t74 1.5t61 2.5t49.5 4t54 5t61.5 5q-29 -76 -33 -94q-2 -12 -3.5 -25t-1.5 -21t0.5 -25t0.5 -23q-38 2 -75.5 3.5t-59.5 2.5t-49.5 2.5t-51.5 2t-58 1t-77 0.5h-391z" />
<glyph unicode="&#xe11b;" horiz-adv-x="1090" d="M68 -319l84 183l35 3q1 -5 4 -13q11 -43 17 -62.5t18 -49t26 -41.5t37 -26.5t55 -19t76 -4.5q18 0 39.5 3t49.5 12t55 22.5t56.5 36.5t53.5 52q44 52 74.5 131t30.5 168q0 105 -57 163q-38 40 -94.5 59t-116.5 19q-68 0 -98 -5l19 108q49 -7 84 -7q50 0 94.5 12.5t79 35 t61 54t45.5 69.5q48 101 48 198q0 91 -44 146t-106 55q-101 0 -172.5 -51t-132.5 -158l-35 2l-23 158l11 7q39 32 90.5 60.5t133.5 53t164 24.5q149 0 234 -73.5t85 -189.5q0 -150 -103 -277q-49 -60 -111 -101.5t-117 -54.5v-12q76 -8 135 -44.5t92.5 -98t33.5 -139.5 q0 -83 -28.5 -159t-68.5 -128t-94 -97q-87 -74 -192.5 -112t-197.5 -38q-211 0 -325 119z" />
<glyph unicode="&#xe11c;" horiz-adv-x="1090" d="M61 47q8 40 49 93q124 157 387.5 467.5t400.5 459.5q0 1 3 3.5t6 4.5l3 1q40 -9 78 -9q19 0 50.5 4.5t40.5 4.5q2 0 2 -9q-43 -143 -80 -349l-119 -600h152q36 0 28 -36q-4 -23 -32.5 -52.5t-51.5 -29.5h-118q-29 -147 -54 -349q0 -7 -4 -7q-9 0 -42.5 3.5t-53.5 3.5 q-17 0 -45 -2t-48 -4l-20 -1v7q30 96 45 157.5t40 191.5h-486q-68 0 -102 11t-29 36zM221 118h480l145 740z" />
<glyph unicode="&#xe11d;" horiz-adv-x="1090" d="M32 -300l89 197l34 2q4 -14 13 -40q15 -48 23.5 -70.5t26.5 -54.5t39 -45.5t55.5 -24.5t81.5 -11q120 0 213 99t126 267q15 76 15 137q0 128 -56.5 193.5t-152.5 65.5q-52 0 -109 -12t-96 -25.5t-102 -37.5l-15 7l216 722q159 -14 265 -14q194 0 392 24l14 -7l-68 -167 q-128 -16 -251 -16q-131 0 -295 23l-136 -436q44 15 120.5 26.5t145.5 11.5q83 0 148.5 -27.5t107 -75t63 -110t21.5 -135.5q0 -53 -11 -105q-28 -143 -112 -259t-207 -181.5t-260 -65.5q-205 0 -330 138z" />
<glyph unicode="&#xe11e;" horiz-adv-x="1090" d="M220 389q0 92 22 206q36 183 132.5 350.5t248.5 300.5q144 125 290.5 183.5t333.5 69.5l-7 -69q-88 -8 -160 -27.5t-146.5 -57.5t-143.5 -97q-105 -89 -189.5 -217.5t-132.5 -280.5q52 53 144.5 90t165.5 37q61 0 112.5 -12t87.5 -32t64 -48t44.5 -58.5t27.5 -66t15 -67 t4 -64.5q0 -49 -9 -89q-11 -57 -35 -116t-68.5 -123t-102 -113t-143 -80.5t-183.5 -31.5q-51 0 -99 10t-99 38.5t-88.5 72.5t-61.5 119.5t-24 172.5zM407 370q0 -72 14 -127.5t36 -88.5t52.5 -54t60.5 -28.5t62 -7.5q45 0 85 18.5t78 58.5t69 112t49 169q12 54 12 116 q0 37 -5.5 69.5t-20 64.5t-38 55t-62.5 37.5t-90 14.5q-27 0 -48 -2.5t-57 -11t-75 -30.5t-78 -57q-6 -22 -20 -91q-24 -122 -24 -217z" />
<glyph unicode="&#xe11f;" horiz-adv-x="1090" d="M214 -430q297 480 776 1307q-140 5 -344.5 0t-323.5 -21q29 89 34 120q4 16 5 32.5t1.5 37.5t1.5 33q114 -17 658 -17q81 0 155 24l35 -24q-58 -99 -114 -195.5t-101.5 -175.5t-96 -171t-84.5 -152.5t-82 -150.5t-72 -135.5t-72 -137t-65.5 -125.5t-67 -130t-63.5 -123 l-176 -11z" />
<glyph unicode="&#xe120;" horiz-adv-x="1090" d="M166 270q0 39 9 89q15 74 67 152t135 143q130 103 199 150l-42 34q-149 121 -149 277q0 36 6 65q19 94 78 166t154 112.5t213 40.5q153 0 239.5 -68.5t86.5 -180.5q0 -24 -6 -58q-34 -174 -333 -357l126 -105q147 -124 147 -280q0 -40 -6 -70q-15 -71 -61 -141.5 t-116.5 -129t-171 -95t-212.5 -36.5q-168 0 -265.5 75.5t-97.5 216.5zM352 277q0 -57 17.5 -101t47 -68.5t63.5 -36.5t71 -12q38 0 72 4.5t77.5 21.5t77 45t63 79t42.5 120q6 36 6 65q0 79 -36.5 150t-114.5 122l-96 64q-55 -34 -100 -71t-73.5 -72.5t-49 -66.5t-32.5 -64.5 t-17.5 -53t-10.5 -43.5q-7 -36 -7 -82zM564 1144q0 -113 120 -206l64 -44q32 21 65.5 50t69.5 68t63 87t36 95q4 24 4 54q0 76 -44 123t-136 47q-100 0 -158.5 -58.5t-76.5 -152.5q-7 -41 -7 -63z" />
<glyph unicode="&#xe121;" horiz-adv-x="1090" d="M89 -445l7 69q133 14 240 55t209 127q105 89 189.5 217.5t133.5 281.5q-52 -54 -145 -91.5t-165 -37.5q-85 0 -150.5 23.5t-103 58.5t-61.5 83.5t-32 92.5t-8 92t8 88q12 58 35.5 117t68.5 123t102.5 112.5t142.5 80.5t184 32q35 0 69 -5t72 -18t70.5 -33t62 -52.5 t51 -74.5t34 -101t12.5 -129q0 -98 -22 -206q-36 -184 -132.5 -352t-247.5 -300q-144 -125 -290.5 -183.5t-333.5 -69.5zM410 517q0 -37 5.5 -69.5t20.5 -65t38.5 -55.5t62.5 -37.5t89 -14.5q21 0 36.5 1t44.5 6.5t54 15t58.5 30t64.5 48.5q3 9 20 91q25 128 25 218 q0 72 -14 127.5t-36 88t-53 53.5t-60.5 28.5t-62.5 7.5q-44 0 -84.5 -18.5t-78.5 -59t-68.5 -112t-49.5 -169.5q-12 -54 -12 -114z" />
<glyph unicode="&#xe149;" horiz-adv-x="729" d="M61 -280q12 33 31 128l125 582q15 77 10 99t-31 22l-52 2q-9 0 -7 7l6 45q51 4 122.5 17t102.5 25q20 0 16 -18q-18 -64 -40 -167l-31 -143q108 61 196 61q55 0 96.5 -26t61.5 -70.5t26 -102t-9 -120.5q-9 -45 -29.5 -89t-47.5 -83t-61.5 -72t-71.5 -57t-77.5 -37 t-79.5 -13q-107 0 -162 58q-25 -25 -61 -58zM228.5 -144.5q4.5 -30.5 23 -48.5t38.5 -25.5t42 -7.5q21 0 40.5 5t45.5 21t47.5 42.5t43.5 75.5t36 114q19 90 10 151t-35 91.5t-64 30.5q-46 0 -78 -11.5t-79 -42.5l-67 -317q-8 -48 -3.5 -78.5z" />
<glyph unicode="&#xe14a;" horiz-adv-x="692" d="M64 -64q0 49 10 104q15 68 49 131.5t84 114t118.5 80.5t144.5 30q111 0 163 -48.5t38 -115.5q-8 -36 -29 -54t-48 -18q-28 0 -44.5 14t-14.5 42q5 20 3 40.5t-8.5 36.5t-27 26t-53.5 10q-30 0 -64 -16.5t-68 -48.5t-63 -88t-44 -127q-22 -103 4 -167q17 -42 51.5 -67.5 t75.5 -25.5q27 0 52.5 6.5t44 14.5t42.5 25t36 27t37 32l39 -39q-134 -145 -280 -145q-61 0 -108.5 17t-76.5 47t-46 71.5t-17 90.5z" />
<glyph unicode="&#xe14b;" horiz-adv-x="756" d="M78 32q13 61 43.5 121t74.5 112t106 83.5t130 31.5q104 0 149 -51l21 101q15 77 10.5 99t-30.5 22l-52 2q-4 0 -6.5 2t-1.5 5l7 45q51 4 123 17t103 25q19 0 15 -18q-19 -64 -40 -167l-117 -551q-8 -41 -8 -58.5t6 -22.5t25 -6l74 -9l-4 -43q-157 -28 -218 -62h-38l22 81 h-5q-99 -71 -175 -71q-123 0 -183.5 86t-30.5 226zM202.5 -69.5q-0.5 -55.5 17 -88.5t42 -46.5t57.5 -13.5q40 0 78 18t84 57l77 364q-62 96 -134 96q-69 0 -123.5 -60t-82.5 -189q-15 -82 -15.5 -137.5z" />
<glyph unicode="&#xe14d;" horiz-adv-x="621" d="M13 -272l9 40q2 11 15 14l30 4q39 7 55.5 21t23.5 48l80 373h-104q-8 0 -6 8l8 34q2 11 12 20.5t28 9.5h77q18 85 55 153t82.5 109.5t95 63t98.5 21.5q77 0 124 -42q42 -33 32 -77q-4 -23 -24 -39.5t-43 -16.5q-22 0 -37 12.5t-20 33.5q-8 37 -24 51.5t-50 14.5 q-17 0 -31 -4t-33 -20t-35 -43t-33.5 -76.5t-31.5 -116.5l-5 -24h167q6 0 9 -2t2 -5l-10 -45q-1 -5 -5 -9t-10 -6.5t-12 -3.5t-11 -1h-145l-80 -373q-7 -34 4 -49.5t46 -19.5l50 -4q4 0 7.5 -3.5t2.5 -10.5l-9 -40l-2 -3q-134 3 -192 3l-155 -3z" />
<glyph unicode="&#xe14e;" horiz-adv-x="774" d="M-49 -476.5q-3 25.5 2 58.5q18 88 161 170q-28 14 -44.5 43t-8.5 67q8 37 38.5 78.5t67.5 71.5q-32 37 -46 75t-2 93q14 67 63.5 119.5t113.5 78t129 25.5q82 0 132 -37q73 66 152 66q43 0 64 -18.5t17 -42.5q-6 -26 -26.5 -42.5t-43.5 -16.5q-17 0 -27 8.5t-11 21.5 q-6 22 -39 22q-21 0 -47 -35q28 -41 37.5 -73.5t-1.5 -81.5q-14 -70 -64 -122t-112 -75.5t-127 -23.5q-82 0 -129 30q-27 -29 -39 -84q-16 -75 72 -75q2 0 48 4q13 1 34 3t36.5 3.5t26.5 1.5q33 0 66 -4.5t72.5 -19.5t61.5 -40q52 -57 38 -124q-13 -59 -58.5 -105t-111 -73 t-139 -40.5t-149.5 -13.5q-29 0 -55 3t-53 10.5t-46.5 19.5t-34.5 30.5t-18 44zM60 -389q-7 -32 2.5 -56t26.5 -36t43 -19.5t45 -9t39 -1.5q46 0 80.5 1.5t77 8.5t70.5 19.5t50.5 35.5t29.5 55q6 28 -7 44t-56 40q-64 37 -157 37q-29 0 -50 -2q-11 0 -32.5 -1.5t-29.5 -1.5 q-26 0 -53 15q-39 -31 -54.5 -58.5t-24.5 -70.5zM237 123q0 -19 3.5 -35.5t11.5 -31.5t20 -25.5t31.5 -17t44.5 -6.5q16 0 28.5 1.5t29 6.5t29.5 16t26.5 28t24.5 45t19 65q20 91 -7.5 135.5t-96.5 44.5q-62 0 -100 -35t-56 -120q-4 -18 -6 -35t-2 -36z" />
<glyph unicode="&#xe14f;" d="M-14 -275l9 43q4 14 12 14h21q43 1 55 13t20 53l135 636q8 27 4.5 45.5t-27.5 18.5q-33 0 -69 -9l6 54q117 14 207 54h33l-82 -391q20 19 43 36.5t56 39.5t69 35t67 13q184 0 137 -225l-65 -307q-4 -19 -4.5 -30.5t1.5 -18.5t10 -10.5t16.5 -5t25.5 -1.5h16q11 0 8 -14 l-8 -43q-94 3 -153 3l-159 -3l8 43q3 14 16 14h26q20 1 30.5 3t20 8.5t15 19t10.5 35.5l60 283q18 89 -5 128t-82 39q-18 0 -39.5 -9t-45 -26t-44 -34.5t-45.5 -41.5l-72 -339q-3 -21 -3.5 -33.5t6.5 -20t17 -10t27 -2.5h28q4 0 7.5 -3.5t1.5 -10.5l-9 -43q-101 3 -162 3z " />
<glyph unicode="&#xe150;" horiz-adv-x="476" d="M16 -272l9 46q2 12 18 12h45q41 0 53.5 12t20.5 50l83 388q13 66 -23 66q-35 0 -90 -16l5 49q154 29 228 61h33l-116 -548q-8 -41 3.5 -51.5t48.5 -10.5h43q4 0 7 -3.5t2 -8.5l-9 -46l-181 2zM289 575q7 31 31.5 51.5t59.5 20.5q36 0 49.5 -21.5t7.5 -50.5 q-7 -29 -31.5 -49t-55.5 -20t-49 20.5t-12 48.5z" />
<glyph unicode="&#xe151;" horiz-adv-x="507" d="M-94 -443q7 29 24.5 46t40.5 17q46 0 51 -72q-1 -11 4.5 -17.5t14.5 -6.5q52 0 87.5 70.5t73.5 243.5l84 398q13 66 -23 66q-39 0 -89 -16l2 49q148 28 230 61h34l-108 -509q-34 -159 -63 -227t-89 -122q-68 -61 -142 -61q-54 0 -96.5 23t-35.5 57zM331 575q7 31 31 51.5 t58 20.5q37 0 51 -21.5t8 -50.5q-7 -28 -32.5 -48.5t-56.5 -20.5t-48 20.5t-11 48.5z" />
<glyph unicode="&#xe152;" horiz-adv-x="781" d="M-14 -275l9 43q3 12 12 14l21 2q44 5 55.5 15.5t19.5 50.5l124 580q14 77 9 99t-31 22l-50 2q-3 0 -5 1t-3 2.5t-1 3.5l8 45q50 4 121.5 17t102.5 25q19 0 16 -18q-18 -64 -40 -167l-78 -364q55 22 106 56.5t124 101.5q76 60 -4 68q-6 1 -8.5 5t-1.5 8l8 41l4 2 q73 -2 127 -2l157 2l5 -2l-8 -41q-1 -5 -7.5 -9t-10.5 -4q-119 -14 -201 -85l-112 -103q-5 -4 -9 -18q-2 -12 4 -20l105 -229q40 -80 122 -87q7 -1 12.5 -5t5.5 -9l-9 -38l-6 -5q-91 3 -150 3l-93 -3l-4 5l8 38q3 11 -1 23.5t-19 44.5l-78 157q-1 2 -6.5 11t-7.5 12t-7 9.5 t-8.5 9t-9 6t-12 5t-14.5 1.5q-7 0 -12 -1l-42 -196q-7 -36 4 -48.5t44 -17.5l19 -2q5 0 8.5 -3.5t1.5 -10.5l-10 -43q-95 3 -154 3z" />
<glyph unicode="&#xe153;" horiz-adv-x="394" d="M-14 -275l9 43q3 12 12 14l21 2q44 5 55.5 15.5t19.5 50.5l124 580q14 77 9 99t-31 22l-50 2q-3 0 -5 1t-3 2.5t-1 3.5l8 45q50 4 121.5 17t102.5 25q19 0 16 -18q-18 -64 -40 -167l-131 -612q-7 -36 4 -48.5t44 -17.5l19 -2q5 0 8.5 -3.5t1.5 -10.5l-10 -43 q-95 3 -154 3z" />
<glyph unicode="&#xe154;" horiz-adv-x="1191" d="M13 -275l9 43q3 12 15 14l18 2q45 6 56.5 16t19.5 50l69 330q15 77 10 98.5t-31 21.5l-51 2q-4 0 -6.5 2t-1.5 6l7 44q51 4 122 17t103 25q20 0 16 -18q-14 -41 -28 -108l4 -2q29 28 60.5 53t81 50t90.5 25q139 0 145 -127q20 19 44.5 38t57.5 40.5t69 35t67 13.5 q185 0 137 -227l-69 -319q-8 -38 2.5 -49t48.5 -17l14 -2q13 -2 10 -14l-10 -43q-93 3 -152 3l-160 -3l8 43q3 12 16 14l28 2q38 3 52.5 14.5t22.5 51.5l63 295q35 167 -88 167q-58 0 -163 -101q-2 -21 -7 -42l-68 -319q-7 -37 3 -48t47 -18l14 -2q12 -3 10 -14l-10 -43 q-91 3 -151 3l-159 -3l10 43q3 12 12 14l28 2q28 3 41 7.5t22 17.5t15 41l62 295q19 90 -5 128.5t-84 38.5q-35 0 -77.5 -29.5t-96.5 -80.5l-74 -352q-9 -37 3 -50t44 -16l27 -2q5 0 8 -3.5t2 -10.5l-10 -43q-98 3 -162 3z" />
<glyph unicode="&#xe155;" horiz-adv-x="807" d="M13 -272l9 40q3 14 15 14h17q43 1 55 13t21 53l82 386q9 28 4.5 46t-28.5 18q-30 0 -68 -10l6 54q120 14 206 54h35l-27 -128q27 27 60.5 52.5t84 50.5t91.5 25q184 0 136 -227l-69 -321q-4 -19 -4 -30.5t2 -18.5t10.5 -10.5t16.5 -5t26 -1.5h14q13 0 10 -14l-9 -40 l-1 -3q-93 3 -151 3l-156 -3l-1 3l8 40q3 14 12 14h28q39 2 54 13t24 53l62 297q19 90 -5 128.5t-84 38.5q-35 0 -77.5 -29.5t-96.5 -80.5l-75 -354q-9 -39 3 -52.5t45 -13.5h27q5 0 8 -3.5t2 -10.5l-10 -40l-2 -3q-99 3 -160 3l-147 -3z" />
<glyph unicode="&#xe157;" horiz-adv-x="748" d="M-78 -584l11 45q2 9 14 11l17 2q43 7 55 18t21 48l135 640q15 77 10.5 98.5t-30.5 21.5l-52 2q-4 0 -6.5 2t-1.5 6l7 44q16 1 36 3.5t41.5 6t43.5 7.5t41.5 8t36 8.5t27.5 8.5q19 0 15 -18q-13 -41 -27 -108l4 -2q122 112 203 112q52 0 92.5 -25.5t62 -69t28 -100 t-8.5 -119.5q-28 -136 -135 -232.5t-227 -96.5q-37 0 -69.5 13.5t-53.5 35.5l-51 -246q-8 -37 3.5 -49.5t43.5 -16.5l26 -2q12 -2 10 -13l-10 -43q-97 2 -161 2zM246.5 -118q4.5 -31 23 -49t38.5 -25t42 -7q23 0 39.5 2.5t43.5 15.5t47.5 36.5t42 70t35.5 111.5 q27 127 1 197.5t-81 70.5q-29 0 -64 -17t-62.5 -39t-50.5 -47l-51 -242q-8 -47 -3.5 -78z" />
<glyph unicode="&#xe158;" horiz-adv-x="756" d="M79 37q13 61 43.5 120.5t74 110t105.5 81.5t130 31q54 0 96 -16t62 -47l75 59q30 20 38 20q13 0 7 -23l-176 -833q-10 -36 -2.5 -48t49.5 -18l17 -2q4 -1 7 -2.5t3.5 -3.5t-0.5 -5l-10 -45q-91 2 -149 2l-163 -2l9 43q3 11 16 13l27 2q21 2 34 7t24.5 19.5t17.5 39.5 l55 263q-92 -66 -163 -66q-126 0 -191.5 81t-35.5 219zM205.5 -40q-0.5 -49 9.5 -78.5t29 -48t41 -25.5t49 -7q40 0 72 14.5t78 53.5l74 352q-62 96 -134 96q-69 0 -123 -57.5t-81 -186.5q-14 -64 -14.5 -113z" />
<glyph unicode="&#xe159;" horiz-adv-x="603" d="M4 -272l9 46q2 12 18 12h43q42 0 55 12t21 50l82 388q13 66 -21 66q-36 0 -91 -16l5 49q152 29 227 61h37l-36 -145h5q131 145 218 145q91 0 74 -77q-4 -20 -15.5 -34.5t-29 -21.5t-40.5 -7q-40 0 -57 27q-11 15 -29 15q-14 0 -44.5 -23t-67.5 -64q-23 -23 -29 -54 l-66 -309q-8 -41 2.5 -51.5t45.5 -10.5h45q4 0 7 -3.5t2 -8.5l-9 -46l-181 2z" />
<glyph unicode="&#xe15a;" horiz-adv-x="621" d="M26 -260q19 89 34 216h54q-6 -23 0 -68.5t26 -72.5q16 -15 45 -29t66 -14q49 0 88.5 23t49.5 69q9 45 -12.5 81t-98.5 72q-21 10 -36.5 17.5t-32.5 17.5t-28.5 19t-23 20.5t-17.5 24t-10 27.5t-3 32.5t5 38.5q11 50 52 92.5t99 66t118 23.5q53 0 112.5 -14t78.5 -28 l-17 -185l-58 -2q-1 50 -14.5 85.5t-34.5 52t-40.5 23.5t-39.5 7q-49 0 -86 -25.5t-48 -73.5q-8 -43 9 -66t74 -50q23 -10 34 -15.5t32 -15.5t31.5 -16.5t27 -17t24.5 -19.5t19.5 -21t16 -24t8.5 -26.5t3.5 -31t-4.5 -34.5q-7 -31 -21.5 -57.5t-34 -45.5t-44 -34.5 t-48.5 -25t-49.5 -15.5t-47 -8.5t-40.5 -2.5q-40 0 -94.5 17t-76.5 17q-15 0 -47 -4z" />
<glyph unicode="&#xe15b;" horiz-adv-x="505" d="M103 314l13 59q2 7 6 7q73 0 109 42t55 134l4 26l101 32l-50 -234h168q5 0 7.5 -2.5t1.5 -6.5l-8 -45q-2 -8 -14.5 -12t-23.5 -4h-146l-80 -376q-16 -70 -12 -104t35 -34q15 0 27.5 2t26 7.5t26.5 13t31 19.5l32 -42q-57 -48 -105.5 -67t-102.5 -19q-57 0 -82.5 36 t-8.5 114l96 450h-99q-7 1 -7 4z" />
<glyph unicode="&#xe15c;" horiz-adv-x="783" d="M113 337l9 41l3 2q92 -2 152 -2l54 2l3 -2l-89 -418q-19 -88 5 -126t82 -38q47 0 86.5 12t79.5 49l85 403q9 39 -3 51.5t-46 12.5h-25q-15 0 -12 13l8 41l4 2q97 -2 161 -2l57 2l3 -2l-100 -467q-9 -41 -9 -58.5t6.5 -22.5t25.5 -6l74 -9l-3 -43q-157 -28 -218 -62h-39 l23 81h-6q-22 -21 -57.5 -39.5t-81.5 -30t-89 -11.5q-185 0 -137 226l69 324q9 42 -0.5 52t-47.5 12h-16q-7 0 -9.5 4.5t-1.5 8.5z" />
<glyph unicode="&#xe15d;" horiz-adv-x="771" d="M101 337l9 41l3 2q95 -2 141 -2l136 2l5 -2l-9 -41q0 -5 -5.5 -9t-9.5 -4h-27q-10 0 -18.5 -3.5t-16 -11t-9.5 -19.5q-3 -13 4 -42l79 -375l241 368q22 33 25 49q5 20 -11 27t-57 7q-4 0 -7 5t-2 8l10 41l2 2q86 -2 137 -2l102 2l3 -2l-10 -41q-3 -13 -22 -13 q-28 0 -52.5 -16.5t-59.5 -71.5l-316 -492q-20 -34 -59 -34q-8 0 -15 9.5t-10 22.5l-96 484q-9 45 -17 64.5t-20.5 26.5t-38.5 7q-12 0 -9 13z" />
<glyph unicode="&#xe15e;" horiz-adv-x="1093" d="M101 337l9 41l3 2q66 -2 125 -2l152 2l2 -2l-8 -41q-1 -3 -3 -6t-5 -5t-5 -2h-22q-42 0 -47 -22q-3 -18 4 -54l62 -375l184 317l-11 56q-8 48 -21.5 63t-47.5 15q-13 0 -10 13l10 41l2 2q92 -2 139 -2l136 2l5 -2l-9 -41q0 -2 -1.5 -4.5t-3.5 -4.5t-5 -3t-5 -1 q-37 0 -52 -5t-18 -21q-2 -9 2 -50l60 -375l224 368q19 32 22 47q5 20 -9.5 28t-48.5 8h-22q-4 0 -6.5 5t-1.5 8l9 41l3 2q98 -2 150 -2l100 2l3 -2l-10 -41q-3 -13 -19 -13q-29 0 -56 -19t-57 -69l-297 -492q-23 -34 -60 -34q-18 0 -24 32l-62 364l-211 -362 q-19 -34 -60 -34q-18 0 -24 32l-80 504q-9 50 -23 64t-47 14q-6 0 -10.5 4t-3.5 9z" />
<glyph unicode="&#xe160;" horiz-adv-x="830" d="M-13 -504q6 30 34.5 48t50.5 18q30 0 42 -19q6 -8 9 -11t8 -7.5t9.5 -6.5t9.5 -2q16 0 58 50.5t87 121.5q13 20 19 47q6 26 -6 89l-98 415q-5 21 -7 28.5t-6.5 21t-9 17t-13.5 9.5t-20 7.5t-28 1.5q-5 0 -9.5 4.5t-3.5 8.5l9 41l6 5q65 -5 112 -5l198 5l1 -5l-8 -38 q-2 -7 -8.5 -11.5t-12.5 -4.5q-64 0 -69 -26q-1 -4 -1 -14t2 -16l84 -371l244 366q12 17 15 35q2 10 -5 16t-19.5 8t-31.5 2h-7q-6 0 -9.5 4.5t-2.5 8.5l8 41l5 5q102 -5 156 -5l107 5l3 -5l-8 -38q-4 -16 -21 -16q-68 0 -127 -90q-178 -254 -404 -617q-29 -45 -54.5 -77.5 t-57.5 -62.5t-68 -45.5t-75 -15.5q-17 0 -38.5 7.5t-38 27t-10.5 45.5z" />
<glyph unicode="&#xe161;" horiz-adv-x="673" d="M-1 -258q3 15 19 32l473 536h-186q-20 0 -37 -4.5t-37.5 -16.5t-41 -37.5t-39.5 -64.5l-53 3q50 132 66 208h52q1 -6 11.5 -12t26.5 -6h289q16 0 37.5 1t38 2.5t30 2t14.5 0.5q9 0 14 -1.5t4 -6.5l-1 -2q-4 -17 -44 -62l-459 -516h182q65 0 97.5 19.5t73.5 81.5l27 42 l51 -9q-65 -127 -93 -207h-484q-17 0 -25 4.5t-6 12.5z" />
<glyph unicode="&#xe358;" horiz-adv-x="0" d="M-383 1588q90 72 210 110l255 -206q30 -26 25 -52q-3 -14 -16.5 -25.5t-28.5 -11.5q-34 0 -99 30z" />
<glyph unicode="&#xe359;" horiz-adv-x="0" d="M-421 1440q3 14 12.5 25.5t35.5 26.5l349 211q96 -49 126 -127l-385 -143q-79 -30 -109 -30q-16 0 -24 11t-5 26z" />
<glyph unicode="&#xf638;" horiz-adv-x="1090" d="M143 -59l122 198q-62 121 -62 312q0 132 25 259q34 176 101.5 326.5t150 250.5t176 156t182.5 56q137 0 208 -85q1 -1 2.5 -3t3 -3.5l2.5 -2.5l97 159l73 -28l-125 -202q65 -129 65 -318q0 -121 -26 -256q-21 -105 -51 -199t-65.5 -167t-76.5 -135t-84 -107t-87 -79.5 t-87.5 -55t-82 -31t-74.5 -10.5q-134 0 -217 92l-96 -154zM392 343l572 918q-17 73 -47 103q-35 39 -96 39q-256 0 -391 -697q-38 -189 -38 -340v-23zM407 218q35 -147 146 -147q16 0 34 4t47 18t56 37.5t59 67.5t57 102q41 89 69 193.5t63 285.5q39 197 39 337 q0 4 -0.5 10.5t-0.5 9.5z" />
<glyph unicode="&#xf6ae;" horiz-adv-x="736" d="M256 632.5q4 69.5 9 101.5t12 64q21 97 59.5 193t91 183.5t117 170.5t138.5 157t154.5 138.5t165.5 118.5l48 -37q-22 -18 -40.5 -33.5t-55 -49.5t-68 -67t-73.5 -83.5t-77.5 -101.5t-75.5 -119t-71.5 -138t-60.5 -156t-48 -176q-118 -555 177 -928l-64 -36 q-88 78 -153.5 169t-101.5 171.5t-56.5 169.5t-25.5 154t-1 134.5z" />
<glyph unicode="&#xf6af;" horiz-adv-x="736" d="M25 -126q30 24 56 46t77.5 72.5t94.5 102t97.5 130t97 160.5t83 190.5t64.5 222.5q119 555 -176 928l63 36q89 -78 154.5 -169t101.5 -171.5t56 -169.5t25 -154t1 -134.5t-9 -101.5t-12 -64q-30 -144 -100.5 -285t-167.5 -263t-213 -226.5t-245 -186.5z" />
<glyph unicode="&#xf6b0;" horiz-adv-x="886" d="M240 -143l402 1891h528l-13 -62q-90 -6 -146.5 -12t-102.5 -19t-70 -26.5t-43.5 -42t-29 -57.5t-20.5 -81l-275 -1291q-6 -30 -9.5 -50.5t-5 -42.5t1 -35.5t10 -28t19 -23t30.5 -18t42.5 -14.5t58 -10.5t73.5 -9t91 -7.5l-13 -61h-528z" />
<glyph unicode="&#xf6b1;" horiz-adv-x="886" d="M58 -143l14 64q90 5 146.5 11.5t102.5 19t70 26t43.5 42t29 57.5t20.5 80l273 1291q9 39 12.5 62.5t3 49t-7 39.5t-23 29t-39.5 22.5t-60.5 15.5t-83.5 12.5t-111 8.5l13 61h528l-402 -1891h-529z" />
<glyph unicode="&#xf6b2;" horiz-adv-x="682" d="M247 768l6 31q186 43 229 246l83 389q20 92 52 152.5t84.5 98t119.5 53.5t164 19l-9 -46q-42 -9 -72.5 -23.5t-62 -42.5t-54.5 -76.5t-38 -117.5l-79 -372q-21 -98 -47 -153t-64.5 -86.5t-106.5 -54.5q33 -13 55 -29t34.5 -38.5t18 -45.5t3 -58t-7.5 -68t-16 -83 l-72 -336q-15 -77 -8.5 -136.5t38.5 -94.5t85 -35l-10 -46q-65 1 -111.5 8t-84 22.5t-59 40.5t-32.5 63t-8.5 90t17.5 121l77 358q22 104 -5.5 167t-118.5 83z" />
<glyph unicode="&#xf6b3;" horiz-adv-x="682" d="M31 -187l10 47q42 9 72.5 23t62 42t55 76.5t38.5 117.5l79 372q16 73 33 120.5t42.5 81.5t58.5 54t83 38q-32 13 -54 29t-34.5 38t-18 45t-3.5 58t7.5 68t16.5 83l71 336q24 117 -6 192t-110 75l10 45q65 -1 111.5 -7.5t84.5 -21.5t59.5 -40t32 -63.5t8 -90t-17.5 -120.5 l-76 -360q-22 -103 5.5 -166.5t118.5 -82.5l-7 -32q-185 -42 -229 -246l-83 -388q-19 -92 -51.5 -153t-84.5 -98t-119.5 -53.5t-164.5 -18.5z" />
<glyph unicode="&#xf6b6;" horiz-adv-x="1316" d="M308 666l21 94q298 182 642 478l-27 -124q-225 -251 -439 -401q149 -138 269 -401l-26 -125q-225 342 -440 479zM756 666l20 94q304 187 638 478l-27 -124q-219 -249 -437 -401q149 -135 267 -401l-27 -125q-219 340 -434 479z" />
<glyph unicode="&#xf6b7;" horiz-adv-x="1316" d="M206 187l28 125q221 251 436 401q-149 134 -267 401l28 124q220 -340 433 -478l-19 -94q-307 -190 -639 -479zM649 187l27 125q225 251 439 401q-149 138 -269 401l26 124q225 -342 440 -478l-21 -94q-298 -182 -642 -479z" />
<glyph unicode="&#xf6b8;" horiz-adv-x="872" d="M307 661l21 96q296 178 643 479l-29 -132q-234 -253 -428 -396q131 -128 261 -394l-29 -132q-223 345 -439 479z" />
<glyph unicode="&#xf6b9;" horiz-adv-x="872" d="M204 174l29 133q236 256 427 396q-131 127 -260 393l28 133q223 -345 440 -479l-21 -96q-292 -175 -643 -480z" />
<glyph unicode="&#xf6ba;" horiz-adv-x="817" d="M244.5 748.5q-2.5 9.5 0.5 20.5q6 31 32 61t48 30h563q17 0 23 -13t2 -31q-5 -23 -33.5 -56t-51.5 -33h-556q-10 0 -17.5 6t-10 15.5z" />
<glyph unicode="&#xfb06;" horiz-adv-x="1670" d="M85 42l81 194l34 3q24 -79 90 -126t149 -47q93 0 162 57t89 154q4 19 4 35t-2 29t-9.5 25.5t-14 21t-20.5 18.5t-23.5 16t-30 15.5t-32 14.5t-36.5 15q-4 2 -7 3t-7 3t-8 3q-28 12 -41.5 18t-38 18t-38.5 21.5t-31.5 23.5t-30 29t-20.5 33q-33 64 -14 160q16 73 62.5 132 t109 94.5t131.5 54.5t135 19h11q-29 33 -46.5 66.5t-23.5 70t-4 73.5t12 83q14 66 59 128t114 110t165 77t203 29q225 0 317.5 -111.5t58.5 -316.5l-38 -233h268q9 0 14 -4.5t3 -11.5l-11 -49q-3 -15 -23 -23t-41 -8h-230l-133 -628q-27 -114 -21 -169.5t53.5 -55.5 t90.5 15.5t99 52.5l35 -41q-180 -163 -339 -163q-89 0 -122 58t-6 186l158 745h-159q-13 0 -11 9l17 76q1 11 12 11q58 0 107 22t80.5 58t51 74.5t27.5 78.5q36 168 -39 263t-259 95q-99 0 -191.5 -36.5t-153 -97t-75.5 -128.5q-13 -68 -5 -126t49.5 -111.5t116.5 -97.5 l-5 -5q51 -20 88 -43l2 -9l-81 -164l-33 -2q-7 28 -20.5 54.5t-35.5 52.5t-57 41.5t-77 15.5q-51 0 -98.5 -19.5t-83 -58t-45.5 -86.5q-4 -18 -4.5 -34t3.5 -29.5t9 -25t15 -21.5l18 -18t22 -16.5t23.5 -13.5t25.5 -12t24.5 -10.5t24.5 -9.5q5 -2 7 -2q34 -13 57 -23 t52.5 -24t48 -28t39 -32.5t31.5 -40t19 -47.5t7.5 -58t-8.5 -69q-10 -45 -28.5 -87.5t-56 -89t-87 -80.5t-125.5 -56.5t-168 -22.5q-173 0 -337 66z" />
</font>
</defs>
</svg>
