<?xml version="1.0" standalone="no"?>
<!DOCTYPE svg PUBLIC "-//W3C//DTD SVG 1.1//EN" "http://www.w3.org/Graphics/SVG/1.1/DTD/svg11.dtd" >
<svg xmlns="http://www.w3.org/2000/svg">
<metadata></metadata>
<defs>
<font id="humor_sansregular" horiz-adv-x="1272" >
<font-face units-per-em="2048" ascent="1536" descent="-512" />
<missing-glyph horiz-adv-x="986" />
<glyph horiz-adv-x="2048" />
<glyph horiz-adv-x="2048" />
<glyph unicode="&#xd;" horiz-adv-x="986" />
<glyph unicode=" "  horiz-adv-x="986" />
<glyph unicode="&#x09;" horiz-adv-x="986" />
<glyph unicode="&#xa0;" horiz-adv-x="986" />
<glyph unicode="!" horiz-adv-x="612" d="M64 1144v44l10 32l44 44l34 12h88l32 -12l44 -44l12 -32l10 -34l22 -22l12 -32v-44l10 -34l22 -22l12 -32v-308l-12 -34l-22 -22l-66 -66h-22l-88 88l-10 34v220l-12 32l-22 22l-10 34l-12 32l-22 22l-10 34l-12 32l-22 22zM196 44l10 32l44 44l34 12h88l32 -12l22 -22 l34 -10l32 -12l44 -44l12 -32v-44l-12 -34l-22 -22l-66 -66l-32 -10h-132l-34 10l-44 44l-10 34v132z" />
<glyph unicode="&#x22;" horiz-adv-x="700" d="M64 396v88l10 32l22 22l12 34v88l10 32l22 22l12 34l10 32l34 12h44l32 -12l44 -44l12 -32v-44l-12 -34l-22 -22l-10 -32v-88l-12 -34l-22 -22l-10 -32l-12 -34l-44 -44l-32 -10l-34 10l-44 44zM416 264v132l10 32l22 22l12 34v352l10 32l44 44l34 12l32 -12l44 -44 l12 -32v-264l-12 -34l-22 -22l-10 -32v-176l-12 -34l-44 -44l-32 -10h-44l-34 10z" />
<glyph unicode="#" horiz-adv-x="1052" d="M64 230v22l34 12h132l32 10l44 44l12 34v88l-12 32l-66 66l-10 34l10 32l34 12h88l32 10l12 34v88l10 32l22 22l12 34v88l10 32l34 12l32 -12l12 -32v-176l-12 -34l-22 -22l-10 -32l10 -34l44 -44l34 -10l32 10l12 34l10 32l22 22l12 34v132l10 32l34 12h44l32 -12 l12 -32v-88l-12 -34l-22 -22l-10 -32l10 -34l34 -10h132l32 -12l12 -32v-44l-12 -34l-32 -10h-132l-34 -12l-44 -44l-10 -32v-88l10 -34l34 -10l32 10l22 22l34 12l32 -12l44 -44v-22l-44 -44l-32 -10h-132l-34 -12l-10 -32v-176l-12 -34l-44 -44l-32 -10l-34 10l-10 34v176 l-12 32l-44 44h-22l-22 -22l-32 -10l-34 -12l-10 -32v-44l-12 -34l-22 -22l-10 -32l-12 -34l-44 -44l-32 -10l-34 10l-10 34v44l10 32l22 22l12 34l10 32l22 22v22l-44 44l-32 12h-44l-34 10zM406 308l10 -34l34 -10h88l32 10l12 34v44l10 32l22 22v22l-44 44l-32 12 l-34 -12l-88 -88l-10 -32v-44z" />
<glyph unicode="$" horiz-adv-x="1008" d="M64 440v88l10 32l22 22l12 34v88l10 32l22 22l12 34l10 32l110 110l12 34l10 32l44 44l34 12h88l32 10l22 22l34 12h44l32 -12l22 -22l34 -10l32 -12l66 -66l34 -10l32 -12l12 -32v-88l-12 -34l-66 -66l-10 -32v-220l10 -34l22 -22l12 -32l10 -34l22 -22l12 -32v-44 l10 -34l22 -22l12 -32l10 -34l22 -22v-22l-22 -22l-10 -32v-44l-12 -34l-22 -22l-10 -32v-88l-12 -34l-44 -44l-32 -10h-44l-34 -12l-22 -22l-32 -10h-176l-34 10l-176 176l-10 34v44l10 32l44 44l34 12l32 10l12 34v88l-12 32l-44 44l-32 12h-88l-34 10l-44 44l-10 34 l-12 32l-22 22zM240 528l10 -34l34 -10h44l32 10l12 34v44l-12 32l-32 12h-44l-34 -12l-10 -32v-44zM504 -44l10 -34l44 -44h22l88 88l12 34v44l-12 32l-22 22l-10 34v88l-12 32l-44 44h-22l-44 -44l-10 -32v-264zM504 572l10 -34l44 -44h22l12 34v264l-12 32h-22l-10 -32 v-132l-12 -34l-22 -22z" />
<glyph unicode="%" horiz-adv-x="1008" d="M64 396v44l10 32l132 132l34 12l32 -12l22 -22l34 -10l32 -12l22 -22l34 -10l32 -12l12 -32v-44l-12 -34l-22 -22l-44 -44l-10 -32l-12 -34l-44 -44l-32 -10h-44l-34 10l-22 22l-32 12l-34 10l-10 34l-12 32l-22 22zM196 -88l10 32l22 22l12 34l10 32l34 12l32 10 l132 132l12 34l10 32l242 242l12 34l10 32l34 12h44l32 -12l12 -32v-44l-12 -34l-32 -10l-34 -12l-10 -32l-12 -34l-154 -154l-10 -32l-12 -34l-32 -10l-34 -12l-88 -88l-10 -32l-12 -34l-88 -88l-32 -10h-44l-34 10zM196 396l10 -34l34 -10l32 10l44 44v22l-32 12h-44 l-34 -12zM548 0v44l10 32l66 66l12 34l10 32l34 12h132l32 -12l22 -22l34 -10l32 -12l12 -32v-132l-12 -34l-22 -22l-66 -66l-32 -10h-132l-34 10l-88 88zM724 0l10 -34l34 -10l32 10l12 34v44l-12 32l-32 12l-34 -12l-10 -32v-44z" />
<glyph unicode="&#x26;" horiz-adv-x="1052" d="M64 220v176l10 32l66 66l12 34v176l-12 32l-22 22l-10 34v132l10 32l22 22l12 34l10 32l44 44l34 12l32 10l22 22l34 12h132l32 -12l22 -22l34 -10l32 -12l88 -88l12 -32v-220l-12 -34l-32 -10l-34 -12l-88 -88l-10 -32v-44l10 -34l44 -44l34 -10l32 -12l110 -110h22 l22 22l34 12h44l32 -12l44 -44l12 -32l-12 -34l-66 -66l-10 -32l10 -34l110 -110l12 -32v-44l-12 -34l-22 -22l-22 -22l-32 -10l-34 10l-110 110l-32 12h-396l-34 10l-66 66l-32 12l-34 10l-44 44l-10 34l-12 32l-22 22zM294 274l22 -22l12 -32l10 -34l44 -44l34 -10h44 l32 10l12 34v88l-12 32l-44 44l-32 12h-44l-34 -12l-44 -44v-22zM328 880l10 -34l44 -44l34 -10l32 10l44 44l12 34l-12 32l-44 44l-32 12l-34 -12l-44 -44z" />
<glyph unicode="'" horiz-adv-x="480" d="M64 494v22l22 22l12 34v88l10 32l22 22l12 34v88l10 32l22 22l12 34l10 32l22 22l12 34l10 32l44 44l34 12l32 -12l12 -32l10 -34l22 -22l12 -32v-44l-12 -34l-22 -22l-10 -32v-44l-12 -34l-22 -22l-10 -32l-12 -34l-22 -22l-10 -32v-44l-12 -34l-88 -88l-32 -10l-34 10z " />
<glyph unicode="(" horiz-adv-x="700" d="M64 582v22l22 22l12 34v132l10 32l66 66l12 34l10 32l22 22l12 34l10 32l34 12l32 10l44 44l12 34l10 32l34 12h176l32 -12l12 -32l-12 -34l-22 -22l-22 -22l-32 -10l-34 -12l-88 -88l-10 -32l-12 -34l-66 -66l-10 -32l-12 -34l-22 -22l-10 -32v-352l10 -34l22 -22 l12 -32l10 -34l66 -66l12 -32l10 -34l34 -10l32 -12l22 -22l34 -10l32 -12l12 -32l-12 -34l-44 -44l-32 -10h-44l-34 10l-22 22l-32 12l-34 10l-132 132l-10 34l-12 32l-66 66l-10 34v264l-12 32z" />
<glyph unicode=")" horiz-adv-x="832" d="M64 1232l10 32l34 12h132l32 -12l66 -66l34 -10l32 -12l22 -22l34 -10l32 -12l12 -32l10 -34l110 -110l12 -32l10 -34l66 -66l12 -32l10 -34l22 -22l12 -32v-220l-12 -34l-22 -22l-10 -32l-12 -34l-66 -66l-10 -32l-12 -34l-264 -264l-32 -10h-88l-34 -12l-22 -22h-22 l-10 34v88l10 32l34 12h44l32 10l176 176l12 34l10 32l66 66l12 34l10 32l22 22l12 34v88l-12 32l-22 22l-10 34l-12 32l-66 66l-10 34v44l-12 32l-88 88l-32 12l-34 10l-110 110l-32 12l-34 10l-44 44z" />
<glyph unicode="*" horiz-adv-x="1096" d="M64 396l10 32l34 12h220l32 10v22l-22 22l-10 34v44l10 32l34 12h44l32 -12l66 -66l34 -10l32 10l12 34v88l10 32l34 12h44l32 -12l12 -32v-88l10 -34l34 -10h132l32 -12l12 -32l-12 -34l-110 -110v-22l44 -44l34 -10h44l32 -12l44 -44l12 -32l-12 -34l-22 -22l-22 -22 l-32 -10h-44l-34 -12l-10 -32l-12 -34l-44 -44h-22l-22 22l-32 12l-34 10l-10 34l-12 32l-32 12l-34 -12l-10 -32l-12 -34l-22 -22l-10 -32v-44l-12 -34l-22 -22l-10 -32l-12 -34l-32 -10h-44l-34 10l-10 34v44l10 32l22 22l12 34v88l-12 32l-32 12l-34 -12l-22 -22l-32 -10 h-44l-34 10l-10 34v44l10 32l44 44l34 12l32 10v22l-32 12l-34 10l-22 22l-32 12h-44l-34 10l-44 44z" />
<glyph unicode="+" horiz-adv-x="788" d="M64 406v22l44 44l34 12h176l32 10l12 34v88l-12 32l-22 22l-10 34v44l10 32l34 12h44l32 -12l44 -44l12 -32v-176l10 -34l34 -10h88l32 -12l44 -44v-22l-22 -22l-22 -22l-32 -10h-44l-34 -12l-44 -44l-10 -32v-44l-12 -34l-44 -44l-32 -10l-34 10l-10 34v88l-12 32 l-44 44l-32 12h-132l-34 10z" />
<glyph unicode="," horiz-adv-x="436" d="M64 -44l10 32l22 22l12 34l10 32l22 22l12 34v44l-12 32l-22 22v22l44 44l34 12h44l32 -12l88 -88l12 -32v-44l-12 -34l-22 -22l-10 -32l-12 -34l-88 -88l-32 -10h-88l-34 10z" />
<glyph unicode="-" horiz-adv-x="876" d="M64 396l10 32l88 88l34 12h44l32 -12l22 -22l34 -10h396l32 -12l44 -44l12 -32l-12 -34l-32 -10l-34 -12l-22 -22l-32 -10h-528l-34 10l-44 44z" />
<glyph unicode="." horiz-adv-x="348" d="M64 88v44l10 32l22 22l12 34l10 32l34 12h44l32 -12l44 -44l12 -32v-44l-12 -34l-22 -22l-66 -66l-32 -10l-34 10l-44 44z" />
<glyph unicode="/" horiz-adv-x="876" d="M64 -144l22 22l12 34l10 32l66 66l12 34l10 32l66 66l12 34l10 32l110 110l12 34l10 32l22 22l12 34l10 32l154 154l12 34l10 32l88 88l34 12l32 -12l12 -32v-44l-12 -34l-22 -22l-88 -88l-10 -32l-12 -34l-110 -110l-10 -32l-12 -34l-22 -22l-10 -32l-12 -34l-66 -66 l-10 -32l-12 -34l-110 -110l-10 -32l-12 -34l-132 -132h-22l-44 44v22z" />
<glyph unicode="0" horiz-adv-x="1140" d="M64 220v308l10 32l22 22l12 34v44l10 32l22 22l12 34l10 32l22 22l12 34v44l10 32l132 132l34 12l32 10l22 22l34 12l32 10l22 22l34 12h88l32 -12l22 -22l34 -10l32 -12l110 -110l34 -10l32 -12l12 -32l10 -34l110 -110l12 -32v-176l-12 -34l-22 -22l-10 -32v-44 l-12 -34l-66 -66l-10 -32l-12 -34l-132 -132l-32 -10l-34 -12l-110 -110l-32 -10l-34 -12l-22 -22l-32 -10l-34 -12l-22 -22l-32 -10l-34 10l-22 22l-32 12l-34 10l-22 22l-32 12l-34 10l-88 88l-10 34l-12 32l-22 22zM240 264l10 -34l88 -88l34 -10h132l32 10l22 22l34 12 l32 10l176 176l12 34l10 32l66 66l12 34v176l-12 32l-176 176l-32 12l-34 -12l-44 -44l-10 -32l-12 -34h-22l-22 22l-32 12h-88l-34 -12l-44 -44l-10 -32v-44l-12 -34l-22 -22l-10 -32l-12 -34l-22 -22l-10 -32v-264z" />
<glyph unicode="1" horiz-adv-x="612" d="M64 1012v88l10 32l44 44l34 12h88l32 -12l22 -22l34 -10l32 -12l12 -32l10 -34l66 -66l12 -32l10 -34l22 -22l12 -32v-220l10 -34l22 -22l12 -32v-616l-12 -34l-22 -22l-22 -22l-32 -10h-176l-34 10l-10 34v660l-12 32l-22 22l-10 34v44l-12 32l-22 22l-10 34v44l-12 32 l-22 22l-10 34l-12 32l-22 22z" />
<glyph unicode="2" horiz-adv-x="920" d="M64 748v44l10 32l176 176l34 12l32 10l110 110l34 12h132l32 -12l44 -44l12 -32l10 -34l22 -22l12 -32v-264l-12 -34l-22 -22l-10 -32l-12 -34l-66 -66l-10 -32l-12 -34l-22 -22l-10 -32v-44l-12 -34l-110 -110l-10 -32v-88l10 -34l34 -10h308l32 -12l44 -44l12 -32v-44 l-12 -34l-22 -22l-22 -22l-32 -10h-88l-34 10l-22 22l-32 12h-176l-34 -12l-22 -22l-32 -10h-132l-34 10l-44 44l-10 34v88l10 32l110 110l12 34v44l10 32l110 110l12 34v44l10 32l22 22l12 34l10 32l34 12l32 10l12 34v44l10 32l22 22l12 34v44l-12 32l-22 22l-10 34 l-12 32h-22l-66 -66l-32 -10l-34 -12l-88 -88l-10 -32l-12 -34l-32 -10h-44l-34 10l-44 44z" />
<glyph unicode="3" horiz-adv-x="1184" d="M64 880l10 32l88 88l34 12h528l32 10l22 22l34 12h88l32 -12l22 -22l34 -10l32 -12l44 -44v-22l-22 -22l-10 -32l-12 -34l-198 -198l-10 -32l10 -34l44 -44l34 -10l32 -12l66 -66l34 -10l32 -12l12 -32l10 -34l22 -22l12 -32v-44l-12 -34l-22 -22l-198 -198l-32 -10 l-34 -12l-22 -22l-32 -10h-44l-34 -12l-22 -22l-32 -10h-88l-34 10l-22 22l-32 12l-34 10l-22 22l-32 12h-88l-34 10l-44 44l-10 34v44l10 32l44 44l34 12l32 -12l22 -22l34 -10h44l32 -12l22 -22l34 -10h220l32 10l22 22l34 12l32 10l12 34v88l-12 32l-32 12l-34 10l-22 22 l-32 12h-264l-34 10l-10 34v88l10 32l88 88l34 12l32 10l44 44l12 34v44l-12 32l-32 12h-88l-34 -12l-22 -22l-32 -10h-264l-34 10l-44 44z" />
<glyph unicode="4" horiz-adv-x="1140" d="M64 264v264l10 32l22 22l12 34v220l-12 32l-22 22v22l22 22l12 34v44l10 32l34 12h44l32 -12l44 -44l12 -32v-484l-12 -34l-22 -22l-10 -32v-88l10 -34l44 -44l34 -10h132l32 10l22 22l34 12h88l32 10l44 44l12 34v308l-12 32l-66 66l-10 34v88l10 32l22 22l12 34l10 32 l44 44l34 12h44l32 -12l12 -32v-220l10 -34l22 -22l12 -32v-264l10 -34l44 -44l34 -10l32 -12l44 -44l12 -32v-44l-12 -34l-32 -10l-34 -12l-44 -44l-10 -32l-12 -34l-22 -22l-10 -32v-44l10 -34l22 -22l12 -32v-44l-12 -34l-88 -88l-32 -10l-34 10l-44 44l-10 34v220 l-12 32l-32 12h-132l-34 -12l-22 -22l-32 -10h-132l-34 -12l-22 -22h-22l-22 22l-32 12l-34 10l-10 34l-12 32l-22 22l-10 34v44l-12 32l-22 22z" />
<glyph unicode="5" d="M64 -132l10 32l34 12h308l32 -12l22 -22l34 -10l32 10l22 22l34 12l32 10l88 88l12 34v176l-12 32l-32 12l-34 10l-22 22l-32 12h-264l-34 10l-22 22l-32 12l-34 10l-44 44l-10 34v44l-12 32l-22 22l-10 34v132l10 32l22 22l12 34v132l10 32l44 44l34 12h396l32 10l22 22 l34 12h88l32 10l22 22l34 12h88l32 -12l66 -66l34 -10l32 -12l44 -44l12 -32l-12 -34l-22 -22l-22 -22l-32 -10h-396l-34 -12l-22 -22l-32 -10h-176l-34 -12l-88 -88l-10 -32l10 -34l44 -44l34 -10h132l32 -12l22 -22l34 -10l32 -12l66 -66l34 -10l32 -12l132 -132l12 -32 v-264l-12 -34l-22 -22l-10 -32l-12 -34l-176 -176l-32 -10l-34 -12l-22 -22l-32 -10h-132l-34 10l-22 22l-32 12h-88l-34 10l-22 22l-32 12h-44l-34 10l-44 44l-10 34v44z" />
<glyph unicode="6" horiz-adv-x="1096" d="M64 88v44l10 32l22 22l12 34l10 32l22 22l12 34v44l10 32l22 22l12 34v176l10 32l66 66l12 34l10 32l22 22l12 34v44l10 32l22 22l12 34l10 32l132 132l34 12l32 10l22 22l34 12l32 10l22 22h22l22 -22l34 -10l32 -12l12 -32l-12 -34l-22 -22l-10 -32l-12 -34l-44 -44 l-32 -10l-34 -12l-44 -44l-10 -32l-12 -34l-22 -22l-10 -32v-44l-12 -34l-22 -22l-10 -32l-12 -34l-22 -22l-10 -32l-12 -34l-22 -22l-10 -32v-44l10 -34l34 -10h264l32 -12l22 -22l34 -10l32 -12l22 -22l34 -10l32 -12l88 -88l12 -32v-132l-12 -34l-22 -22l-10 -32l-12 -34 l-176 -176l-32 -10h-44l-34 -12l-22 -22l-32 -10l-34 -12l-22 -22l-32 -10h-132l-34 10l-22 22l-32 12l-34 10l-132 132l-10 34v44l-12 32l-22 22l-10 34l-12 32l-22 22zM372 -44l10 -34l44 -44l34 -10h88l32 10l22 22l34 12h44l32 10l44 44l12 34l10 32l22 22v22l-44 44 l-32 12l-34 10l-22 22l-32 12h-44l-34 10l-22 22l-32 12h-88l-34 -12l-10 -32v-220z" />
<glyph unicode="7" horiz-adv-x="1448" d="M64 934v22l88 88l34 12h924l32 10l22 22l34 12h88l32 -12l44 -44l12 -32v-88l-12 -34l-22 -22l-10 -32l-12 -34l-22 -22l-10 -32l-12 -34l-66 -66l-10 -32l-12 -34l-22 -22l-10 -32v-44l-12 -34l-66 -66l-10 -32l-12 -34l-22 -22l-10 -32v-88l-12 -34l-22 -22l-10 -32 v-44l-12 -34l-22 -22l-10 -32v-88l-12 -34l-22 -22l-10 -32v-44l-12 -34l-44 -44l-32 -10h-132l-34 10l-10 34v88l10 32l22 22l12 34v132l10 32l22 22l12 34v44l10 32l22 22l12 34l10 32l22 22l12 34v44l10 32l22 22l12 34v44l10 32l66 66l12 34l10 32l22 22l12 34v88 l-12 32l-32 12h-528l-34 -12l-22 -22l-32 -10h-44l-34 10l-22 22l-32 12l-34 10z" />
<glyph unicode="8" horiz-adv-x="1184" d="M64 572v88l10 32l22 22l12 34l10 32l176 176l34 12l32 10l66 66l34 12l32 10l22 22l34 12h176l32 -12l22 -22l34 -10l32 -12l132 -132l12 -32l10 -34l66 -66l12 -32v-132l-12 -34l-110 -110l-10 -32l10 -34l22 -22l12 -32l10 -34l110 -110l12 -32v-44l-12 -34l-22 -22 l-286 -286l-32 -10h-308l-34 10l-22 22l-32 12l-34 10l-132 132l-10 34l-12 32l-22 22l-10 34v44l10 32l22 22l12 34l10 32l22 22l12 34v44l-12 32l-154 154zM328 616l10 -34l44 -44l34 -10h264l32 10l88 88l12 34v44l-12 32l-22 22l-10 34l-12 32l-44 44l-32 12h-88 l-34 -12l-110 -110l-32 -10l-34 -12l-44 -44l-10 -32v-44zM460 44l10 -34l44 -44l34 -10h132l32 10l88 88l12 34l10 32l22 22v22l-44 44l-32 12l-34 10l-22 22l-32 12h-88l-34 -12l-22 -22l-32 -10l-34 -12l-10 -32v-132z" />
<glyph unicode="9" horiz-adv-x="1096" d="M64 704v176l10 32l22 22l12 34l10 32l220 220l34 12h220l32 -12l66 -66l34 -10l32 -12l44 -44l12 -32v-44l-12 -34l-32 -10h-132l-34 10l-66 66l-32 12h-44l-34 -12l-88 -88l-10 -32l-12 -34l-22 -22l-10 -32l-12 -34l-22 -22l-10 -32l10 -34l88 -88l34 -10h44l32 10 l22 22l34 12l32 10l22 22l34 12l32 10l66 66l34 12l32 10l110 110h22l22 -22l34 -10l32 -12l44 -44l12 -32v-44l-12 -34l-22 -22l-10 -32v-220l-12 -34l-22 -22l-10 -32v-132l-12 -34l-22 -22l-10 -32v-44l-12 -34l-22 -22l-10 -32l-12 -34l-32 -10l-34 -12l-22 -22h-22 l-44 44l-10 34v176l10 32l22 22l12 34v88l10 32l22 22l12 34v44l-12 32l-44 44h-22l-22 -22l-32 -10h-44l-34 -12l-66 -66l-32 -10h-176l-34 10l-132 132l-10 34l-12 32l-22 22z" />
<glyph unicode=":" horiz-adv-x="568" d="M64 -88l10 32l34 12l32 10l22 22l34 12l32 10l22 22l34 12l32 -12l22 -22l34 -10l32 -12l12 -32v-44l-12 -34l-22 -22l-44 -44l-10 -32l-12 -34l-88 -88l-32 -10l-34 10l-88 88l-10 34v132zM152 484v44l10 32l44 44l34 12h44l32 10l22 22h22l22 -22l34 -10l32 -12l44 -44 l12 -32v-88l-12 -34l-22 -22l-22 -22l-32 -10h-132l-34 10l-88 88z" />
<glyph unicode=";" horiz-adv-x="568" d="M64 -176l10 32l110 110l12 34v44l10 32l34 12l32 10l22 22h22l22 -22l34 -10l32 -12l12 -32v-44l-12 -34l-22 -22l-10 -32l-12 -34l-132 -132l-32 -10h-88l-34 10l-10 34v44zM240 616v44l10 32l44 44l34 12h132l32 -12l12 -32v-88l-12 -34l-32 -10l-34 -12l-22 -22 l-32 -10h-44l-34 10l-44 44z" />
<glyph unicode="&#x3c;" horiz-adv-x="876" d="M64 484v132l10 32l34 12l32 10l154 154l34 12l32 10l176 176l12 34l10 32l34 12l32 10l12 34l10 32l34 12h88l32 -12l12 -32v-44l-12 -34l-22 -22l-440 -440l-10 -32v-44l10 -34l198 -198l12 -32l10 -34l110 -110l12 -32v-88l-12 -34l-44 -44h-22l-176 176l-10 34l-12 32 l-220 220l-32 12l-34 10l-44 44z" />
<glyph unicode="=" horiz-adv-x="920" d="M64 220l10 32l44 44l34 12h88l32 10l22 22l34 12h88l32 10l22 22l34 12h88l32 10l22 22l34 12h88l32 -12l44 -44l12 -32v-44l-12 -34l-22 -22l-66 -66l-32 -10h-220l-34 -12l-22 -22l-32 -10h-264l-34 10l-44 44zM64 572v88l10 32l34 12l32 10l22 22l34 12h440l32 10 l22 22l34 12h44l32 -12l44 -44l12 -32v-44l-12 -34l-22 -22l-22 -22l-32 -10h-220l-34 -12l-22 -22l-32 -10h-176l-34 -12l-22 -22l-32 -10h-44l-34 10l-44 44z" />
<glyph unicode="&#x3e;" horiz-adv-x="920" d="M64 88l10 32l22 22l12 34l10 32l264 264l34 12l32 10l44 44l12 34v88l-12 32l-132 132l-32 12l-34 10l-132 132l-10 34l-12 32l-22 22l-10 34l10 32l22 22l12 34l10 32l34 12l32 -12l110 -110l34 -10l32 -12l286 -286l34 -10l32 -12l88 -88l12 -32v-88l-12 -34l-22 -22 l-10 -32l-12 -34l-44 -44l-32 -10l-34 -12l-66 -66l-32 -10l-34 -12l-44 -44l-10 -32l-12 -34l-32 -10l-34 -12l-198 -198l-32 -10l-34 10l-88 88z" />
<glyph unicode="?" horiz-adv-x="920" d="M64 -440l10 32l22 22l12 34l10 32l44 44l34 12h44l32 -12l44 -44l12 -32v-88l-12 -34l-22 -22l-66 -66l-32 -10h-44l-34 10l-44 44l-10 34v44zM64 1100v44l10 32l34 12l32 10l22 22l34 12h44l32 10l22 22l34 12h44l32 10l22 22l34 12h132l32 -12l22 -22l34 -10h44l32 -12 l22 -22l34 -10l32 -12l12 -32v-308l-12 -34l-22 -22l-10 -32l-12 -34l-176 -176l-32 -10l-34 -12l-132 -132l-10 -32v-44l10 -34l22 -22l12 -32v-44l-12 -34l-44 -44l-32 -10l-34 -12l-22 -22l-32 -10l-34 10l-88 88l-10 34l-12 32l-22 22l-10 34v220l10 32l88 88l34 12 l32 10l22 22l34 12l32 10l22 22l34 12h44l32 10l12 34l10 32l66 66l12 34l10 32l22 22l12 34l-12 32l-44 44l-32 12h-88l-34 -12l-22 -22l-32 -10h-88l-34 -12l-22 -22l-32 -10l-34 10l-22 22l-32 12l-34 10z" />
<glyph unicode="@" horiz-adv-x="1096" d="M64 176v352l10 32l66 66l12 34l10 32l176 176l34 12l32 10l66 66l34 12h176l32 -12l66 -66l34 -10l32 -12l88 -88l12 -32l10 -34l22 -22l12 -32l10 -34l22 -22l12 -32v-220l-12 -34l-22 -22l-44 -44l-10 -32l-12 -34l-44 -44l-32 -10h-264l-34 -12l-22 -22l-32 -10h-44 l-34 10l-132 132l-10 34v132l-12 32l-44 44h-22l-10 -32v-220l10 -34l34 -10l32 -12l12 -32v-44l10 -34l44 -44l34 -10l32 -12l22 -22l34 -10h132l32 10l22 22l34 12h88l32 -12l12 -32l-12 -34l-88 -88l-32 -10l-34 -12l-22 -22l-32 -10h-132l-34 10l-22 22l-32 12l-34 10 l-22 22l-32 12l-34 10l-88 88l-10 34l-12 32l-22 22l-10 34l-12 32l-22 22zM416 308l10 -34l34 -10h88l32 10l12 34v88l10 32l22 22v22l-44 44l-32 12h-44l-34 -12l-44 -44l-10 -32v-132zM460 704l10 -34l34 -10h132l32 -12l44 -44l12 -32v-44l10 -34l22 -22l12 -32v-44 l10 -34l34 -10h44l32 10l12 34v132l-12 32l-66 66l-10 34l-12 32l-88 88l-32 12l-34 10l-22 22l-32 12l-34 -12l-88 -88z" />
<glyph unicode="A" horiz-adv-x="1140" d="M64 -264l10 32l22 22l12 34v88l10 32l22 22l12 34v88l10 32l22 22l12 34v44l10 32l22 22l12 34v88l10 32l22 22l12 34l10 32l22 22l12 34v44l10 32l22 22l12 34v44l10 32l66 66l12 34l10 32l88 88l34 12l32 10l22 22h22l22 -22l34 -10l32 -12l176 -176l12 -32v-44l10 -34 l22 -22l12 -32l10 -34l22 -22l12 -32v-396l10 -34l22 -22l12 -32v-220l-12 -34l-22 -22l-22 -22l-32 -10h-44l-34 10l-10 34v176l-12 32l-44 44l-32 12h-88l-34 -12l-22 -22l-32 -10l-34 10l-22 22l-32 12h-132l-34 -12l-88 -88l-10 -32v-176l-12 -34l-22 -22l-10 -32 l-12 -34l-32 -10h-44l-34 10l-44 44zM416 264l10 -34l34 -10h308l32 10l44 44l12 34v220l-12 32l-22 22l-10 34l-12 32l-22 22l-10 34l-12 32l-88 88h-22l-44 -44l-10 -32l-12 -34l-66 -66l-10 -32v-44l-12 -34l-22 -22l-10 -32l-12 -34l-22 -22l-10 -32v-132z" />
<glyph unicode="B" horiz-adv-x="1184" d="M64 836l10 32l34 12l32 10l110 110l34 12h132l32 10l22 22l34 12h308l32 -12l22 -22l34 -10h44l32 -12l88 -88l12 -32l10 -34l22 -22l12 -32l-12 -34l-22 -22l-10 -32l-12 -34l-22 -22l-10 -32l-12 -34l-88 -88l-32 -10l-34 -12l-10 -32v-44l10 -34l44 -44l34 -10l32 -12 l44 -44l12 -32l10 -34l22 -22l12 -32l10 -34l22 -22l12 -32v-44l-12 -34l-22 -22l-10 -32l-12 -34l-32 -10l-34 -12l-66 -66l-32 -10l-34 -12l-22 -22l-32 -10h-44l-34 -12l-22 -22l-32 -10h-308l-34 10l-22 22l-32 12l-34 10l-44 44l-10 34v616l-12 32l-22 22l-10 34v88 l-12 32l-22 22l-10 34v44l-12 32l-22 22zM284 748l10 -34l22 -22l12 -32v-132l10 -34l34 -10l32 10l22 22l34 12h264l32 10l66 66l34 12l32 10l12 34v176l-12 32l-32 12h-440l-34 -12l-88 -88zM372 -88l10 -34l44 -44l34 -10h88l32 10l22 22l34 12h132l32 10l22 22l34 12 l32 10l12 34l10 32l22 22v22l-22 22l-10 34l-12 32l-132 132l-32 12l-34 10l-22 22l-32 12h-44l-34 10l-22 22l-32 12h-88l-34 -12l-10 -32v-396z" />
<glyph unicode="C" horiz-adv-x="1360" d="M64 132v220l10 32l22 22l12 34v132l10 32l22 22l12 34l10 32l22 22l12 34l10 32l66 66l12 34l10 32l132 132l34 12l32 10l22 22l34 12l32 10l22 22l34 12h220l32 -12l22 -22l34 -10l32 -12l12 -32l10 -34l22 -22l12 -32v-44l-12 -34l-44 -44l-32 -10l-34 10l-110 110 l-32 12l-34 -12l-22 -22l-32 -10l-34 -12l-220 -220l-10 -32l-12 -34l-66 -66l-10 -32v-44l-12 -34l-66 -66l-10 -32v-132l10 -34l22 -22l12 -32v-44l10 -34l66 -66l12 -32l10 -34l44 -44l34 -10l32 -12l66 -66l34 -10h44l32 -12l22 -22l34 -10h44l32 10l110 110l34 12 l32 10l12 34l10 32l88 88l34 12h44l32 -12l88 -88v-22l-22 -22l-22 -22l-32 -10l-34 -12l-88 -88l-10 -32l-12 -34l-32 -10l-34 -12l-66 -66l-32 -10h-396l-34 10l-22 22l-32 12l-34 10l-22 22l-32 12l-34 10l-88 88l-10 34l-12 32l-22 22l-10 34l-12 32l-22 22l-10 34v44 l-12 32l-22 22z" />
<glyph unicode="D" d="M64 440v440l10 32l88 88l34 12h264l32 10l22 22l34 12h176l32 -12l22 -22l34 -10h44l32 -12l110 -110l34 -10l32 -12l12 -32l10 -34l66 -66l12 -32v-44l10 -34l22 -22l12 -32v-88l-12 -34l-22 -22l-10 -32v-132l-12 -34l-22 -22l-10 -32l-12 -34l-66 -66l-10 -32l-12 -34 l-32 -10l-34 -12l-110 -110l-32 -10l-34 -12l-66 -66l-32 -10h-132l-34 -12l-22 -22l-32 -10h-44l-34 -12l-22 -22l-32 -10h-176l-34 10l-10 34v616l-12 32l-22 22zM240 616l10 -34l22 -22l12 -32v-264l10 -34l22 -22l12 -32v-220l10 -34l34 -10h132l32 10l22 22l34 12h44 l32 10l22 22l34 12l32 10l22 22l34 12l32 10l44 44l12 34l10 32l66 66l12 34v352l-12 32l-132 132l-32 12l-34 10l-66 66l-32 12h-132l-34 -12l-22 -22l-32 -10h-88l-34 -12l-22 -22l-32 -10l-34 -12l-10 -32v-132z" />
<glyph unicode="E" horiz-adv-x="1316" d="M64 880v88l10 32l34 12h176l32 10l22 22l34 12h748l32 10l22 22h22l44 -44l12 -32v-44l-12 -34l-22 -22l-22 -22l-32 -10h-44l-34 -12l-22 -22l-32 -10h-660l-34 -12l-44 -44v-22l22 -22l12 -32v-132l10 -34l44 -44l34 -10h132l32 10l22 22l34 12h88l32 10l22 22l34 12 l32 -12l44 -44l12 -32v-44l-12 -34l-32 -10l-34 -12l-22 -22l-32 -10l-34 -12l-22 -22l-32 -10h-176l-34 -12l-22 -22l-32 -10l-34 -12l-44 -44l-10 -32v-44l10 -34l22 -22l12 -32l10 -34l34 -10h176l32 -12l22 -22l34 -10h88l32 10l22 22l34 12h176l32 10l22 22h22l88 -88 v-22l-88 -88l-32 -10h-176l-34 -12l-22 -22l-32 -10h-572l-34 10l-44 44l-10 34v748l-12 32l-22 22l-10 34v88l-12 32l-22 22z" />
<glyph unicode="F" horiz-adv-x="1052" d="M64 792v44l10 32l22 22l12 34l10 32l34 12l32 10l22 22l34 12h660l32 -12l44 -44l12 -32l-12 -34l-32 -10l-34 -12l-22 -22l-32 -10l-34 10l-22 22l-32 12h-44l-34 -12l-22 -22l-32 -10h-132l-34 -12l-22 -22l-32 -10l-34 -12l-22 -22l-32 -10l-34 -12l-10 -32l10 -34 l22 -22l12 -32v-44l10 -34l44 -44l34 -10l32 10l22 22l34 12h44l32 10l22 22l34 12h132l32 -12l44 -44v-22l-44 -44l-32 -10l-34 -12l-110 -110l-32 -10h-132l-34 -12l-44 -44l-10 -32l-12 -34l-22 -22l-10 -32l10 -34l22 -22l12 -32v-132l-12 -34l-88 -88h-22l-88 88 l-10 34v396l-12 32l-22 22l-10 34v308l-12 32l-22 22z" />
<glyph unicode="G" horiz-adv-x="1228" d="M64 264v176l10 32l22 22l12 34v220l10 32l22 22l12 34v44l10 32l44 44l34 12l32 10l22 22l34 12l32 10l22 22l34 12l32 10l22 22l34 12h264l32 -12l22 -22l34 -10l32 -12l22 -22l34 -10l32 -12l22 -22l34 -10l32 -12l12 -32l-12 -34l-44 -44l-32 -10h-88l-34 10l-22 22 l-32 12l-34 10l-22 22l-32 12h-132l-34 -12l-22 -22l-32 -10h-44l-34 -12l-132 -132l-10 -32v-440l10 -34l66 -66l12 -32l10 -34l132 -132l34 -10l32 -12l22 -22l34 -10h44l32 10l22 22l34 12l32 10l132 132l12 34v220l-12 32l-44 44l-32 12l-34 -12l-22 -22l-32 -10h-132 l-34 10l-44 44l-10 34l10 32l44 44l34 12h220l32 10l22 22l34 12h88l32 -12l88 -88l12 -32v-352l-12 -34l-22 -22l-10 -32l-12 -34l-22 -22l-10 -32l-12 -34l-32 -10l-34 -12l-66 -66l-32 -10l-34 -12l-22 -22l-32 -10l-34 -12l-22 -22l-32 -10h-132l-34 10l-22 22l-32 12 l-34 10l-110 110l-32 12l-34 10l-44 44l-10 34l-12 32l-110 110l-10 34l-12 32l-22 22z" />
<glyph unicode="H" horiz-adv-x="1140" d="M64 0v264l10 32l22 22l12 34v176l10 32l22 22l12 34v396l10 32l44 44l34 12l32 -12l12 -32l10 -34l22 -22l12 -32v-88l-12 -34l-22 -22v-22l22 -22l12 -32v-44l10 -34l34 -10h352l32 10l22 22l34 12h44l32 10l12 34l10 32l22 22v22l-22 22l-10 34v88l10 32l22 22l12 34 l10 32l34 12l32 -12l44 -44l12 -32v-1012l-12 -34l-32 -10h-88l-34 10l-44 44l-10 34v88l10 32l22 22l12 34v220l-12 32l-44 44l-32 12l-34 -12l-22 -22l-32 -10h-352l-34 -12l-44 -44l-10 -32v-44l-12 -34l-22 -22l-10 -32v-44l10 -34l22 -22l12 -32v-132l-12 -34l-32 -10 l-34 -12l-22 -22l-32 -10l-34 10l-44 44z" />
<glyph unicode="I" horiz-adv-x="392" d="M64 44v220l10 32l22 22l12 34v176l10 32l22 22v22l-22 22l-10 34v220l10 32l44 44l34 12h44l32 -12l44 -44l12 -32v-836l-12 -34l-22 -22l-22 -22l-32 -10h-88l-34 10l-44 44z" />
<glyph unicode="J" horiz-adv-x="1228" d="M64 748v88l10 32l44 44l34 12h44l32 10l22 22l34 12h88l32 10l22 22l34 12h176l32 10l22 22l34 12h308l32 -12l88 -88l12 -32v-44l-12 -34l-22 -22l-22 -22l-32 -10h-44l-34 10l-22 22l-32 12h-132l-34 -12l-22 -22l-32 -10l-34 -12l-10 -32v-44l10 -34l22 -22l12 -32 v-88l10 -34l22 -22l12 -32v-396l-12 -34l-22 -22l-10 -32v-44l-12 -34l-22 -22l-10 -32l-12 -34l-44 -44l-32 -10l-34 -12l-22 -22l-32 -10h-44l-34 10l-22 22l-32 12l-34 10l-220 220v22l44 44h22l22 -22l34 -10l32 -12l22 -22l34 -10h132l32 10l44 44l12 34v352l-12 32 l-22 22l-10 34v88l-12 32l-132 132l-32 12l-34 -12l-66 -66l-32 -10h-44l-34 10l-44 44z" />
<glyph unicode="K" horiz-adv-x="1140" d="M64 132v132l10 32l22 22l12 34v572l-12 32l-22 22v22l22 22l12 34l10 32l34 12h44l32 -12l44 -44l12 -32l10 -34l22 -22l12 -32v-88l10 -34l34 -10l32 10l44 44l12 34l10 32l34 12l32 10l22 22l34 12l32 10l22 22h22l44 -44l12 -32v-88l-12 -34l-32 -10l-34 -12l-66 -66 l-32 -10l-34 -12l-10 -32l10 -34l44 -44l34 -10l32 -12l88 -88l12 -32l10 -34l330 -330l12 -32v-88l-12 -34l-32 -10h-44l-34 10l-176 176l-10 34l-12 32l-32 12l-34 10l-110 110l-32 12l-34 10l-110 110l-32 12l-34 -12l-44 -44l-10 -32v-176l-12 -34l-22 -22l-10 -32 l-12 -34l-32 -10h-44l-34 10l-44 44z" />
<glyph unicode="L" horiz-adv-x="1096" d="M64 -44v1100l10 32l44 44l34 12h44l32 -12l12 -32v-968l10 -34l34 -10h44l32 10l22 22l34 12h440l32 10l22 22l34 12h44l32 -12l12 -32v-88l-12 -34l-22 -22l-22 -22l-32 -10h-440l-34 -12l-22 -22l-32 -10h-44l-34 -12l-22 -22l-32 -10h-132l-34 10l-44 44z" />
<glyph unicode="M" horiz-adv-x="1360" d="M64 440v396l10 32l22 22l12 34l10 32l34 12h44l32 -12l22 -22l34 -10l32 -12l66 -66l34 -10l32 -12l22 -22l34 -10l32 -12l22 -22h22l22 22l34 12l32 10l12 34l10 32l22 22l12 34l10 32l176 176l34 12h132l32 -12l22 -22l34 -10l32 -12l44 -44l12 -32l10 -34l22 -22 l12 -32l-12 -34l-22 -22l-10 -32v-836l-12 -34l-88 -88l-32 -10l-34 10l-44 44l-10 34v484l10 32l22 22l12 34v396l-12 32l-32 12l-34 -12l-132 -132l-10 -32l-12 -34l-132 -132l-32 -10h-44l-34 -12l-22 -22h-22l-22 22l-32 12h-44l-34 10l-66 66l-32 12l-34 -12l-44 -44 l-10 -32v-88l10 -34l22 -22l12 -32v-308l10 -34l22 -22l12 -32v-88l-12 -34l-44 -44l-32 -10h-44l-34 10l-44 44l-10 34v396l-12 32l-22 22z" />
<glyph unicode="N" horiz-adv-x="1228" d="M64 44v132l10 32l22 22l12 34v748l10 32l34 12l32 10l22 22l34 12l32 -12l22 -22l34 -10l32 -12l154 -154l34 -10l32 -12l12 -32l10 -34l110 -110l12 -32l10 -34l88 -88l34 -10h44l32 10l12 34v264l-12 32l-22 22l-10 34v176l10 32l44 44l34 12h88l32 -12l12 -32l10 -34 l22 -22l12 -32v-528l-12 -34l-22 -22l-10 -32v-132l-12 -34l-88 -88l-32 -10h-88l-34 10l-220 220l-10 34l-12 32l-22 22l-10 34l-12 32l-176 176h-22l-44 -44l-10 -32v-88l10 -34l22 -22l12 -32v-44l-12 -34l-22 -22l-10 -32v-264l-12 -34l-88 -88l-32 -10h-44l-34 10 l-44 44z" />
<glyph unicode="O" d="M64 220v132l10 32l22 22l12 34v132l10 32l22 22l12 34l10 32l22 22l12 34l10 32l110 110l12 34l10 32l34 12l32 10l154 154l34 12l32 10l22 22h22l22 -22l34 -10l32 -12l352 -352l12 -32l10 -34l22 -22l12 -32l10 -34l22 -22l12 -32v-44l-12 -34l-22 -22l-10 -32v-88 l10 -34l22 -22l12 -32v-44l-12 -34l-22 -22l-10 -32l-12 -34l-176 -176l-32 -10l-34 -12l-22 -22l-32 -10l-34 -12l-22 -22l-32 -10l-34 -12l-22 -22l-32 -10l-34 10l-22 22l-32 12h-44l-34 10l-22 22l-32 12h-44l-34 10l-22 22l-32 12l-34 10l-176 176l-10 34l-12 32 l-22 22zM240 264l10 -34l66 -66l12 -32l10 -34l44 -44l34 -10h44l32 -12l22 -22l34 -10h220l32 10l22 22l34 12l32 10l44 44l12 34l10 32l66 66l12 34v220l-12 32l-66 66l-10 34v44l-12 32l-88 88l-32 12l-34 10l-22 22l-32 12l-34 10l-22 22l-32 12h-44l-34 -12l-22 -22 l-32 -10l-34 -12l-88 -88l-10 -32l-12 -34l-22 -22l-10 -32l-12 -34l-22 -22l-10 -32v-44l-12 -34l-22 -22l-10 -32v-132z" />
<glyph unicode="P" d="M64 572v352l10 32l44 44l34 12l32 10l22 22l34 12h88l32 10l22 22l34 12h352l32 -12l22 -22l34 -10l32 -12l22 -22l34 -10l32 -12l220 -220l12 -32v-44l-12 -34l-22 -22l-10 -32l-12 -34l-22 -22l-10 -32l-12 -34l-176 -176l-32 -10l-34 -12l-66 -66l-32 -10h-220l-34 10 l-66 66l-32 12l-34 -12l-44 -44l-10 -32v-396l-12 -34l-44 -44l-32 -10l-34 10l-88 88l-10 34v616l-12 32l-22 22zM240 748l10 -34l22 -22l12 -32l10 -34l22 -22l12 -32v-44l10 -34l34 -10l32 -12l22 -22l34 -10h88l32 -12l22 -22l34 -10h44l32 10l22 22l34 12l32 10l22 22 l34 12l32 10l12 34l10 32l66 66l12 34v44l-12 32l-132 132l-32 12h-44l-34 10l-22 22l-32 12h-132l-34 -12l-22 -22l-32 -10h-132l-34 -12l-44 -44l-10 -32v-44z" />
<glyph unicode="Q" horiz-adv-x="1140" d="M64 308v220l10 32l22 22l12 34l10 32l22 22l12 34l10 32l22 22l12 34l10 32l132 132l34 12l32 10l66 66l34 12l32 10l22 22l34 12l32 -12l22 -22l34 -10l32 -12l22 -22l34 -10l32 -12l44 -44l12 -32l10 -34l110 -110l12 -32l10 -34l22 -22l12 -32l10 -34l22 -22l12 -32 v-220l-12 -34l-22 -22l-88 -88l-10 -32l10 -34l22 -22l12 -32v-44l-12 -34l-44 -44h-22l-22 22l-32 12h-88l-34 -12l-66 -66l-32 -10l-34 -12l-66 -66l-32 -10h-132l-34 10l-176 176l-10 34l-12 32l-22 22l-10 34v88l-12 32l-22 22zM240 352l10 -34l22 -22l12 -32v-132 l10 -34l132 -132h22l22 22l34 12l32 10l22 22l34 12l32 10l12 34v88l-12 32l-66 66l-10 34v44l10 32l44 44l34 12l32 -12l110 -110l34 -10l32 10l12 34l10 32l22 22l12 34v132l-12 32l-22 22l-10 34l-12 32l-32 12l-34 10l-154 154h-22l-22 -22l-32 -10l-34 -12l-220 -220 l-10 -32v-44l-12 -34l-22 -22l-10 -32v-88z" />
<glyph unicode="R" d="M64 836l10 32l22 22l12 34l10 32l34 12l32 10l22 22l34 12h44l32 10l22 22l34 12h44l32 10l22 22l34 12h176l32 -12l22 -22l34 -10l32 -12l22 -22l34 -10l32 -12l264 -264l12 -32l-12 -34l-22 -22l-10 -32l-12 -34l-66 -66l-10 -32l-12 -34l-110 -110l-10 -32v-44l10 -34 l34 -10l32 -12l88 -88l12 -32l10 -34l110 -110l12 -32v-44l-12 -34l-32 -10h-88l-34 10l-330 330l-32 12l-34 10l-22 22l-32 12l-34 10l-22 22l-32 12h-132l-34 -12l-10 -32v-264l-12 -34l-22 -22l-10 -32l-12 -34l-32 -10h-44l-34 10l-44 44l-10 34v176l10 32l22 22l12 34 v308l-12 32l-22 22l-10 34v176l-12 32l-22 22zM284 660l10 -34l22 -22l12 -32l10 -34l44 -44l34 -10h352l32 10l132 132l12 34l-12 32l-176 176l-32 12h-308l-34 -12l-88 -88l-10 -32v-88z" />
<glyph unicode="S" horiz-adv-x="1140" d="M64 -44l10 32l44 44l34 12h132l32 -12l22 -22l34 -10h220l32 10l22 22l34 12l32 10l132 132l12 34v88l-12 32l-44 44l-32 12h-132l-34 -12l-22 -22l-32 -10h-176l-34 10l-22 22l-32 12l-34 10l-88 88l-10 34v176l10 32l66 66l12 34l10 32l22 22l12 34l10 32l88 88l34 12 h44l32 10l66 66l34 12h264l32 -12l22 -22l34 -10l32 -12l44 -44l12 -32l-12 -34l-44 -44l-32 -10h-44l-34 10l-22 22l-32 12h-88l-34 -12l-22 -22l-32 -10l-34 -12l-66 -66l-32 -10l-34 -12l-44 -44l-10 -32l-12 -34l-22 -22l-10 -32v-88l10 -34l34 -10h88l32 10l22 22 l34 12l32 10l22 22l34 12l32 -12l22 -22l34 -10l32 -12l22 -22l34 -10l32 -12l22 -22l34 -10l32 -12l88 -88l12 -32v-88l-12 -34l-22 -22l-44 -44l-10 -32v-44l-12 -34l-176 -176l-32 -10h-44l-34 -12l-22 -22l-32 -10h-44l-34 -12l-22 -22l-32 -10h-44l-34 10l-22 22 l-32 12h-44l-34 10l-22 22l-32 12h-44l-34 10l-22 22l-32 12l-34 10z" />
<glyph unicode="T" horiz-adv-x="1228" d="M64 890v22l44 44l34 12h132l32 10l22 22l34 12h748l32 -12l12 -32v-44l-12 -34l-22 -22l-22 -22l-32 -10l-34 -12l-22 -22l-32 -10h-308l-34 -12l-10 -32v-704l-12 -34l-22 -22l-10 -32v-220l-12 -34l-44 -44h-22l-22 22l-32 12l-34 10l-10 34v352l10 32l22 22l12 34v528 l-12 32l-44 44l-32 12h-220l-34 10l-10 34l-12 32z" />
<glyph unicode="U" horiz-adv-x="1184" d="M64 44v836l10 32l34 12l32 10l22 22h22l88 -88l12 -32l-12 -34l-22 -22l-10 -32v-572l10 -34l22 -22l12 -32l10 -34l22 -22l12 -32l10 -34l88 -88l34 -10h88l32 10l132 132l12 34l10 32l22 22l12 34l10 32l66 66l12 34v88l10 32l22 22l12 34v220l-12 32l-22 22l-10 34v44 l-12 32l-22 22l-10 34l-12 32l-22 22l-10 34v44l10 32l34 12h132l32 -12l12 -32l10 -34l22 -22l12 -32v-44l10 -34l22 -22l12 -32l10 -34l22 -22l12 -32v-220l-12 -34l-22 -22l-10 -32l-12 -34l-22 -22l-10 -32v-88l-12 -34l-110 -110l-10 -32v-44l-12 -34l-220 -220 l-32 -10l-34 -12l-22 -22l-32 -10h-132l-34 10l-22 22l-32 12l-34 10l-132 132l-10 34l-12 32l-66 66z" />
<glyph unicode="V" horiz-adv-x="1096" d="M64 880l10 32l34 12h44l32 -12l88 -88l12 -32v-88l10 -34l22 -22l12 -32v-132l10 -34l22 -22l12 -32v-44l10 -34l22 -22l12 -32v-176l10 -34l34 -10l32 10l44 44l12 34l10 32l22 22l12 34l10 32l22 22l12 34v44l10 32l22 22l12 34l10 32l22 22l12 34v44l10 32l22 22 l12 34v44l10 32l22 22l12 34l10 32l22 22l12 34l10 32l88 88h22l44 -44l12 -32v-132l-12 -34l-22 -22l-10 -32l-12 -34l-22 -22l-10 -32v-88l-12 -34l-22 -22l-10 -32l-12 -34l-22 -22l-10 -32l-12 -34l-22 -22l-10 -32v-44l-12 -34l-22 -22l-10 -32l-12 -34l-22 -22 l-10 -32l-12 -34l-22 -22l-10 -32l-12 -34l-66 -66l-10 -32l-12 -34l-88 -88l-32 -10l-34 10l-88 88l-10 34l-12 32l-22 22l-10 34l-12 32l-22 22l-10 34v176l-12 32l-22 22l-10 34v44l-12 32l-22 22l-10 34v88l-12 32l-22 22v22l22 22l12 34l-12 32l-22 22l-10 34v88 l-12 32l-22 22z" />
<glyph unicode="W" horiz-adv-x="1580" d="M64 440v352l10 32l44 44h22l88 -88l12 -32v-264l10 -34l66 -66l12 -32v-132l10 -34l44 -44h22l22 22l34 12l32 10l44 44l12 34l10 32l22 22l12 34l10 32l34 12l32 10l12 34l10 32l34 12h88l32 -12l88 -88l12 -32v-88l10 -34l44 -44l34 -10l32 10l88 88l12 34l10 32l66 66 l12 34l10 32l22 22l12 34v352l-12 32l-22 22l-10 34v44l10 32l34 12h44l32 -12l88 -88l12 -32v-176l10 -34l22 -22l12 -32l-12 -34l-22 -22l-10 -32v-132l-12 -34l-110 -110l-10 -32l-12 -34l-264 -264l-32 -10h-44l-34 10l-88 88l-10 34l-12 32l-22 22l-10 34l-12 32 l-32 12l-34 -12l-132 -132l-10 -32l-12 -34l-88 -88l-32 -10l-34 -12l-22 -22l-32 -10l-34 10l-132 132l-10 34v88l-12 32l-22 22l-10 34v44l-12 32l-22 22l-10 34l-12 32l-22 22z" />
<glyph unicode="X" horiz-adv-x="1316" d="M64 -12l22 22l12 34l10 32l110 110l12 34l10 32l110 110l12 34v88l-12 32l-110 110l-10 34l-12 32l-66 66l-10 34v132l10 32l34 12h88l32 -12l88 -88l12 -32l10 -34l88 -88l34 -10h44l32 10l242 242l34 12h44l32 -12l22 -22l34 -10l32 -12l12 -32v-44l-12 -34l-286 -286 l-10 -32v-44l10 -34l22 -22l12 -32l10 -34l352 -352l34 -10l32 -12l12 -32v-88l-12 -34l-32 -10h-132l-34 10l-110 110l-32 12l-34 10l-132 132l-10 34l-12 32l-88 88l-32 12h-44l-34 -12l-88 -88l-10 -32l-12 -34l-110 -110l-10 -32l-12 -34l-32 -10h-44l-34 10l-88 88v22z " />
<glyph unicode="Y" d="M64 924v44l10 32l44 44l34 12h44l32 -12l12 -32l10 -34l66 -66l12 -32l10 -34l66 -66l12 -32l10 -34l66 -66l12 -32l10 -34l44 -44l34 -10l32 10l88 88l12 34l10 32l110 110l12 34l10 32l110 110l12 34l10 32l88 88l34 12h44l32 -12l12 -32v-44l-12 -34l-22 -22l-10 -32 l-12 -34l-22 -22l-10 -32l-12 -34l-66 -66l-10 -32l-12 -34l-66 -66l-10 -32l-12 -34l-22 -22l-10 -32l-12 -34l-242 -242l-10 -32l10 -34l22 -22l12 -32v-220l-12 -34l-22 -22l-10 -32l-12 -34l-44 -44l-32 -10l-34 10l-44 44l-10 34v440l-12 32l-22 22l-10 34l-12 32 l-22 22l-10 34l-12 32l-66 66l-10 34l-12 32l-66 66l-10 34l-12 32l-66 66l-10 34l-12 32l-22 22z" />
<glyph unicode="Z" horiz-adv-x="1096" d="M64 44l10 32l22 22l12 34l10 32l66 66l12 34l10 32l22 22l12 34l10 32l66 66l12 34l10 32l154 154l12 34v44l-12 32l-32 12h-308l-34 10l-44 44l-10 34v44l10 32l44 44l34 12h572l32 10l22 22h22l22 -22l34 -10h44l32 -12l44 -44l12 -32l-12 -34l-22 -22l-10 -32l-12 -34 l-418 -418l-10 -32l-12 -34l-110 -110l-10 -32l-12 -34l-22 -22l-10 -32l-12 -34l-22 -22v-22l44 -44l34 -10h88l32 10l22 22l34 12h88l32 10l22 22l34 12l32 10l22 22l34 12h44l32 10l22 22h22l88 -88l12 -32v-44l-12 -34l-22 -22l-66 -66l-32 -10h-132l-34 -12l-22 -22 l-32 -10l-34 -12l-22 -22l-32 -10h-44l-34 -12l-22 -22l-32 -10h-176l-34 10l-176 176l-10 34v132z" />
<glyph unicode="[" horiz-adv-x="568" d="M64 660v308l10 32l34 12h220l32 10l22 22h22l22 -22l34 -10l32 -12v-22l-32 -10h-220l-34 -12l-10 -32v-88l-12 -34l-22 -22v-22l22 -22l12 -32v-748l10 -34l34 -10h88l32 10l22 22l34 12h44l32 -12l12 -32l-12 -34l-32 -10h-264l-34 10l-44 44l-10 34v616l-12 32l-22 22 z" />
<glyph unicode="\" horiz-adv-x="788" d="M64 792v44l10 32h22l22 -22l34 -10l32 -12l12 -32l10 -34l154 -154l12 -32l10 -34l110 -110l12 -32l10 -34l66 -66l12 -32l10 -34l22 -22l12 -32l10 -34l22 -22l12 -32l10 -34l22 -22v-22l-22 -22l-22 -22h-22l-88 88l-10 34l-12 32l-22 22l-10 34l-12 32l-22 22l-10 34 l-12 32l-110 110l-10 34l-12 32l-66 66l-10 34l-12 32l-154 154z" />
<glyph unicode="]" horiz-adv-x="656" d="M64 1022v22l34 12h396l32 -12l44 -44l12 -32v-968l-12 -34l-32 -10h-308l-34 10v22l34 12h44l32 10l22 22l34 12h88l32 10l12 34v572l-12 32l-22 22l-10 34v220l-12 32l-32 12h-176l-34 -12l-22 -22l-32 -10l-34 10z" />
<glyph unicode="^" horiz-adv-x="744" d="M64 528v44l10 32l22 22l12 34v44l10 32l132 132l34 12h44l32 -12l220 -220l12 -32l10 -34l66 -66l12 -32v-44l-12 -34l-32 -10h-44l-34 10l-132 132l-10 34l-12 32l-44 44l-32 12l-34 -12l-44 -44l-10 -32l-12 -34l-44 -44l-32 -10h-44l-34 10z" />
<glyph unicode="_" horiz-adv-x="964" d="M64 186v22l44 44l34 12h704l32 -12l12 -32l-12 -34l-32 -10h-748z" />
<glyph unicode="`" horiz-adv-x="524" d="M64 538v22l44 44h22l88 -88l12 -32l10 -34l110 -110l12 -32l10 -34l66 -66l12 -32v-44l-12 -34l-32 -10l-34 10l-88 88l-10 34l-12 32l-22 22l-10 34l-12 32l-110 110l-10 34l-12 32z" />
<glyph unicode="a" horiz-adv-x="1140" d="M64 -88l10 32l22 22l12 34v528l10 32l22 22l12 34v88l10 32l22 22l12 34v88l10 32l22 22l12 34l10 32l220 220l34 12h132l32 -12l88 -88l12 -32l10 -34l66 -66l12 -32l10 -34l22 -22l12 -32l10 -34l22 -22l12 -32v-44l10 -34l22 -22l12 -32v-176l10 -34l22 -22l12 -32 v-132l10 -34l22 -22l12 -32v-308l-12 -34l-22 -22l-22 -22h-22l-44 44l-10 34l-12 32l-22 22l-10 34v44l-12 32l-22 22l-10 34v88l-12 32l-22 22l-10 34l-12 32l-32 12h-88l-34 -12l-22 -22l-32 -10h-44l-34 -12l-22 -22l-32 -10h-88l-34 -12l-44 -44l-10 -32v-88l-12 -34 l-22 -22l-10 -32v-176l-12 -34l-32 -10h-44l-34 10l-44 44l-10 34v88zM328 528l10 -34l44 -44l34 -10h88l32 10l22 22l34 12l32 10l22 22l34 12h88l32 10l12 34v44l-12 32l-66 66l-10 34v44l-12 32l-22 22l-10 34l-12 32l-88 88l-32 12l-34 -12l-22 -22l-32 -10l-34 -12 l-10 -32v-44l-12 -34l-22 -22l-10 -32v-132l-12 -34l-22 -22l-10 -32v-44z" />
<glyph unicode="b" d="M64 836v132l10 32l34 12h44l32 -12l44 -44l12 -32v-880l10 -34l34 -10h352l32 10l22 22l34 12h44l32 10l22 22l34 12h44l32 10l44 44l12 34v44l-12 32l-132 132l-32 12h-264l-34 10l-10 34v88l10 32l44 44l34 12h88l32 10l66 66l34 12l32 10l132 132v22l-44 44l-32 12 l-34 10l-22 22l-32 12h-44l-34 10l-22 22h-22l-22 -22l-32 -10h-44l-34 -12l-22 -22l-32 -10l-34 -12l-22 -22l-32 -10h-88l-34 10l-10 34v44l10 32l44 44l34 12l32 10l66 66l34 12h352l32 -12l22 -22l34 -10l32 -12l220 -220l12 -32l-12 -34l-22 -22l-66 -66l-32 -10h-44 l-34 -12l-88 -88l-10 -32l10 -34l198 -198l12 -32v-176l-12 -34l-132 -132l-32 -10l-34 -12l-66 -66l-32 -10h-220l-34 -12l-22 -22l-32 -10h-88l-34 10l-22 22l-32 12h-176l-34 10l-10 34v836l-12 32l-22 22z" />
<glyph unicode="c" horiz-adv-x="1184" d="M64 308v264l10 32l22 22l12 34l10 32l66 66l12 34l10 32l264 264l34 12l32 10l22 22l34 12h44l32 10l22 22l34 12h44l32 -12l22 -22l34 -10l32 -12l88 -88l12 -32v-44l-12 -34l-44 -44h-22l-66 66l-32 12h-88l-34 -12l-22 -22l-32 -10l-34 -12l-220 -220l-10 -32l-12 -34 l-22 -22l-10 -32l-12 -34l-22 -22l-10 -32l-12 -34l-22 -22v-22l22 -22l12 -32v-44l10 -34l66 -66l12 -32l10 -34l88 -88l34 -10l32 -12l22 -22l34 -10h44l32 -12l22 -22l34 -10l32 10l22 22l34 12l32 10l66 66l34 12l32 10l12 34l10 32l34 12h44l32 -12l12 -32v-44l-12 -34 l-22 -22l-10 -32l-12 -34l-88 -88l-32 -10l-34 -12l-22 -22l-32 -10h-308l-34 10l-22 22l-32 12l-34 10l-22 22l-32 12l-34 10l-176 176l-10 34l-12 32l-22 22l-10 34l-12 32l-22 22z" />
<glyph unicode="d" d="M64 846v22l132 132l34 12l32 10l22 22l34 12h44l32 10l22 22l34 12h176l32 -12l22 -22l34 -10h88l32 -12l66 -66l34 -10l32 -12l88 -88l12 -32l10 -34l66 -66l12 -32v-88l10 -34l22 -22l12 -32v-88l-12 -34l-22 -22l-10 -32v-132l-12 -34l-22 -22l-10 -32l-12 -34 l-22 -22l-10 -32l-12 -34l-22 -22l-10 -32l-12 -34l-220 -220l-32 -10l-34 -12l-22 -22l-32 -10l-34 -12l-22 -22l-32 -10h-220l-34 -12l-22 -22l-32 -10h-132l-34 10l-10 34v88l10 32l66 66l12 34v264l-12 32l-22 22l-10 34v88l10 32l22 22l12 34v308l-12 32l-66 66l-10 34 l-12 32zM318 -220l10 -34l34 -10h132l32 10l22 22l34 12l32 10l22 22l34 12h88l32 10l12 34l10 32l110 110l12 34l10 32l22 22l12 34v44l10 32l22 22l12 34v44l10 32l22 22l12 34v44l-12 32l-22 22l-10 34v44l-12 32l-22 22l-10 34l-12 32l-66 66l-10 34l-12 32l-32 12 l-34 10l-22 22l-32 12l-34 10l-22 22l-32 12h-176l-34 -12l-22 -22l-32 -10h-44l-34 -12l-10 -32v-1056z" />
<glyph unicode="e" d="M64 -44v176l10 32l22 22l12 34v220l10 32l22 22l12 34v308l-12 32l-22 22l-10 34v44l10 32l88 88l34 12l32 10l22 22l34 12h176l32 10l22 22l34 12h528l32 -12l44 -44v-22l-22 -22l-66 -66l-32 -10h-396l-34 -12l-22 -22l-32 -10h-132l-34 -12l-88 -88l-10 -32v-88 l10 -34l44 -44l34 -10h440l32 -12l44 -44v-22l-88 -88l-32 -10h-44l-34 -12l-22 -22l-32 -10h-132l-34 10l-22 22l-32 12h-88l-34 -12l-10 -32l-12 -34l-22 -22l-10 -32v-176l10 -34l34 -10l32 -12l22 -22l34 -10l32 10l22 22l34 12h484l32 -12l12 -32l-12 -34l-88 -88 l-32 -10h-176l-34 -12l-22 -22l-32 -10h-352l-34 -12l-22 -22l-32 -10h-44l-34 10l-44 44z" />
<glyph unicode="f" horiz-adv-x="1008" d="M64 484v44l10 32l22 22l12 34v352l10 32l132 132l34 12l32 10l22 22l34 12h44l32 10l22 22l34 12l32 10l22 22l34 12h44l32 10l22 22l34 12h132l32 -12l44 -44l12 -32l-12 -34l-22 -22l-10 -32l-12 -34l-32 -10h-132l-34 -12l-22 -22l-32 -10l-34 -12l-22 -22l-32 -10 h-44l-34 -12l-132 -132l-10 -32v-132l10 -34l44 -44l34 -10h264l32 -12l44 -44l12 -32v-44l-12 -34l-44 -44l-32 -10h-176l-34 -12l-22 -22l-32 -10l-34 -12l-10 -32v-396l-12 -34l-44 -44l-32 -10h-44l-34 10l-44 44l-10 34v440l-12 32l-66 66z" />
<glyph unicode="g" d="M64 616v220l10 32l22 22l12 34l10 32l132 132l34 12l32 10l66 66l34 12h132l32 10l22 22l34 12h132l32 10l22 22l34 12h88l32 -12l22 -22l34 -10l32 -12l44 -44l12 -32l-12 -34l-44 -44l-32 -10h-88l-34 10l-22 22h-22l-22 -22l-32 -10h-176l-34 -12l-22 -22l-32 -10 l-34 -12l-22 -22l-32 -10l-34 -12l-176 -176l-10 -32v-132l10 -34l66 -66l12 -32l10 -34l110 -110l12 -32l10 -34l88 -88l34 -10l32 -12l22 -22l34 -10l32 -12l22 -22h22l22 22l34 12l32 10l176 176l12 34v44l-12 32l-32 12l-34 10l-22 22l-32 12h-220l-34 10l-44 44l-10 34 v44l10 32l34 12h264l32 -12l22 -22l34 -10h88l32 -12l44 -44l12 -32l10 -34l22 -22l12 -32v-132l-12 -34l-22 -22l-10 -32l-12 -34l-176 -176l-32 -10l-34 -12l-66 -66l-32 -10h-132l-34 10l-66 66l-32 12l-34 10l-220 220l-10 34l-12 32l-66 66l-10 34l-12 32l-66 66 l-10 34l-12 32l-22 22z" />
<glyph unicode="h" horiz-adv-x="1228" d="M64 -264v924l10 32l22 22l12 34v264l10 32l34 12h44l32 -12l12 -32v-352l-12 -34l-22 -22l-10 -32v-132l10 -34l44 -44l34 -10h176l32 10l22 22l34 12h264l32 10l22 22l34 12l32 10l44 44l12 34v396l10 32l34 12l32 -12l44 -44l12 -32v-352l10 -34l22 -22v-22l-22 -22 l-10 -32v-484l-12 -34l-32 -10l-34 -12l-22 -22h-22l-10 34l-12 32l-22 22l-10 34v264l-12 32l-32 12h-176l-34 -12l-22 -22l-32 -10h-264l-34 -12l-22 -22l-32 -10l-34 -12l-44 -44l-10 -32v-308l-12 -34l-32 -10l-34 -12l-22 -22h-22z" />
<glyph unicode="i" horiz-adv-x="480" d="M64 88l10 32l22 22l12 34v88l10 32l22 22l12 34v352l10 32l22 22l12 34v44l-12 32l-22 22l-10 34v44l10 32l22 22l12 34l10 32l34 12h88l32 -12l44 -44l12 -32v-440l-12 -34l-22 -22l-10 -32v-396l-12 -34l-22 -22l-10 -32v-176l-12 -34l-88 -88l-32 -10h-88l-34 10 l-10 34v352z" />
<glyph unicode="j" horiz-adv-x="1360" d="M64 0l10 32l34 12l32 10l22 22h22l22 -22l34 -10l32 -12l66 -66l34 -10h176l32 10l44 44l12 34l10 32l22 22l12 34v44l10 32l22 22l12 34v264l-12 32l-22 22l-10 34v44l-12 32l-88 88l-32 12h-176l-34 10l-22 22l-32 12l-34 10l-10 34v44l10 32l44 44l34 12h88l32 10 l22 22l34 12h132l32 -12l22 -22l34 -10h484l32 -12l12 -32l10 -34l22 -22v-22l-22 -22l-10 -32l-12 -34l-44 -44l-32 -10l-34 -12l-22 -22h-22l-22 22l-32 12l-34 -12l-44 -44l-10 -32v-528l-12 -34l-22 -22l-10 -32l-12 -34l-66 -66l-10 -32l-12 -34l-44 -44l-32 -10 l-34 -12l-22 -22l-32 -10h-44l-34 -12l-22 -22l-32 -10h-132l-34 10l-22 22l-32 12l-34 10l-66 66l-32 12l-34 10l-10 34l-12 32l-22 22z" />
<glyph unicode="k" horiz-adv-x="1052" d="M64 220v836l10 32l44 44l34 12h44l32 -12l88 -88l12 -32v-88l-12 -34l-22 -22l-10 -32v-132l10 -34l34 -10h44l32 10l12 34l10 32l66 66l12 34l10 32l22 22l12 34l10 32l44 44l34 12h88l32 -12l12 -32l10 -34l22 -22v-22l-22 -22l-10 -32l-12 -34l-154 -154l-10 -32v-88 l10 -34l34 -10l32 -12l264 -264l12 -32v-44l10 -34l22 -22l12 -32v-44l-12 -34l-22 -22l-22 -22l-32 -10h-44l-34 10l-88 88l-10 34l-12 32l-264 264l-32 12h-44l-34 -12l-44 -44v-22l22 -22l12 -32v-176l-12 -34l-32 -10h-44l-34 10l-88 88l-10 34l-12 32l-22 22z" />
<glyph unicode="l" horiz-adv-x="1184" d="M64 88v220l10 32l22 22l12 34v176l10 32l22 22l12 34v264l10 32l22 22l12 34v88l10 32l44 44l34 12l32 10l22 22l34 12l32 -12l88 -88v-22l-22 -22l-10 -32v-44l-12 -34l-22 -22l-10 -32v-132l-12 -34l-22 -22l-10 -32v-264l-12 -34l-22 -22l-10 -32v-88l10 -34l88 -88 l34 -10h572l32 -12l12 -32l10 -34l22 -22l12 -32l-12 -34l-32 -10l-34 -12l-22 -22h-22l-22 22l-32 12h-132l-34 -12l-22 -22l-32 -10h-132l-34 -12l-22 -22l-32 -10h-220l-34 10l-176 176z" />
<glyph unicode="m" horiz-adv-x="1096" d="M64 704v308l10 32l44 44l34 12l32 -12l176 -176l12 -32v-44l10 -34l44 -44l34 -10l32 10l44 44l12 34l10 32l22 22l12 34l10 32l66 66l12 34l10 32l132 132l34 12l32 -12l44 -44l12 -32v-44l10 -34l22 -22l12 -32v-44l10 -34l22 -22l12 -32v-880l-12 -34l-22 -22l-22 -22 l-32 -10h-44l-34 10l-10 34v396l10 32l22 22l12 34v88l-12 32l-22 22l-10 34v176l-12 32l-44 44l-32 12l-34 -12l-10 -32l-12 -34l-22 -22l-10 -32l-12 -34l-66 -66l-10 -32l-12 -34l-66 -66l-10 -32l-12 -34l-32 -10l-34 10l-44 44l-10 34l-12 32l-32 12l-34 -12l-10 -32 v-616l-12 -34l-32 -10h-44l-34 10l-10 34v44l-12 32l-22 22l-10 34v572l-12 32l-22 22z" />
<glyph unicode="n" d="M64 -264v792l10 32l22 22l12 34v396l10 32l34 12h88l32 -12l44 -44l12 -32l10 -34l110 -110l12 -32l10 -34l22 -22l12 -32l10 -34l66 -66l12 -32l10 -34l176 -176l34 -10h44l32 10l12 34v132l10 32l22 22l12 34v440l10 32l22 22l12 34l10 32l34 12h88l32 -12l12 -32 l10 -34l22 -22l12 -32l-12 -34l-22 -22l-10 -32v-220l-12 -34l-22 -22l-10 -32v-308l-12 -34l-22 -22l-10 -32v-44l-12 -34l-22 -22l-10 -32l-12 -34l-88 -88l-32 -10h-44l-34 10l-132 132l-10 34l-12 32l-198 198l-10 34l-12 32l-88 88l-32 12l-34 -12l-44 -44l-10 -32 v-792l-12 -34l-44 -44h-22l-88 88z" />
<glyph unicode="o" horiz-adv-x="1492" d="M64 88v132l10 32l22 22l12 34v44l10 32l22 22l12 34v44l10 32l22 22l12 34l10 32l22 22l12 34l10 32l22 22l12 34l10 32l22 22l12 34l10 32l66 66l12 34l10 32l88 88l34 12l32 10l22 22l34 12h220l32 -12l22 -22l34 -10h44l32 -12l264 -264l12 -32l10 -34l22 -22l12 -32 v-44l10 -34l22 -22l12 -32v-44l10 -34l22 -22v-22l-22 -22l-10 -32l-12 -34l-22 -22l-10 -32l-12 -34l-220 -220l-32 -10l-34 -12l-22 -22l-32 -10h-44l-34 -12l-66 -66l-32 -10h-88l-34 -12l-22 -22l-32 -10h-88l-34 -12l-22 -22l-32 -10h-88l-34 10l-22 22l-32 12l-34 10 l-22 22l-32 12l-34 10l-44 44l-10 34l-12 32l-22 22zM240 132l10 -34l44 -44l34 -10l32 -12l22 -22l34 -10h88l32 10l22 22l34 12h132l32 10l22 22l34 12l32 10l22 22l34 12l32 10l22 22l34 12l32 10l176 176l12 34v176l-12 32l-22 22l-10 34l-12 32l-220 220l-32 12l-34 10 l-22 22l-32 12h-88l-34 -12l-10 -32l-12 -34l-88 -88l-32 -10l-34 -12l-44 -44l-10 -32l-12 -34l-66 -66l-10 -32l-12 -34l-22 -22l-10 -32l-12 -34l-22 -22l-10 -32l-12 -34l-22 -22l-10 -32v-176z" />
<glyph unicode="p" horiz-adv-x="1140" d="M64 -264v1232l10 32l44 44l34 12h132l32 10l22 22l34 12h132l32 10l22 22h22l22 -22l34 -10h176l32 -12l66 -66l34 -10l32 -12l44 -44l12 -32l10 -34l22 -22l12 -32v-132l-12 -34l-22 -22l-10 -32l-12 -34l-66 -66l-10 -32l-12 -34l-220 -220l-32 -10h-220l-34 -12 l-22 -22l-32 -10l-34 -12l-44 -44l-10 -32v-44l-12 -34l-22 -22l-10 -32v-220l-12 -34l-44 -44l-32 -10l-34 10l-44 44zM240 572l10 -34l22 -22l12 -32l10 -34l34 -10l32 -12l22 -22l34 -10h132l32 10l22 22l34 12l32 10l132 132l12 34l10 32l22 22l12 34v44l-12 32l-88 88 l-32 12h-264l-34 -12l-22 -22l-32 -10l-34 -12l-44 -44l-10 -32v-44l-12 -34l-22 -22l-10 -32v-44z" />
<glyph unicode="q" horiz-adv-x="1228" d="M64 88v176l10 32l22 22l12 34v44l10 32l22 22l12 34v88l10 32l22 22l12 34v44l10 32l66 66l12 34l10 32l176 176l34 12l32 10l22 22l34 12l32 10l22 22l34 12h132l32 -12l220 -220l12 -32v-44l10 -34l66 -66l12 -32v-308l-12 -34l-22 -22l-44 -44l-10 -32l-12 -34 l-22 -22l-10 -32v-44l-12 -34l-22 -22l-10 -32v-132l10 -34l66 -66l12 -32v-44l-12 -34l-44 -44l-32 -10l-34 10l-110 110l-32 12h-132l-34 -12l-66 -66l-32 -10h-132l-34 10l-66 66l-32 12l-34 10l-132 132l-10 34v44l-12 32l-22 22zM328 44l10 -34l44 -44l34 -10h176 l32 10l88 88v22l-22 22l-10 34l-12 32l-22 22l-10 34l10 32l44 44l34 12h132l32 10l12 34l10 32l22 22l12 34v176l-12 32l-66 66l-10 34l-12 32l-32 12l-34 10l-22 22l-32 12h-132l-34 -12l-44 -44l-10 -32l-12 -34l-66 -66l-10 -32l-12 -34l-22 -22l-10 -32v-44l-12 -34 l-22 -22l-10 -32v-352z" />
<glyph unicode="r" horiz-adv-x="1360" d="M64 748v132l10 32l176 176l34 12h44l32 10l22 22l34 12h352l32 -12l22 -22l34 -10l32 -12l22 -22l34 -10l32 -12l22 -22l34 -10l32 -12l176 -176l12 -32l10 -34l22 -22l12 -32v-44l-12 -34l-22 -22l-10 -32l-12 -34l-32 -10l-34 -12l-22 -22l-32 -10l-34 -12l-22 -22 l-32 -10h-176l-34 -12l-44 -44l-10 -32v-88l10 -34l34 -10l32 -12l308 -308l12 -32l10 -34l22 -22l12 -32l-12 -34l-44 -44l-32 -10l-34 10l-66 66l-32 12l-34 10l-462 462h-22l-10 -32v-220l-12 -34l-22 -22l-10 -32l-12 -34l-44 -44l-32 -10h-44l-34 10l-10 34v44l10 32 l22 22l12 34v132l-12 32l-22 22l-10 34v44l-12 32l-22 22l-10 34v44l-12 32l-22 22l-10 34v44l-12 32l-22 22l-10 34v44l-12 32l-22 22zM240 748l10 -34l22 -22l12 -32l10 -34l22 -22l12 -32v-44l10 -34l44 -44h22l110 110l34 12h88l32 10l22 22l34 12h264l32 10l12 34v88 l-12 32l-44 44l-32 12h-44l-34 10l-22 22l-32 12l-34 10l-22 22l-32 12h-264l-34 -12l-22 -22l-32 -10l-34 -12l-88 -88z" />
<glyph unicode="s" horiz-adv-x="1052" d="M64 -88l10 32l34 12h132l32 -12l22 -22l34 -10l32 10l22 22l34 12h176l32 10l132 132l12 34v44l-12 32l-22 22l-10 34l-12 32l-44 44l-32 12l-34 10l-66 66l-32 12l-34 10l-66 66l-32 12h-44l-34 10l-22 22l-32 12l-34 10l-10 34l-12 32l-22 22v22l22 22l12 34l10 32 l154 154l12 34l10 32l34 12l32 10l110 110l34 12l32 10l22 22l34 12l32 10l22 22l34 12h176l32 -12l12 -32l-12 -34l-32 -10l-34 -12l-22 -22l-32 -10l-34 -12l-66 -66l-32 -10l-34 -12l-66 -66l-32 -10l-34 -12l-44 -44l-10 -32l-12 -34l-66 -66l-10 -32l10 -34l34 -10 l32 -12l22 -22l34 -10l32 -12l66 -66l34 -10l32 -12l132 -132l12 -32l10 -34l66 -66l12 -32v-44l10 -34l22 -22v-22l-22 -22l-10 -32l-12 -34l-88 -88l-32 -10l-34 -12l-22 -22l-32 -10l-34 -12l-22 -22l-32 -10h-132l-34 -12l-22 -22l-32 -10h-264l-34 10l-44 44l-10 34v44 z" />
<glyph unicode="t" horiz-adv-x="1316" d="M64 924v44l10 32l34 12h1100l32 -12l12 -32v-88l-12 -34l-32 -10l-34 -12l-22 -22l-32 -10h-308l-34 -12l-44 -44l-10 -32v-792l-12 -34l-22 -22l-10 -32l-12 -34l-32 -10h-44l-34 10l-44 44l-10 34v44l10 32l22 22l12 34v748l-12 32l-44 44l-32 12h-44l-34 -12l-22 -22 l-32 -10h-88l-34 10l-22 22l-32 12l-34 10l-44 44z" />
<glyph unicode="u" horiz-adv-x="1316" d="M64 88v352l10 32l22 22l12 34v88l10 32l22 22l12 34v88l10 32l44 44l34 12h44l32 -12l44 -44l12 -32v-132l-12 -34l-22 -22l-10 -32l-12 -34l-22 -22l-10 -32v-396l10 -34l22 -22l12 -32l10 -34l22 -22l12 -32l10 -34l34 -10h220l32 10l176 176l12 34l10 32l66 66l12 34 l10 32l22 22l12 34v44l10 32l22 22l12 34l-12 32l-22 22l-10 34v44l-12 32l-22 22l-10 34v44l-12 32l-66 66l-10 34l-12 32l-22 22l-10 34v132l10 32l34 12h44l32 -12l44 -44l12 -32l10 -34l22 -22l12 -32l10 -34l22 -22l12 -32l10 -34l22 -22l12 -32l10 -34l110 -110 l12 -32v-176l-12 -34l-22 -22l-10 -32l-12 -34l-66 -66l-10 -32l-12 -34l-22 -22l-10 -32l-12 -34l-66 -66l-10 -32l-12 -34l-176 -176l-32 -10l-34 -12l-22 -22l-32 -10l-34 -12l-22 -22l-32 -10h-132l-34 10l-22 22l-32 12h-44l-34 10l-88 88l-10 34l-12 32l-66 66l-10 34 v44l-12 32l-22 22z" />
<glyph unicode="v" horiz-adv-x="1052" d="M64 748v220l10 32l34 12h88l32 -12l12 -32v-44l10 -34l22 -22l12 -32v-88l10 -34l22 -22l12 -32l10 -34l22 -22l12 -32l10 -34l22 -22l12 -32v-44l10 -34l22 -22l12 -32l10 -34l22 -22l12 -32l10 -34l88 -88h22l44 44l12 34v220l10 32l22 22l12 34l10 32l22 22l12 34v176 l10 32l22 22l12 34v132l10 32l34 12l32 10l22 22h22l44 -44l12 -32v-176l-12 -34l-22 -22l-10 -32v-132l-12 -34l-22 -22l-10 -32v-88l-12 -34l-22 -22l-10 -32v-44l-12 -34l-22 -22l-10 -32v-132l-12 -34l-22 -22l-10 -32v-88l-12 -34l-88 -88l-32 -10h-44l-34 10l-88 88 l-10 34l-12 32l-22 22l-10 34l-12 32l-22 22l-10 34l-12 32l-22 22l-10 34l-12 32l-66 66l-10 34v44l-12 32l-22 22l-10 34l-12 32l-22 22l-10 34v44l-12 32l-22 22l-10 34l-12 32l-22 22z" />
<glyph unicode="w" horiz-adv-x="1316" d="M64 968v44l10 32l34 12h88l32 -12l12 -32v-44l10 -34l22 -22l12 -32v-44l10 -34l22 -22l12 -32v-220l10 -34l22 -22l12 -32v-88l10 -34l34 -10l32 10l12 34l10 32l22 22l12 34v44l10 32l88 88h22l22 -22l34 -10l32 -12l12 -32l10 -34l22 -22l12 -32v-88l10 -34l22 -22 l12 -32l10 -34h22l12 34v44l10 32l22 22l12 34v132l10 32l22 22l12 34v44l10 32l22 22l12 34v88l10 32l22 22l12 34l10 32l44 44l34 12h44l32 -12l44 -44l12 -32l-12 -34l-22 -22l-44 -44l-10 -32v-88l-12 -34l-22 -22l-10 -32v-132l-12 -34l-22 -22l-10 -32v-44l-12 -34 l-22 -22l-10 -32v-88l-12 -34l-22 -22l-10 -32v-44l-12 -34l-22 -22l-10 -32l-12 -34l-44 -44l-32 -10l-34 10l-22 22l-32 12l-34 10l-10 34v44l-12 32l-22 22l-10 34l-12 32l-44 44l-32 12l-34 -12l-10 -32l-12 -34l-22 -22l-10 -32l-12 -34l-132 -132l-32 -10l-34 10 l-44 44l-10 34v176l-12 32l-22 22l-10 34v176l-12 32l-22 22l-10 34v220l-12 32l-22 22l-10 34v88l-12 32l-22 22z" />
<glyph unicode="x" d="M64 0l10 32l22 22l12 34l10 32l242 242v22l-22 22l-10 34l-12 32l-66 66l-10 34l-12 32l-66 66l-10 34l-12 32l-22 22l-10 34v88l10 32l34 12l32 10l22 22l34 12l32 -12l88 -88l12 -32l10 -34l22 -22l12 -32l10 -34l34 -10l32 -12l22 -22l34 -10h44l32 10l12 34l10 32 l220 220l34 12l32 10l22 22l34 12h132l32 -12l12 -32l10 -34l22 -22v-22l-22 -22l-10 -32l-12 -34l-88 -88l-32 -10l-34 -12l-220 -220l-10 -32v-44l10 -34l22 -22l12 -32l10 -34l242 -242l12 -32v-44l10 -34l22 -22v-22l-22 -22l-10 -32l-12 -34l-32 -10h-88l-34 10 l-132 132l-10 34l-12 32l-110 110l-10 34l-12 32l-32 12h-44l-34 -12l-286 -286l-32 -10l-34 10l-88 88z" />
<glyph unicode="y" horiz-adv-x="1052" d="M64 1012l10 32l44 44l34 12l32 -12l132 -132l12 -32v-44l10 -34l22 -22l12 -32l10 -34l22 -22l12 -32l10 -34l22 -22l12 -32v-44l10 -34l34 -10l32 -12l22 -22h22l22 22l34 12l32 10l12 34v44l10 32l66 66l12 34l10 32l22 22l12 34l10 32l44 44l34 12h44l32 -12l12 -32 v-44l-12 -34l-22 -22l-10 -32v-44l-12 -34l-22 -22l-10 -32l-12 -34l-66 -66l-10 -32l-12 -34l-22 -22l-10 -32l-12 -34l-22 -22l-10 -32v-44l-12 -34l-22 -22l-10 -32v-396l-12 -34l-88 -88l-32 -10l-34 10l-44 44l-10 34v264l10 32l22 22l12 34v44l-12 32l-22 22l-10 34 v44l-12 32l-22 22l-10 34l-12 32l-66 66l-10 34l-12 32l-22 22l-10 34l-12 32l-66 66l-10 34v44l-12 32l-22 22l-10 34l-12 32l-22 22l-10 34l-12 32l-22 22z" />
<glyph unicode="z" horiz-adv-x="1404" d="M64 968l10 32l44 44l34 12h132l32 10l22 22l34 12h440l32 -12l22 -22l34 -10h44l32 -12l88 -88l12 -32v-88l-12 -34l-308 -308l-32 -10l-34 -12l-308 -308l-10 -32l10 -34l34 -10l32 -12l22 -22l34 -10h88l32 10l22 22l34 12h616l32 -12l12 -32l-12 -34l-22 -22l-22 -22 l-32 -10h-132l-34 -12l-22 -22l-32 -10l-34 -12l-22 -22l-32 -10h-616l-34 10l-22 22l-32 12l-34 10l-88 88l-10 34v132l10 32l308 308l34 12l32 10l154 154l34 12l32 10l44 44l12 34v44l-12 32l-44 44l-32 12h-132l-34 -12l-22 -22l-32 -10h-308l-34 10l-44 44z" />
<glyph unicode="{" horiz-adv-x="524" d="M64 572l10 32l44 44l34 12l32 10l12 34v44l-12 32l-22 22l-10 34l-12 32l-22 22l-10 34l10 32l22 22l12 34l10 32l44 44l34 12l32 10l22 22l34 12h88l32 -12v-22l-44 -44l-32 -10l-34 -12l-22 -22l-32 -10l-34 -12l-10 -32v-44l10 -34l110 -110l12 -32v-44l-12 -34 l-66 -66l-10 -32l10 -34l22 -22l12 -32v-44l-12 -34l-22 -22l-10 -32v-88l10 -34l44 -44l34 -10h44l32 -12l12 -32l-12 -34l-22 -22l-22 -22l-32 -10h-44l-34 10l-22 22l-32 12l-34 10l-44 44l-10 34v176l10 32l22 22l12 34l-12 32l-44 44l-32 12l-34 10z" />
<glyph unicode="|" horiz-adv-x="304" d="M64 -88v264l10 32l22 22l12 34v616l10 32l34 12l32 -12l12 -32l10 -34l22 -22l12 -32l-12 -34l-22 -22l-10 -32v-792l-12 -34l-44 -44h-22l-44 44z" />
<glyph unicode="}" horiz-adv-x="480" d="M64 978v22l44 44h22l22 -22l34 -10h88l32 -12l44 -44l12 -32l10 -34l22 -22l12 -32l-12 -34l-22 -22l-10 -32v-44l-12 -34l-22 -22l-10 -32v-44l10 -34l34 -10l32 -12l12 -32v-44l-12 -34l-32 -10l-34 -12l-44 -44l-10 -32l10 -34l22 -22l12 -32v-44l10 -34l22 -22 l12 -32l-12 -34l-22 -22l-10 -32l-12 -34l-32 -10l-34 -12l-22 -22l-32 -10h-44l-34 10l-10 34l10 32l34 12l32 10l44 44l12 34l-12 32l-22 22l-10 34v44l-12 32l-22 22l-10 34l10 32l22 22l12 34v88l-12 32l-22 22l-10 34l10 32l66 66l12 34l10 32l22 22l12 34v44l-12 32 l-44 44l-32 12h-44l-34 10z" />
<glyph unicode="~" horiz-adv-x="1052" d="M64 450v22l176 176l34 12h132l32 10l22 22h22l22 -22l34 -10h44l32 -12l66 -66l34 -10l32 -12l22 -22l34 -10l32 10l22 22l34 12l32 -12l44 -44l12 -32v-44l-12 -34l-22 -22l-22 -22l-32 -10l-34 -12l-22 -22l-32 -10h-88l-34 10l-22 22l-32 12l-34 10l-66 66l-32 12 l-34 10l-22 22l-32 12l-34 -12l-22 -22l-32 -10l-34 -12l-22 -22l-32 -10l-34 -12l-22 -22l-32 -10l-34 10l-10 34l-12 32z" />
<glyph unicode="&#xa2;" horiz-adv-x="1492" d="M64 308v220l10 32l22 22l12 34v44l10 32l22 22l12 34l10 32l88 88l34 12l32 10l22 22l34 12h132l32 10l22 22h22l22 -22l34 -10h88l32 10l66 66l34 12l32 10l22 22l34 12l32 10l22 22l34 12h88l32 10l22 22h22l22 -22l34 -10h44l32 -12l44 -44l12 -32l10 -34l22 -22 l12 -32v-220l-12 -34l-22 -22l-10 -32v-44l-12 -34l-22 -22l-10 -32l-12 -34l-66 -66l-10 -32l-12 -34l-22 -22l-10 -32l-12 -34l-66 -66l-10 -32v-44l-12 -34l-22 -22l-10 -32v-44l-12 -34l-88 -88l-32 -10h-88l-34 10l-66 66l-32 12l-34 10l-22 22l-32 12l-34 10l-22 22 l-32 12h-44l-34 10l-22 22l-32 12h-44l-34 10l-22 22l-32 12l-34 10l-176 176zM240 352l10 -34l44 -44l34 -10l32 -12l22 -22l34 -10h44l32 -12l22 -22l34 -10h44l32 -12l22 -22l34 -10l32 -12l22 -22l34 -10l32 -12l22 -22l34 -10l32 10l44 44l12 34l10 32l22 22l12 34 l10 32l66 66l12 34l10 32l22 22l12 34l10 32l66 66l12 34l10 32l22 22l12 34l10 32l22 22l12 34v88l-12 32l-88 88h-22l-22 -22l-32 -10h-44l-34 -12l-22 -22l-32 -10l-34 -12l-88 -88l-10 -32l-12 -34l-88 -88h-22l-44 44l-10 34v44l-12 32l-32 12h-132l-34 -12l-22 -22 l-32 -10l-34 -12l-88 -88l-10 -32l-12 -34l-22 -22l-10 -32v-176z" />
<glyph unicode="&#xa3;" horiz-adv-x="1448" d="M64 -44l10 32l44 44h22v-22l-22 -22l-10 -32v-88l10 -34l22 -22l12 -32v-176l-12 -34h-22l-10 34v132l-12 32l-22 22l-10 34v132zM74 54v22h22v-22h-22zM118 98v22h22v-22h-22zM162 54v22h22v-22h-22zM206 -12l34 12l32 10l12 34l10 32l22 22l12 34v44l-12 32l-22 22 l-10 34l10 32l22 22l12 34l10 32h22l22 -22h22l22 22h22v-22l-22 -22l-10 -32l10 -34l110 -110l12 -32l10 -34l22 -22l12 -32v-176l-12 -34l-22 -22l-10 -32l-12 -34l-32 -10l-34 10v22l22 22l12 34l10 32l22 22v22l-22 22l-10 34v44l-12 32h-22l-10 -32v-44l-12 -34h-22 l-10 34l-12 32h-22l-10 -32l10 -34l66 -66v-22h-22l-22 22l-32 12l-34 10l-66 66l-32 12l-34 10v22zM206 98v22h22v-22h-22zM240 352l10 32h22l12 -32l-12 -34h-22zM250 -100h22v-22h-22v22zM250 142v22h22v-22h-22zM294 -144h22v-22h-22v22zM294 494v22h22v-22h-22z M338 582v22h22v-22h-22zM372 -396l10 32l22 22l12 34l10 32h22l44 -44v-22l-22 -22l-44 -44l-10 -32v-88l-12 -34h-22l-10 34v132zM382 626v22l44 44h22l22 -22l34 -10h88l32 -12v-22l-32 -10h-176zM470 758v22h22v-22h-22zM514 318v22l34 12h44l32 10l22 22h22l12 -32v-44 l-12 -34h-22l-22 22l-32 12h-44zM514 406v22h22v-22h-22zM514 802v22h22v-22h-22zM548 880l10 32l34 12l32 10l22 22h22l12 -32l-12 -34l-32 -10l-34 -12l-22 -22h-22zM602 142v22h22v-22h-22zM602 406v22h22v-22h-22zM646 186v22l34 12l32 -12v-22l-32 -10zM646 582v22 l34 12l32 -12v-22l-32 -10zM690 978v22h22v-22h-22zM734 230v22l34 12l32 -12v-22l-32 -10zM734 538v22h22v-22h-22zM734 1022v22h22v-22h-22zM778 494v22h22v-22h-22zM778 1066v22l44 44l34 12l32 -12v-22l-22 -22l-22 -22l-32 -10zM822 406v22h22v-22h-22zM866 274v22h22 v-22h-22zM866 450v22h22v-22h-22zM900 616l10 32h22l12 -32l-12 -34h-22zM910 1154v22h22v-22h-22zM910 1330v22h22v-22h-22zM954 670v22h22v-22h-22zM954 1198v22l34 12l32 -12v-22l-32 -10zM998 362v22h22v-22h-22zM998 802v22h22v-22h-22zM1032 484l10 32h22l12 -32 l-12 -34h-22zM1042 934v22h22v-22h-22zM1086 714v22h22v-22h-22zM1086 1154v22h22v-22h-22zM1086 1286v22h22v-22h-22zM1130 758v22h22v-22h-22zM1174 1110v22h22v-22h-22zM1218 802v22h22v-22h-22zM1218 1198v22h22v-22h-22zM1262 1242v22h22v-22h-22zM1262 1462v22h22v-22 h-22zM1306 1286v22h22v-22h-22zM1350 1330v22h22v-22h-22z" />
<glyph unicode="&#xac;" horiz-adv-x="920" d="M64 528v44l10 32l286 286l12 34l10 32l22 22l12 34v44l10 32l44 44h22l44 -44l12 -32l10 -34l22 -22l12 -32v-308l10 -34l22 -22l12 -32l10 -34l34 -10h44l32 -12l88 -88l12 -32v-44l-12 -34l-22 -22l-66 -66l-32 -10h-88l-34 10l-44 44l-10 34l-12 32l-22 22l-10 34v352 l-12 32l-44 44h-22l-220 -220l-10 -32v-308l10 -34l34 -10h132l32 -12l12 -32l10 -34l22 -22l12 -32v-88l-12 -34l-88 -88l-32 -10l-34 10l-66 66l-32 12l-34 10l-44 44l-10 34l10 32l22 22l12 34v44l-12 32l-22 22l-10 34v176l-12 32l-22 22z" />
<glyph unicode="&#xad;" horiz-adv-x="876" d="M64 396l10 32l88 88l34 12h44l32 -12l22 -22l34 -10h396l32 -12l44 -44l12 -32l-12 -34l-32 -10l-34 -12l-22 -22l-32 -10h-528l-34 10l-44 44z" />
<glyph unicode="&#xb1;" horiz-adv-x="744" d="M64 132v88l10 32l22 22l12 34l10 32l44 44l34 12h88l32 10l12 34v264l10 32l22 22l12 34v88l10 32l44 44h22l44 -44l12 -32l10 -34l154 -154l12 -32v-44l-12 -34l-32 -10l-34 10l-44 44l-10 34l-12 32l-32 12h-44l-34 -12l-10 -32v-440l-12 -34l-132 -132l-32 -10h-88 l-34 10l-44 44z" />
<glyph unicode="&#x2000;" horiz-adv-x="742" />
<glyph unicode="&#x2001;" horiz-adv-x="1484" />
<glyph unicode="&#x2002;" horiz-adv-x="742" />
<glyph unicode="&#x2003;" horiz-adv-x="1484" />
<glyph unicode="&#x2004;" horiz-adv-x="494" />
<glyph unicode="&#x2005;" horiz-adv-x="371" />
<glyph unicode="&#x2006;" horiz-adv-x="247" />
<glyph unicode="&#x2007;" horiz-adv-x="247" />
<glyph unicode="&#x2008;" horiz-adv-x="185" />
<glyph unicode="&#x2009;" horiz-adv-x="296" />
<glyph unicode="&#x200a;" horiz-adv-x="82" />
<glyph unicode="&#x2010;" horiz-adv-x="876" d="M64 396l10 32l88 88l34 12h44l32 -12l22 -22l34 -10h396l32 -12l44 -44l12 -32l-12 -34l-32 -10l-34 -12l-22 -22l-32 -10h-528l-34 10l-44 44z" />
<glyph unicode="&#x2011;" horiz-adv-x="876" d="M64 396l10 32l88 88l34 12h44l32 -12l22 -22l34 -10h396l32 -12l44 -44l12 -32l-12 -34l-32 -10l-34 -12l-22 -22l-32 -10h-528l-34 10l-44 44z" />
<glyph unicode="&#x2012;" horiz-adv-x="876" d="M64 396l10 32l88 88l34 12h44l32 -12l22 -22l34 -10h396l32 -12l44 -44l12 -32l-12 -34l-32 -10l-34 -12l-22 -22l-32 -10h-528l-34 10l-44 44z" />
<glyph unicode="&#x2013;" horiz-adv-x="876" d="M64 396l10 32l88 88l34 12h44l32 -12l22 -22l34 -10h396l32 -12l44 -44l12 -32l-12 -34l-32 -10l-34 -12l-22 -22l-32 -10h-528l-34 10l-44 44z" />
<glyph unicode="&#x2014;" horiz-adv-x="2176" d="M64 396l27 32l241 88l93 12h121l87 -12l61 -22l93 -10h1084l88 -12l120 -44l33 -32l-33 -34l-87 -10l-94 -12l-60 -22l-87 -10h-1446l-93 10l-121 44z" />
<glyph unicode="&#x2018;" horiz-adv-x="480" d="M64 494v22l22 22l12 34v88l10 32l22 22l12 34v88l10 32l22 22l12 34l10 32l22 22l12 34l10 32l44 44l34 12l32 -12l12 -32l10 -34l22 -22l12 -32v-44l-12 -34l-22 -22l-10 -32v-44l-12 -34l-22 -22l-10 -32l-12 -34l-22 -22l-10 -32v-44l-12 -34l-88 -88l-32 -10l-34 10z " />
<glyph unicode="&#x2019;" horiz-adv-x="480" d="M64 494v22l22 22l12 34v88l10 32l22 22l12 34v88l10 32l22 22l12 34l10 32l22 22l12 34l10 32l44 44l34 12l32 -12l12 -32l10 -34l22 -22l12 -32v-44l-12 -34l-22 -22l-10 -32v-44l-12 -34l-22 -22l-10 -32l-12 -34l-22 -22l-10 -32v-44l-12 -34l-88 -88l-32 -10l-34 10z " />
<glyph unicode="&#x201c;" horiz-adv-x="700" d="M64 396v88l10 32l22 22l12 34v88l10 32l22 22l12 34l10 32l34 12h44l32 -12l44 -44l12 -32v-44l-12 -34l-22 -22l-10 -32v-88l-12 -34l-22 -22l-10 -32l-12 -34l-44 -44l-32 -10l-34 10l-44 44zM416 264v132l10 32l22 22l12 34v352l10 32l44 44l34 12l32 -12l44 -44 l12 -32v-264l-12 -34l-22 -22l-10 -32v-176l-12 -34l-44 -44l-32 -10h-44l-34 10z" />
<glyph unicode="&#x201d;" horiz-adv-x="700" d="M64 396v88l10 32l22 22l12 34v88l10 32l22 22l12 34l10 32l34 12h44l32 -12l44 -44l12 -32v-44l-12 -34l-22 -22l-10 -32v-88l-12 -34l-22 -22l-10 -32l-12 -34l-44 -44l-32 -10l-34 10l-44 44zM416 264v132l10 32l22 22l12 34v352l10 32l44 44l34 12l32 -12l44 -44 l12 -32v-264l-12 -34l-22 -22l-10 -32v-176l-12 -34l-44 -44l-32 -10h-44l-34 10z" />
<glyph unicode="&#x202f;" horiz-adv-x="296" />
<glyph unicode="&#x205f;" horiz-adv-x="371" />
<glyph unicode="&#x20ac;" horiz-adv-x="1580" d="M64 308v440l10 32l22 22l12 34v88l10 32l22 22l12 34v44l10 32l66 66l12 34l10 32l44 44l34 12l32 10l66 66l34 12h352l32 -12l22 -22l34 -10h88l32 -12l22 -22l34 -10l32 -12l22 -22l34 -10l32 -12l220 -220l12 -32l10 -34l22 -22l12 -32v-88l10 -34l22 -22l12 -32v-220 l-12 -34l-22 -22l-10 -32v-176l-12 -34l-22 -22l-10 -32v-88l-12 -34l-22 -22l-10 -32l-12 -34l-22 -22l-10 -32l-12 -34l-22 -22l-10 -32l-12 -34l-22 -22l-10 -32l-12 -34l-220 -220l-32 -10l-34 -12l-22 -22l-32 -10h-88l-34 10l-22 22l-32 12h-44l-34 10l-22 22l-32 12 l-34 10l-66 66l-32 12l-34 10l-10 34l-12 32l-110 110l-10 34l-12 32l-22 22l-10 34l-12 32l-22 22l-10 34l-12 32l-22 22l-10 34v44l-12 32l-22 22l-10 34v44l-12 32l-22 22zM108 440l10 -34l22 -22l12 -32v-88l10 -34l22 -22l12 -32v-44l10 -34l22 -22l12 -32v-44l10 -34 l22 -22l12 -32l10 -34l66 -66l12 -32l10 -34l176 -176l34 -10l32 -12l22 -22l34 -10l32 -12l22 -22l34 -10h132l32 10l22 22l34 12l32 10l176 176l12 34l10 32l22 22l12 34l10 32l22 22l12 34v44l10 32l22 22l12 34v44l10 32l22 22l12 34v88l10 32l22 22l12 34v440l-12 32 l-22 22l-10 34l-12 32l-22 22l-10 34l-12 32l-132 132h-22l-22 -22l-32 -10h-88l-34 -12l-22 -22l-32 -10l-34 -12l-352 -352l-10 -32l-12 -34l-22 -22l-10 -32l-12 -34h-22l-10 34v44l-12 32l-22 22v22l22 22v22h-22l-44 -44l-10 -32v-88l-12 -34h-22l-44 44v22l22 22v22 l-22 22l-10 34l-12 32h-22l-10 -32l-12 -34h-22l-10 34v44l-12 32h-22l-10 -32l-12 -34l-22 -22l-10 -32v-220zM196 880l10 -34h22l12 34l-12 32h-22zM250 934h22v22h-22v-22zM250 1066h22v22h-22v-22zM294 1110h22v22h-22v-22zM338 1154l34 -10l32 10l88 88v22l-32 12 l-34 -12l-88 -88v-22zM382 802h22v22h-22v-22zM416 880l10 -34h22l264 264v22l-32 12l-34 -12l-220 -220zM636 -44l10 32l44 44l34 12l32 -12l22 -22l34 -10h88l32 -12l12 -32l10 -34l22 -22l12 -32l-12 -34l-22 -22l-22 -22l-32 -10h-88l-34 -12l-22 -22l-32 -10l-34 10 l-44 44l-10 34v132zM734 1154h22v22h-22v-22zM866 1242h22v22h-22v-22z" />
<glyph unicode="&#xe000;" horiz-adv-x="1010" d="M0 0v1010h1010v-1010h-1010z" />
</font>
</defs>
</svg>
